osu file format v9

[General]
AudioFilename: Omamori_Himari_-_Oshichau_Zo_TV_Size.mp3
AudioLeadIn: 0
PreviewTime: 34188
Countdown: 0
SampleSet: Soft
StackLeniency: 0.7
Mode: 0
LetterboxInBreaks: 0
StoryFireInFront: 0
EpilepsyWarning: 1

[Editor]
DistanceSpacing: 1.1
BeatDivisor: 4
GridSize: 4

[Metadata]
Title:Oshichau Zo!! (TV Size)
Artist:AyaRuka
Creator:Astom
Version:Insane
Source:Omamori Himari
Tags:frost-b-spec Mafiamaster KenezzEdward Rucker osuplayer111

[Difficulty]
HPDrainRate:7
CircleSize:4
OverallDifficulty:7
ApproachRate:8
SliderMultiplier:1.4
SliderTickRate:1

[Events]
//Background and Video events
0,0,"BG.jpg"
//Break Periods
//Storyboard Layer 0 (Background)
//Storyboard Layer 1 (Fail)
//Storyboard Layer 2 (Pass)
//Storyboard Layer 3 (Foreground)
Sprite,Foreground,Centre,"SB\warning.png",320,240 M,0,50045,,320,240 F,0,50045,50218,0,1 S,0,50045,51080,0.1807997,0.9999997 F,0,50218,51942,1 F,0,51942,52114,1,0 F,0,52114,53493,0 M,0,53149,53493,320,240,320,322 F,0,53493,53838,0,1 F,0,53838,54873,1 F,0,54873,55045,1,0
//Storyboard Sound Samples
//Background Colour Transformations
3,100,163,162,255

[TimingPoints]
1468,344.847405023277,4,2,0,70,1,0
10089,-100,4,2,0,70,0,0
10261,-100,4,2,0,50,0,0
10434,-100,4,2,0,40,0,0
10606,-100,4,2,0,30,0,0
10778,-100,4,2,0,20,0,0
11296,-100,4,2,0,30,0,0
11468,-100,4,2,0,40,0,0
11640,-100,4,2,0,50,0,0
11813,-100,4,2,0,60,0,0
12244,-100,4,2,1,70,0,0
34573,-100,4,2,1,70,0,1
34659,-133.333333333333,4,2,1,40,0,0
42763,-100,4,2,1,40,0,0
43884,-100,4,2,1,60,0,0
45608,-100,4,2,1,70,0,1
45694,-100,4,2,1,70,0,0
51039,-50,4,2,1,70,0,0
52074,-100,4,2,1,70,0,0
53798,-50,4,2,1,70,0,0
54833,-100,4,2,1,70,0,0
59402,-100,4,2,1,70,0,1
70351,-100,4,2,1,70,0,0
70437,-100,4,2,1,70,0,1
81472,-100,4,2,1,70,0,0

[Colours]
Combo1 : 255,255,85
Combo2 : 251,111,251
Combo3 : 252,27,88
SliderBorder : 250,43,87

[HitObjects]
0,192,1468,2,0,B|68:121|120:192|120:192,1,140,2|0
120,192,2157,2,0,B|188:263|240:192|240:192,1,140,2|0
240,192,2674,2,0,B|308:121|360:192|360:192,1,140,2|2
472,192,3364,1,2
392,112,3709,5,2
440,80,3881,1,2
496,80,4054,1,2
472,192,4226,6,0,B|404:263|352:192|352:192,1,140,2|0
352,192,4916,2,0,B|318:150|296:192|296:192,3,70,2|2|2|2
472,192,5778,6,0,B|404:263|352:192|352:192,1,140,2|2
387,328,6985,6,0,B|339:296|339:296|243:296|243:296,1,140,2|0
126,265,7675,2,0,B|174:233|174:233|270:233|270:233,1,140,2|0
388,128,8192,6,0,B|340:160|340:160|244:160|244:160,1,140,2|2
125,56,8882,2,0,B|173:88|173:88|269:88|269:88,1,140,2|2
312,88,9399,1,2
368,88,9571,1,2
256,192,9658,12,2,12158
256,192,12503,5,4
200,192,12675,2,0,B|136:128|136:128,1,70,0|8
144,192,13020,2,0,B|88:136|88:136,2,70,8|8|0
88,192,13537,2,0,B|32:136|32:136,1,70
128,72,14054,5,8
184,72,14227,2,0,B|248:136|248:136,1,70,0|8
240,72,14572,2,0,B|304:136|304:136,2,70,8|0|0
296,72,15089,1,0
416,120,15261,5,8
208,264,15606,1,8
176,16,15951,1,8
256,144,16296,5,0
256,144,16468,1,8
448,304,16813,1,8
504,56,17158,1,8
504,56,17330,6,0,B|448:120|448:120,1,70,8|0
504,144,17675,2,0,B|424:176|424:176,1,70
384,192,18020,1,8
256,192,18365,5,8
296,152,18537,2,0,B|352:96|352:96,2,70,8|8|0
256,192,19055,1,0
216,232,19227,1,8
104,232,19572,5,8
64,192,19744,2,0,B|8:136|8:136,2,70,0|8|8
104,232,20262,1,8
144,272,20434,2,0,B|208:336|208:336,2,70,0|8|8
144,192,20951,6,0,B|144:112|144:112,1,70,0|8
224,152,21296,2,0,B|224:72|224:72,1,70,0|8
304,112,21641,2,0,B|304:16,2,70,0|0|8
440,48,22331,1,0
440,48,22676,1,8
504,96,22848,6,0,B|440:160,1,70,8|0
456,224,23193,2,0,B|400:280,1,70,8|0
352,328,23538,1,4
256,288,23710,5,8
200,304,23883,2,0,B|160:320|120:312|120:312,1,70,8|0
80,232,24227,5,8
136,240,24400,2,0,B|184:248|216:240|216:240,1,70,0|8
256,160,24745,6,0,B|216:184|160:184|160:184,1,70,8|8
136,184,25090,1,0
80,104,25262,5,8
136,112,25434,2,0,B|192:128|232:104|232:104,5,70,0|8|0|8|8|12
280,80,26469,5,2
360,56,26641,1,2
432,96,26814,1,2
440,176,26986,1,2
376,232,27159,1,2
184,96,27503,5,2
312,312,27848,1,2
104,160,28193,1,2
104,160,28366,2,0,B|24:144|24:144,4,70,2|0|2|0|2
200,192,29228,5,0
256,144,29400,1,8
256,144,29573,2,0,B|312:88|312:88,2,70,0|8|0
336,160,30090,2,0,B|416:144|416:144,2,70,8|0|8
376,216,30607,6,0,B|432:280|432:280,1,70,8|8
352,256,30952,2,0,B|416:320|416:320,1,70,0|8
336,296,31297,2,0,B|400:360|400:360,1,70,8|8
256,296,31814,5,4
256,296,32159,1,8
176,280,32331,1,0
136,208,32504,1,8
216,208,32676,1,0
168,136,32849,1,8
88,120,33021,1,8
88,120,33366,1,8
88,120,33711,1,4
256,192,33797,12,4,34573
256,192,34918,5,0
256,192,35090,1,8
256,192,35263,2,0,B|208:152|208:244|148:180,1,104.999996870756,8|2
108,216,35780,1,8
68,260,35952,1,8
132,356,36297,1,2
224,288,36642,6,0,B|272:248|272:340|332:276,1,104.999996870756,0|2
344,236,37159,1,8
372,184,37332,2,0,B|324:144|324:236|264:172,1,104.999996870756,8|2
304,132,37849,1,8
332,80,38021,2,0,B|380:40|380:132|440:68,1,104.999996870756,8|2
425,81,38539,1,8
425,81,38711,1,8
480,184,39056,1,2
432,288,39401,5,8
316,288,39746,2,0,B|248:288|224:220,1,104.999996870756,2|4
116,236,40435,1,2
116,236,40608,1,8
116,236,40780,2,0,B|184:236|208:168,1,104.999996870756,8|2
224,132,41297,1,8
224,132,41470,5,8
272,28,41815,1,2
388,28,42159,1,8
448,128,42504,1,2
332,232,42849,6,0,B|380:280|260:288|348:380,1,140,8|2
330,358,43366,1,8
330,358,43539,1,8
96,312,44056,5,2
256,312,44401,1,2
120,232,44746,5,2
176,168,44918,1,0
256,136,45091,1,0
256,224,45263,1,0
336,192,45436,1,2
376,120,45608,5,4
456,200,45953,1,0
488,152,46125,1,2
488,88,46298,1,2
456,40,46470,1,0
376,120,46815,5,2
320,120,46987,1,2
264,120,47160,1,0
288,168,47332,1,2
232,168,47505,1,2
176,168,47677,5,2
88,240,48022,1,0
88,240,48194,1,2
88,240,48367,2,0,B|168:256|224:328|224:328,1,140,2|0
240,264,48884,1,2
288,240,49056,1,2
344,240,49229,2,0,B|432:224|472:144,1,140,0|2
482,113,49746,1,2
416,16,50091,5,0
304,40,50436,1,0
288,152,50781,1,2
408,208,51126,6,0,B|336:288|256:320|128:304|128:304,1,280,4|0
156,280,51643,6,0,B|268:288|348:256|415:164|415:164,1,280,4|0
256,192,52160,12,0,53539
96,96,53884,6,0,B|168:176|248:208|376:192|376:192,1,280,4|0
348,168,54402,6,0,B|236:176|156:144|89:52|89:52,1,280,4|0
99,65,54919,1,4
256,32,55436,5,0
256,32,55609,2,0,B|336:24|392:96,1,140,2|2
456,120,56126,5,0
456,120,56298,2,0,B|376:112|320:184,1,140,2|4
256,352,57333,5,2
80,192,58022,6,0,B|176:184|208:272,1,140,2|2
256,192,58540,1,0
312,136,58712,2,0,B|344:208|448:192,1,140,2|2
428,194,59402,5,4
496,192,59574,1,0
464,256,59747,1,8
392,256,59919,1,0
320,256,60092,2,0,B|216:256,2,70,8|0|8
352,192,60609,6,0,B|250:84,1,140,8|8
184,88,61126,1,8
112,88,61299,1,8
72,152,61471,1,8
104,216,61643,1,0
176,216,61816,1,8
216,152,61988,1,0
144,152,62161,5,8
216,272,62505,1,8
256,328,62678,1,0
256,328,62850,1,8
320,352,63023,1,0
320,352,63195,1,8
392,352,63368,2,0,B|488:352|496:248,1,140,8|8
496,200,63885,1,8
424,200,64057,2,0,B|328:200|320:304,1,140,8|8
320,352,64575,5,8
248,352,64747,1,0
176,352,64919,1,8
72,256,65264,1,8
208,256,65609,1,8
104,168,65954,1,8
176,168,66126,1,0
248,168,66299,2,0,B|416:168,1,140,8|8
388,168,66816,1,0
392,96,66989,5,8
456,128,67161,1,0
456,200,67333,1,8
392,240,67506,1,8
320,240,67678,5,8
176,240,68023,1,8
32,240,68368,1,8
56,176,68540,1,0
112,136,68713,1,8
184,136,68885,2,0,B|336:136,1,140,8|8
392,136,69402,1,8
392,136,69575,1,0
256,192,69661,12,4,70437
256,256,70782,5,8
256,256,70954,1,0
200,304,71127,1,8
200,304,71299,2,0,B|128:336|40:328,2,140,8|8|8
176,240,72161,1,8
224,184,72334,2,0,B|296:152|384:160,1,140,8|8
432,176,72851,5,8
432,176,73023,1,0
432,176,73196,2,0,B|424:96|344:56,1,140,8|8
280,64,73713,1,0
280,136,73885,2,0,B|352:184|352:256,1,140,8|8
352,320,74403,1,0
280,320,74575,2,0,B|272:240|192:200,1,140,8|0
136,208,75092,1,8
64,208,75265,5,8
24,168,75437,1,8
64,128,75610,1,8
120,128,75782,5,4
232,128,76127,1,2
232,128,76299,1,2
288,128,76472,1,0
288,128,76644,2,0,B|440:128,1,140,2|2
464,208,77162,5,8
504,248,77334,1,2
464,288,77506,1,0
408,288,77679,1,2
352,288,77851,1,0
352,288,78024,2,0,B|200:288,1,140,2|2
144,232,78541,6,0,B|128:176|40:136,1,140,8|2
88,96,79058,2,0,B|170:133|186:189,1,140,2|8
184,248,79575,1,0
208,296,79748,1,8
256,320,79920,1,4
368,320,80265,5,2
416,296,80438,1,2
440,248,80610,1,2
256,192,80696,12,4,81472
392,192,82162,6,0,B|324:263|272:192|272:192,1,140,2|0
272,192,82679,2,0,B|204:121|152:192|152:192,1,140,2|2
40,192,83369,1,2
120,112,83714,5,2
72,80,83886,1,2
16,80,84058,1,2
40,192,84231,6,0,B|108:263|160:192|160:192,1,140,2|0
160,192,84921,2,0,B|194:150|216:192|216:192,3,70,2|2|2|2
40,192,85783,6,0,B|108:263|160:192|160:192,1,140,2|2
200,80,86300,1,2
240,192,86472,1,2
136,120,86645,1,2
264,120,86817,1,4
