osu file format v9

[General]
AudioFilename: 01 - Oshichauzo!!.mp3
AudioLeadIn: 0
PreviewTime: 63189
Countdown: 0
SampleSet: Soft
StackLeniency: 0.4
Mode: 0
LetterboxInBreaks: 0

[Editor]
DistanceSpacing: 1.3
BeatDivisor: 4
GridSize: 4

[Metadata]
Title:Oshichau Zo!!
Artist:Aya Sakamoto & Ruka Kawada
Creator:hoLysoup
Version:Normal
Source:Omamori Himari
Tags:Noihara Ami Koshimizu MMzz

[Difficulty]
HPDrainRate:3
CircleSize:3
OverallDifficulty:3
ApproachRate:2
SliderMultiplier:0.7
SliderTickRate:1

[Events]
//Background and Video events
0,0,"wallpaper-403899.jpg"
//Break Periods
2,39958,49233
2,86855,96129
2,119958,129233
2,166855,181646
2,188923,198198
2,210992,214750
2,262027,265784
//Storyboard Layer 0 (Background)
//Storyboard Layer 1 (Fail)
//Storyboard Layer 2 (Pass)
//Storyboard Layer 3 (Foreground)
//Storyboard Sound Samples
//Background Colour Transformations
3,100,163,162,255

[TimingPoints]
1138,344.827586206897,4,2,1,100,1,0
6640,-100,4,2,0,80,0,0
20432,-100,4,2,1,70,0,0
23206,-100,4,2,0,70,0,0
25965,-100,4,2,1,70,0,0
40087,-133.333333333333,4,2,1,80,0,0
49914,-133.333333333333,4,2,0,80,0,0
56293,-100,4,2,1,80,0,0
63189,-100,4,2,1,80,0,0
64586,-100,4,2,1,90,0,1
78379,-100,4,2,1,70,0,1
80965,-100,4,2,0,85,0,0
96120,-100,4,2,1,80,0,0
108709,-100,4,2,1,80,0,0
119741,-133.333333333333,4,2,1,80,0,0
130778,-133.333333333333,4,2,0,80,0,0
136120,-100,4,2,1,80,0,0
142844,-100,4,2,1,80,0,0
144586,-100,4,2,1,90,0,1
158379,-200,4,2,1,70,0,1
160965,-100,4,2,1,70,0,0
164586,-100,4,2,1,70,0,0
183206,-100,4,2,0,85,0,0
199413,-133.333333333333,4,2,1,70,0,0
210793,-100,4,2,1,70,0,1
210879,-100,4,2,1,70,0,0
216310,-100,4,2,1,90,0,1
232689,-100,4,2,1,70,0,0
238379,-100,4,2,1,90,0,1
254758,-100,4,2,1,50,0,0

[Colours]
Combo1 : 252,27,88
Combo2 : 255,255,85
Combo3 : 60,191,255
Combo4 : 0,49,98

[HitObjects]
116,96,6655,2,0,B|180:60|252:72,1,140,2|0
376,128,7862,1,2
376,128,8207,1,2
376,128,8551,1,2
264,328,9414,6,0,B|192:364|124:336,1,140,2|0
76,212,10620,1,2
76,212,10965,1,2
76,212,11310,1,2
276,320,12172,6,0,B|360:304|376:216,1,140,2|0
364,88,13379,2,0,B|328:48|296:40,1,70,2|0
220,48,14069,1,2
148,104,14414,2,2,B|112:92,2,35
256,192,14931,12,0,16138
88,84,17689,5,2
172,52,18034,2,0,B|208:76|212:124,1,70
144,172,18724,2,0,B|156:220|192:236,1,70
264,264,19414,2,0,B|336:252,2,70
288,176,20448,5,2
288,176,20793,1,2
288,176,21138,1,2
156,216,21655,2,0,B|116:244|84:228,2,70,2|2|2
424,300,23207,5,2
332,288,23551,2,0,B|296:264|292:216,1,70
384,212,24241,2,0,B|372:164|336:148,1,70
264,116,24931,2,0,B|192:128,2,70
352,132,25965,1,0
428,184,26310,5,2
292,308,27000,1,2
140,208,27689,2,2,B|100:236|68:200,2,70,2|2|2
196,136,28724,1,6
196,136,29069,5,2
364,68,29758,1,2
468,220,30448,2,2,B|424:256|408:268,1,70
236,300,31483,1,2
236,300,31827,1,2
236,300,32172,1,2
160,136,32862,5,2
160,136,33207,1,2
160,136,33551,1,2
316,232,34241,6,2,B|240:184|176:232,2,140
292,52,36310,1,2
292,52,36655,1,2
292,52,37000,1,2
420,104,37517,2,2,B|452:140,1,35
408,264,38207,6,2,B|356:292|328:268,2,70
280,216,39414,1,2
280,216,39758,1,6
40,72,50793,6,2,B|92:40|144:64,2,104.999996870756
220,212,52862,1,2
220,212,53207,1,2
224,300,53551,6,2,B|284:300|324:256,2,104.999996870756
220,120,55620,1,2
220,120,55965,1,2
300,76,56310,6,2,B|404:76,2,105
292,304,59069,6,2,B|187:304,2,105
256,192,60448,12,4,61827
264,92,62517,5,0
140,92,63207,2,0,B|164:164|236:192,1,140
264,308,64586,5,4
264,308,64931,1,8
180,272,65276,2,0,B|136:228|140:200,1,70,0|8
212,156,65965,2,0,B|216:112|244:88,1,70,0|8
324,128,66655,2,0,B|360:108|404:112,1,70,0|8
368,200,67345,5,0
368,200,67689,1,8
304,264,68034,1,0
304,264,68379,1,8
216,288,68724,2,0,B|176:304|148:280,1,70,0|8
116,196,69414,2,0,B|160:184|188:216,1,70,0|8
260,160,70103,1,4
260,160,70448,5,8
212,84,70793,1,0
212,84,71138,2,0,B|304:80,1,70,8|0
320,164,71827,2,0,B|168:172,1,140,8|8
88,172,72862,5,0
88,172,73207,1,8
88,172,73551,1,0
224,172,74069,2,2,B|300:172,3,70
256,72,75620,5,4
256,72,75965,1,8
252,164,76310,2,0,B|292:184|324:164,1,70,0|8
404,204,77000,1,0
356,284,77345,2,0,B|336:312|292:288,1,70,8|0
204,272,78034,1,8
200,180,78379,6,0,B|128:156|112:80,3,140,0|8|0|8
92,232,80965,6,0,B|120:332,1,105
120,332,81827,1,2
240,276,82344,6,0,B|211:174,1,105
211,174,83206,1,2
340,128,83724,6,0,B|368:228,1,105
368,228,84586,1,2
244,280,85103,6,0,B|200:320|144:300,1,105
180,216,85965,1,2
180,216,86310,1,2
180,216,86655,1,4
424,84,97689,5,4
332,88,98034,2,0,B|296:112|292:160,1,70
380,176,98724,2,0,B|368:224|332:240,1,70
252,240,99414,2,0,B|180:228,2,70
264,148,100448,5,2
264,148,100793,1,2
264,148,101138,1,2
256,284,101655,6,0,B|300:324|332:316,1,70
356,336,102172,1,2
356,336,102517,1,2
88,300,103207,5,4
180,288,103551,2,0,B|216:264|220:216,1,70
128,212,104241,2,0,B|140:164|176:148,1,70
252,124,104931,2,0,B|324:136,2,70
252,216,105965,5,2
252,216,106310,1,2
252,216,106655,1,2
236,80,107172,2,0,B|305:35|365:87,1,140
88,84,108724,5,2
180,88,109069,2,0,B|216:112|220:160,1,70
128,164,109758,2,0,B|140:212|176:228,1,70
248,256,110448,2,0,B|320:244,2,70
268,168,111483,5,2
268,168,111827,1,2
268,168,112172,1,2
376,252,112689,2,2,B|352:292|316:292,1,70
288,260,113206,2,0,B|218:260,2,70
328,176,114241,6,2,B|412:176,2,70
144,180,115620,2,2,B|60:180,2,70
240,336,117000,1,2
112,288,117517,2,2,B|72:288,1,35
148,172,118207,2,2,B|64:172,2,70
284,176,119414,1,2
284,176,119758,1,6
164,86,130793,6,0,B|116:72|64:104,2,104.999996870756
272,168,132862,1,2
272,168,133207,1,2
300,252,133551,6,0,B|248:288|196:264,2,104.999996870756
264,76,135620,1,2
176,84,135965,1,2
116,144,136310,6,0,B|116:252,2,105,2|2|2
368,272,139069,6,2,B|368:164,2,105
256,192,140448,12,2,141827
256,196,142517,1,0
100,260,143206,2,0,B|136:288|168:260,3,70
256,280,144586,5,0
256,280,144931,1,8
416,192,145620,1,8
256,104,146310,1,8
96,192,147000,1,8
148,116,147345,6,0,B|192:84|224:84,1,70,0|8
300,108,148034,2,0,B|280:156|220:164,1,70,0|8
172,196,148724,2,0,B|192:252|172:292,1,70,0|8
88,260,149414,2,0,B|64:224|80:180,1,70,0|8
120,112,150103,1,4
120,112,150448,1,8
200,72,150793,6,0,B|284:72,2,70,0|8|0
220,160,151827,1,8
348,292,152517,1,8
348,292,152862,2,0,B|420:308,1,70,0|8
424,212,153551,6,0,B|344:196,1,70,0|8
380,108,154241,2,0,B|312:92,3,70,0|8|0|8
312,176,155620,5,4
312,176,155965,1,8
184,68,156655,1,8
56,180,157345,1,8
188,284,158034,1,8
256,192,158379,12,2,160448
264,48,160965,1,2
356,148,161482,1,2
356,148,161827,1,6
220,172,162345,5,2
160,296,162862,1,2
160,296,163207,1,6
292,264,163724,5,2
408,336,164241,1,2
408,336,164586,1,6
388,200,165103,6,0,B|392:144|372:120|336:112,1,105,2|2
264,72,165965,1,2
172,72,166310,1,2
216,152,166655,5,6
64,144,183206,6,2,B|136:112|200:120,3,140
344,64,185965,1,2
432,184,186655,1,2
352,304,187344,1,2
200,264,188034,2,0,B|152:264,4,35,0|0|0|0|4
56,236,199758,6,2,B|108:268|160:244,2,104.999996870756
236,136,201827,1,2
236,136,202172,1,2
324,104,202516,6,2,B|384:104|424:148,2,104.999996870756
216,216,204585,1,2
216,216,204930,1,2
156,288,205275,5,2
156,288,205792,1,2
156,288,206310,1,6
304,196,208034,5,2
304,196,208551,1,2
304,196,209068,1,4
256,192,209413,12,4,210792
248,76,216310,5,4
248,76,216655,1,8
332,112,217000,2,0,B|376:156|372:184,1,70,0|8
348,256,217689,2,0,B|344:300|316:324,1,70,0|8
240,280,218379,2,0,B|204:300|160:296,1,70,0|8
152,208,219069,5,0
152,208,219413,1,8
208,136,219758,1,0
208,136,220103,1,8
296,108,220448,2,0,B|336:92|364:116,1,70,0|8
392,200,221138,2,0,B|348:212|320:180,1,70,0|8
244,220,221827,1,4
244,220,222172,5,8
288,300,222517,1,0
288,300,222862,2,0,B|196:304,1,70,8|0
164,228,223551,2,0,B|316:220,1,140,8|8
304,128,224586,1,0
304,128,224931,1,8
304,128,225275,1,0
168,124,225793,2,0,B|92:124,3,70
160,248,227344,5,0
160,248,227689,1,8
216,176,228034,2,0,B|176:156|144:176,1,70,0|8
56,172,228724,1,0
104,92,229069,2,0,B|124:64|168:88,1,70,8|0
256,112,229758,1,8
280,200,230103,6,0,B|336:248|412:248,3,140,0|8|0|8
476,128,232689,1,2
340,132,233206,1,2
340,132,233551,1,2
204,124,234069,5,2
164,252,234586,1,2
164,252,234931,1,2
284,184,235448,5,2
408,124,235965,1,2
408,124,236310,1,2
256,192,236655,12,2,238379
260,112,238724,5,8
392,208,239413,1,8
232,280,240103,1,8
100,180,240793,1,8
160,112,241138,38,0,B|204:80|236:80,1,70,0|8
296,132,241827,2,0,B|276:180|216:188,1,70,0|8
176,240,242517,2,0,B|196:296|176:336,1,70,0|8
100,272,243207,2,0,B|76:236|92:192,1,70,0|8
136,128,243896,1,6
136,128,244241,1,8
208,76,244586,6,0,B|292:76,2,70,0|8|0
208,76,245620,1,8
272,244,246310,1,8
272,244,246655,2,0,B|348:256,1,70,0|8
392,176,247344,6,0,B|312:160,1,70,0|8
372,84,248034,2,0,B|304:72,3,70,0|8|0|8
296,160,249413,5,0
296,160,249758,1,8
180,48,250448,1,8
68,152,251138,1,8
180,260,251827,1,8
180,260,252172,6,2,B|264:272|308:204,1,140
228,168,253206,1,2
156,208,253551,1,2
108,276,253896,2,2,B|176:320,1,70
304,340,254758,5,6
396,252,255275,1,2
396,252,255620,1,2
396,116,256138,5,6
264,76,256655,1,2
264,76,257000,1,2
128,76,257517,5,6
200,188,258034,1,2
200,188,258379,1,2
140,312,258896,6,2,B|204:336|276:308,1,140,2|0
308,212,259931,2,2,B|356:212,2,35
260,116,260620,2,2,B|212:116,1,35
184,196,261138,5,2
184,196,261482,1,2
184,196,261827,1,6
396,96,267344,6,0,B|332:60|260:72,1,140,2|2
128,112,268551,1,2
128,112,268896,1,2
128,112,269240,1,2
196,328,270103,6,0,B|268:364|336:336,1,140,2|2
408,224,271309,1,2
408,224,271654,1,2
376,84,272172,6,0,B|336:84,3,35,0|0|0|4
