osu file format v9

[General]
AudioFilename: 01 - Oshichauzo!!.mp3
AudioLeadIn: 0
PreviewTime: 63189
Countdown: 0
SampleSet: Soft
StackLeniency: 0.4
Mode: 0
LetterboxInBreaks: 0

[Editor]
Bookmarks: 182776
DistanceSpacing: 1.1
BeatDivisor: 4
GridSize: 4

[Metadata]
Title:Oshichau Zo!!
Artist:Aya Sakamoto & Ruka Kawada
Creator:hoLysoup
Version:Insane
Source:Omamori Himari
Tags:Noihara Ami Koshimizu MMzz

[Difficulty]
HPDrainRate:6
CircleSize:4
OverallDifficulty:7
ApproachRate:8
SliderMultiplier:1.4
SliderTickRate:1

[Events]
//Background and Video events
0,0,"wallpaper-403899.jpg"
//Break Periods
2,86855,95388
2,119958,129353
2,166855,182457
2,188923,198319
2,210993,214181
2,262027,266595
//Storyboard Layer 0 (Background)
//Storyboard Layer 1 (Fail)
//Storyboard Layer 2 (Pass)
//Storyboard Layer 3 (Foreground)
//Storyboard Sound Samples
//Background Colour Transformations
3,100,163,162,255

[TimingPoints]
1138.42345598745,344.827586206897,4,2,0,70,1,0
16138,-100,4,2,1,80,0,0
20448,-100,4,2,1,70,0,0
28034,-100,4,2,0,70,0,0
28724,-100,4,2,1,70,0,0
40103,-133.333333333333,4,2,0,80,0,0
49241,-100,4,2,1,80,0,0
50017,-133.333333333333,4,2,0,80,0,0
53537,-100,4,2,0,80,0,0
56310,-66.6666666666667,4,2,1,80,0,0
63207,-100,4,2,1,80,0,0
64586,-100,4,1,0,85,0,1
80966,-100,4,2,0,90,0,0
96138,-100,4,2,1,80,0,0
108034,-100,4,2,0,80,0,0
108724,-100,4,2,1,80,0,0
119759,-133.333333333333,4,2,0,80,0,0
129227,-133.333333333333,4,2,0,80,0,0
130606,-133.333333333333,4,2,0,80,0,0
136114,-66.6666666666667,4,2,1,80,0,0
142862,-100,4,2,1,80,0,0
144586,-100,4,1,0,85,0,1
160966,-100,4,2,0,90,0,0
183207,-133.333333333333,4,2,0,85,0,0
199069,-133.333333333333,4,2,0,90,0,0
205276,-66.6666666666667,4,2,1,90,0,0
210793,-100,4,2,1,85,0,1
210879,-100,4,2,1,90,0,0
214931,-100,4,2,0,80,0,0
216310,-100,4,2,1,85,0,1
232690,-100,4,2,0,70,0,0
238379,-100,4,2,1,85,0,1
254759,-100,4,2,0,70,0,0
267000,-100,4,2,0,90,0,0

[Colours]
Combo1 : 252,27,88
Combo2 : 255,255,85
Combo3 : 60,191,255
Combo4 : 0,49,98

[HitObjects]
120,192,6655,2,0,B|136:160|160:144|192:144|216:160|232:192,1,140,2|0
229,187,7345,2,0,B|248:216|280:224|320:224|320:216|344:192|352:184,1,140,2|0
348,187,7862,2,0,B|384:136|424:136|464:152|480:176,1,140,2|0
468,163,8551,1,2
424,56,8896,5,0
352,36,9069,1,0
280,60,9241,1,0
292,136,9414,2,0,B|292:208|252:232|188:200,1,140,2|0
124,76,10103,2,0,B|88:56|44:84,3,70
52,232,10965,5,2
196,284,11310,1,2
168,132,11655,1,0
168,132,11741,1,0
168,132,11827,1,0
244,132,12000,1,0
496,192,12172,6,0,B|440:144|368:192,1,140,2|0
367,192,12862,2,0,B|304:240|224:192,1,140,2|0
235,198,13379,2,0,B|168:136|96:208,1,140,2|0
110,195,14069,1,2
224,92,14414,2,2,B|256:52|292:104,2,70
256,192,14931,12,0,15965
256,192,16138,5,4
336,288,16483,2,0,B|368:336|400:288,2,70
336,288,17000,1,0
336,200,17172,1,0
336,160,17258,1,0
336,120,17345,1,0
336,40,17517,1,0
336,40,17689,5,4
256,72,17862,1,0
336,120,18034,2,0,B|288:176,1,70
208,172,18379,1,0
124,172,18551,1,0
72,104,18724,1,0
140,52,18896,1,0
176,216,19241,6,0,B|208:248|240:212,3,70
344,120,20103,1,0
344,120,20276,1,0
356,200,20448,5,2
180,108,20793,1,2
192,296,21138,1,2
248,200,21310,1,0
248,200,21483,1,0
356,108,21655,5,2
206,40,22000,1,2
173,192,22345,1,2
173,192,22517,2,0,B|148:152|108:200,3,70
256,192,23207,1,2
392,192,23379,5,0
468,224,23551,2,0,B|452:264|400:264,1,70
332,244,23896,2,0,B|304:208|328:164,1,70
372,108,24241,1,0
372,108,24414,1,0
220,40,24758,2,0,B|184:16|136:52,3,70
160,192,25620,5,0
204,120,25793,1,0
244,192,25965,1,0
312,144,26138,1,2
312,144,26310,2,0,B|408:148,1,70
472,200,26655,1,2
472,200,26827,2,0,B|388:196,1,70
316,200,27172,5,2
124,192,27517,1,2
220,320,27862,1,2
368,312,28034,2,2,B|416:316,3,35
368,312,28379,2,2,B|320:308,3,35
368,312,28724,5,2
416,244,28896,1,0
456,172,29069,1,2
372,180,29241,2,0,B|324:236,1,70,0|2
244,248,29586,2,0,B|289:194,1,70,0|2
288,196,29931,1,2
192,56,30276,6,0,B|228:40|268:76,2,70,2|0|2
156,132,30793,1,0
88,80,30965,2,2,B|56:88|40:128,2,70
108,184,31483,6,2,B|208:192,1,70,2|2
336,56,31827,2,2,B|288:136,1,70
340,328,32172,2,2,B|284:256,1,70
256,188,32517,5,0
256,188,32689,1,2
116,188,33034,1,2
256,188,33379,2,2,B|276:128|308:208,1,70
388,188,33724,1,0
476,188,33896,2,0,B|476:120,1,70
364,52,34241,5,6
280,44,34414,1,0
316,116,34586,2,0,B|292:156|232:116,1,70
184,92,34931,1,2
164,168,35103,2,0,B|208:164|232:224,1,70
220,200,35448,1,2
220,200,35793,5,0
308,200,35965,2,0,B|344:232|384:200,3,70,2|0|0|2
372,208,36655,1,2
392,288,36827,1,0
328,340,37000,1,2
284,92,37517,21,2
284,92,37689,1,2
140,272,38207,2,2,B|-4:272,2,140
296,276,39241,5,2
332,276,39327,1,2
368,276,39414,1,2
460,276,39586,1,2
460,276,39758,5,6
416,140,40103,1,0
416,140,40276,1,0
416,140,40448,2,0,B|368:96|308:164|264:108,1,157.499995306134
268,112,41138,1,2
268,112,41483,1,2
96,72,41827,5,2
28,128,42000,1,0
28,216,42172,1,2
100,268,42345,1,0
104,172,42517,2,0,B|148:124|196:232|268:160,1,157.499995306134,2|0
252,176,43207,1,0
252,176,43379,1,0
360,84,43724,2,0,B|404:92|412:100|444:148,1,104.999996870756
440,144,44241,1,0
476,276,44586,6,0,B|456:332|380:328,1,104.999996870756,2|0
240,304,45276,2,0,B|192:340|144:304,1,104.999996870756
192,252,45793,1,0
288,156,46138,1,2
288,156,46310,1,2
176,72,46655,5,0
100,196,47000,1,0
100,196,47172,1,0
176,224,47345,2,0,B|240:196|275:270,1,104.999996870756
384,164,48034,2,0,B|460:164,2,52.4999984353781
408,244,48551,2,0,B|340:240,2,52.4999984353781
384,324,49069,1,2
304,324,49241,5,2
212,204,49586,1,2
120,76,49931,1,2
240,72,50103,37,2
240,72,50276,1,2
344,72,50448,1,2
384,72,50534,1,2
424,72,50620,1,2
456,196,50793,37,4
324,192,51138,1,0
324,192,51310,2,0,B|276:120|224:264|168:160,1,157.499995306134,2|0
88,268,52172,1,2
88,268,52517,1,2
64,144,52862,2,0,B|108:88|168:96,1,104.999996870756,2|0
240,192,53551,5,0
240,192,53724,1,0
192,244,53896,2,0,B|248:184,1,70,2|0
292,248,54241,2,0,B|232:184,1,70,2|0
292,144,54586,2,0,B|240:200,1,70,2|0
192,144,54931,2,0,B|252:204,1,70,2|0
240,192,55276,5,2
240,192,55620,1,2
112,104,55965,1,2
256,36,56310,38,8,B|432:160,1,209.999993741512,4|0
256,348,56828,2,8,B|80:224,1,209.999993741512,4|0
256,192,57345,12,0,58724
80,192,59069,38,8,B|228:40,1,209.999993741512,4|0
432,192,59586,2,8,B|284:344,1,209.999993741512,4|0
256,192,60103,12,0,60965
256,192,61310,5,0
256,192,61483,1,0
256,192,61655,1,0
256,192,61827,1,4
384,88,62517,1,0
260,32,63207,6,0,B|260:100|192:100|196:160,1,140
276,180,63724,1,0
352,220,63896,2,0,B|352:288|288:288|288:352,1,140
56,180,64586,5,4
100,116,64759,1,0
148,176,64931,1,8
196,116,65103,1,0
244,176,65276,2,0,B|296:120,1,70
332,60,65621,1,8
392,108,65793,6,0,B|444:108,2,35
412,184,66138,2,0,B|444:244,1,70,0|8
388,296,66483,2,0,B|312:340|240:312,1,140
204,256,67000,1,8
220,180,67172,1,0
220,180,67259,1,0
220,180,67345,5,0
292,208,67517,1,0
288,132,67690,1,8
356,168,67862,1,0
364,92,68034,1,0
304,44,68207,1,0
304,44,68293,1,0
304,44,68379,1,8
228,52,68552,6,0,B|172:52|156:52,1,70
184,132,68897,2,0,B|128:132|100:132,1,70,0|8
56,180,69241,2,0,B|80:244,1,70
144,204,69586,2,0,B|176:280,1,70,0|8
240,300,69931,1,0
240,300,70017,1,0
240,300,70103,5,0
304,72,70448,1,8
304,72,70620,2,0,B|368:32|436:76,1,140
364,132,71138,1,8
364,132,71310,1,0
432,184,71483,2,0,B|352:236|288:168,1,140,0|8
304,184,72000,1,0
304,184,72172,1,0
304,184,72345,1,0
292,108,72517,2,0,B|240:64|208:80,1,70,8|0
128,44,72862,6,0,B|104:144|208:136,1,140,0|8
195,137,73379,1,0
196,208,73551,1,0
264,228,73724,1,0
232,292,73896,1,8
160,272,74069,5,4
56,196,74414,1,2
156,96,74758,1,4
156,96,74931,2,2,B|180:52|216:104,2,70,8|12|14
164,104,75448,37,0
164,104,75534,1,0
164,104,75620,1,4
220,52,75793,1,0
244,124,75965,1,8
300,72,76138,1,0
364,116,76310,2,0,B|396:136|384:184,1,70
364,252,76655,1,8
364,252,76741,1,0
364,252,76827,5,0
312,308,77000,1,0
276,240,77172,1,0
208,276,77345,1,8
168,208,77517,2,0,B|132:140|184:72,1,140,0|0
180,76,78034,1,8
324,84,78379,6,0,B|392:28|468:100,1,140,0|8
388,128,78896,1,0
452,172,79069,2,0,B|384:228|308:156,1,140,0|8
256,136,79586,1,0
256,136,79758,1,0
104,160,80103,5,8
148,224,80276,1,0
148,224,80448,1,0
228,224,80620,1,0
272,224,80707,1,0
316,224,80793,1,8
400,224,80965,5,6
396,92,81310,1,2
396,92,81483,1,2
324,36,81655,1,2
324,36,81827,1,2
248,100,82000,1,6
248,100,82086,1,2
248,100,82172,1,2
96,148,82345,5,4
184,152,82689,2,0,B|164:224,1,70,2|2
108,260,83034,2,0,B|180:212,1,70,2|2
224,328,83379,2,2,B|224:288,2,35
224,328,83724,5,4
208,128,84069,1,0
300,128,84241,1,0
344,200,84414,1,0
296,268,84586,1,8
208,268,84758,1,0
252,200,84931,1,8
252,200,85103,2,0,B|100:200,1,140,4|0
112,200,85620,1,2
112,200,85793,1,2
84,116,85965,5,2
440,116,86310,1,2
256,328,86655,1,4
104,76,96138,5,2
180,180,96483,2,2,B|136:224|108:156,2,70
180,180,97000,1,4
264,180,97172,1,2
300,180,97258,1,2
336,180,97345,1,2
432,184,97517,1,2
432,184,97689,5,6
456,264,97862,1,0
416,336,98034,2,0,B|368:300|372:260,1,70
360,200,98379,1,2
388,120,98551,2,0,B|348:68|308:76,1,70,2|2
252,60,98896,1,2
116,160,99241,6,0,B|132:220|172:224,1,70
236,216,99586,2,0,B|257:219|273:159,1,70
196,124,99931,1,2
252,60,100103,1,2
336,60,100276,1,2
384,128,100448,5,2
144,120,100793,1,2
280,300,101138,1,2
144,120,101483,5,2
144,120,101655,1,2
204,308,102000,1,2
206,308,102172,1,2
388,236,102517,2,2,B|416:272|392:312,1,70
397,301,102862,1,2
316,320,103034,1,2
268,248,103207,5,2
208,308,103379,1,0
172,232,103551,1,2
108,288,103724,1,0
84,208,103896,2,0,B|116:144,1,70,2|0
32,136,104241,1,0
88,72,104414,1,2
456,96,104758,6,0,B|376:96,1,70,2|0
184,96,105103,2,0,B|256:96,1,70,2|0
320,100,105448,1,2
320,100,105620,1,0
320,100,105793,2,0,B|320:192,1,70,2|0
248,220,106138,5,2
204,296,106310,1,2
120,296,106483,1,2
80,220,106655,1,2
164,224,106827,1,2
164,224,107000,2,0,B|164:144,1,70,2|0
324,72,107517,1,2
20,68,107862,1,2
124,40,108034,6,0,B|96:72,1,35,2|2
152,64,108207,2,0,B|128:92,1,35,2|2
180,88,108379,2,0,B|156:120,1,35,2|2
212,112,108551,2,0,B|188:148,1,35,2|2
240,156,108724,1,6
384,44,108896,5,2
460,84,109069,2,0,B|392:124,1,70
472,164,109414,1,2
392,192,109586,2,0,B|456:244,1,70
392,300,109931,1,2
268,188,110276,6,0,B|232:144|180:192,3,70
204,172,110965,1,0
204,76,111138,1,0
204,172,111310,1,0
140,252,111483,5,2
292,56,111827,1,2
396,272,112172,1,2
276,184,112345,1,0
276,184,112517,1,8
116,88,112689,6,8,B|124:140|176:152,1,70,2|0
360,92,113034,2,8,B|352:144|300:156,1,70,2|0
236,236,113379,1,0
172,176,113551,1,2
88,176,113724,1,0
28,248,113896,1,2
84,312,114069,1,0
168,312,114241,5,6
228,252,114414,2,0,B|268:320,1,70,0|2
276,252,114758,2,0,B|316:316,1,70,0|2
328,252,115103,1,0
380,252,115276,2,2,B|352:320,1,70
436,244,115620,1,0
420,192,115793,6,0,B|488:144,1,70,0|2
416,140,116138,2,0,B|472:96,1,70,0|2
468,48,116483,2,0,B|388:108,1,70,2|0
328,92,116827,1,2
328,92,117000,5,2
144,180,117517,1,2
144,180,117689,1,2
304,292,118207,5,2
472,292,118551,1,2
304,292,118896,1,2
300,124,119241,5,2
260,124,119327,1,2
220,124,119414,1,2
140,124,119586,1,2
140,124,119758,1,6
120,296,130103,6,0,B|232:296,1,104.999996870756
384,240,130793,1,6
452,184,130965,1,0
448,96,131138,1,2
368,56,131310,1,0
364,144,131483,38,0,B|324:104|288:188|208:140,1,157.499995306134,2|0
216,144,132172,1,2
216,144,132517,1,2
44,104,132862,6,0,B|-20:144|4:200,1,104.999996870756,2|0
116,328,133551,1,2
156,196,133724,1,0
196,328,133896,1,2
92,256,134069,1,0
216,256,134241,38,0,B|376:256,1,157.499995306134,2|0
369,256,134931,1,2
204,184,135276,1,2
344,72,135620,5,2
140,72,135965,1,2
292,52,136310,6,8,B|300:156|300:156|420:200,1,209.999993741512,4|0
224,340,136827,2,8,B|216:236|216:236|108:188,1,209.999993741512,4|0
256,192,137345,12,0,138724
244,40,139069,2,8,B|208:140|208:140|96:160,1,209.999993741512,4|0
264,344,139586,2,8,B|304:240|304:240|408:208,1,209.999993741512,4|0
256,192,140103,12,0,140965
256,192,141310,5,0
256,192,141482,1,0
256,192,141655,1,0
256,192,141827,1,4
376,64,142517,1,0
156,320,143207,6,0,B|220:320|216:260|276:248,1,140
200,188,143724,1,0
152,108,143896,2,0,B|216:108|212:48|272:36,1,140
420,104,144586,5,4
488,140,144758,1,0
424,180,144931,1,8
492,216,145103,1,0
428,260,145276,1,0
360,228,145448,1,0
360,228,145534,1,0
360,228,145621,1,8
196,68,145793,5,0
108,56,145965,1,0
56,128,146138,1,0
96,200,146310,1,8
144,132,146482,2,0,B|256:220,1,140
254,218,146914,1,0
254,218,147000,1,8
448,72,147345,5,0
404,136,147517,1,0
368,68,147689,1,8
332,136,147862,1,0
292,72,148034,1,0
248,132,148207,1,0
248,132,148293,1,0
248,132,148379,1,8
176,148,148551,6,0,B|128:96,2,70,0|0|0
128,204,149069,2,0,B|64:164,2,70,8|0|0
56,280,149586,2,0,B|136:260,1,70,0|8
123,263,149931,1,0
123,263,150103,1,0
396,144,150448,5,8
396,144,150620,2,0,B|364:80|312:72|276:80,1,140,0|0
280,8,151138,1,8
216,44,151310,1,0
216,120,151482,1,0
280,152,151655,1,0
280,80,151827,2,0,B|376:80,1,70,8|0
480,80,152172,5,0
480,216,152345,1,0
348,216,152517,1,8
352,80,152689,1,0
120,44,152862,6,0,B|44:40|20:100|36:144,1,140,0|8
184,92,153551,1,0
128,144,153724,1,0
72,196,153896,1,0
256,332,154069,5,2
256,92,154414,1,2
256,332,154758,1,2
220,200,155103,2,2,B|220:284,1,70,2|10
312,272,155448,1,0
352,272,155534,1,0
396,272,155620,5,4
460,232,155793,1,0
396,188,155965,1,8
460,144,156138,1,0
396,104,156310,1,0
464,64,156482,1,0
404,16,156655,1,8
328,32,156827,6,0,B|284:92,1,70,0|0
248,8,157172,2,0,B|256:88,1,70,0|8
176,52,157517,2,0,B|236:100,1,70,0|0
264,172,157862,1,0
264,172,158034,1,8
48,192,158379,6,0,B|92:156|128:156|176:192,1,140,2|8
112,240,158896,1,0
176,288,159069,2,0,B|132:324|96:324|48:288,1,140,2|8
112,240,159586,1,0
268,264,159758,6,0,B|328:316|400:264,1,140,2|8
396,268,160276,1,0
396,268,160448,1,0
428,176,160621,1,0
428,176,160793,1,8
428,176,160965,1,6
320,76,161310,6,2,B|336:36|376:40,2,70,2|2|2
320,76,161827,1,2
212,76,162000,1,6
172,76,162086,1,2
132,76,162172,1,2
72,184,162345,5,6
180,336,162689,2,2,B|224:280,1,70
280,320,163034,2,2,B|212:272,1,70
292,196,163379,2,2,B|320:164,2,35
392,64,163724,5,6
496,120,164069,2,2,B|448:184,1,70
296,116,164414,2,2,B|352:192,1,70
404,240,164758,1,2
404,240,164931,1,2
404,240,165103,1,6
256,320,165448,1,2
256,320,165621,1,2
448,324,165965,5,2
64,320,166310,1,2
256,64,166655,1,6
12,184,183207,6,0,B|24:164|24:164|36:184|36:184|48:164|48:164|60:184|60:184|72:164|72:164|84:184|84:184|96:164|96:164|108:184|108:184|120:164|120:164,1,209.999993741512
236,236,184241,1,0
304,232,184414,6,0,B|316:212|316:212|328:232|328:232|340:212|340:212|352:232|352:232|364:212|364:212|376:232|376:232|388:212|388:212|400:232|400:232|412:212|412:212,1,209.999993741512
472,180,185276,1,0
448,116,185448,1,0
392,80,185620,1,0
328,56,185793,6,0,B|236:-8|128:48,2,209.999993741512
440,172,187517,1,0
468,252,187689,1,0
428,324,187862,1,0
348,344,188034,1,0
280,296,188207,1,0
268,212,188379,2,0,B|292:196,4,26.2499992176891,0|0|0|0|4
92,308,199069,6,0,B|148:352|200:300,1,104.999996870756,2|0
192,176,199758,2,0,B|144:136|98:177,1,104.999996870756,2|0
144,228,200276,2,0,B|183:269|240:228,1,104.999996870756,2|0
200,96,200965,1,2
348,44,201827,6,0,B|356:120|424:132,1,104.999996870756,2|0
344,263,202517,2,0,B|352:212|416:192,1,104.999996870756,2|0
344,156,203034,2,0,B|224:156,1,104.999996870756,2|0
60,156,203724,1,2
256,192,204586,5,2
256,192,204931,1,2
152,88,205276,6,12,B|76:180|160:292,1,209.999993741512,6|0
356,280,205793,2,8,B|432:188|348:76,1,209.999993741512,6|0
256,192,206310,12,0,207689
164,112,208034,2,12,B|256:24|352:120,1,209.999993741512,6|0
344,268,208551,2,12,B|252:356|156:260,1,209.999993741512,6|0
256,192,209069,12,0,209931
256,196,210276,5,0
256,196,210448,1,0
256,196,210620,1,0
256,196,210793,1,4
116,80,214931,5,0
216,56,215276,1,0
312,64,215620,1,0
384,120,215965,1,2
440,196,216138,1,2
440,196,216224,1,2
440,196,216310,5,12
404,256,216482,1,0
364,200,216655,1,10
328,260,216827,1,0
288,200,217000,2,2,B|244:260,1,70
246,256,217345,1,10
200,204,217517,2,2,B|136:156|68:204,3,140
71,204,218724,5,10
71,204,218896,1,0
71,204,219069,1,2
108,144,219241,1,0
148,204,219414,1,10
180,140,219586,1,0
224,196,219758,2,2,B|272:136,1,70
268,140,220103,1,10
460,232,220276,6,2,B|384:292|316:212,2,140
460,232,221138,1,2
480,152,221310,1,2
452,80,221482,1,10
392,32,221655,1,2
312,20,221827,1,6
80,52,222345,6,2,B|188:160,1,140
48,136,222862,2,2,B|104:192,1,70,10|2
97,185,223207,1,2
44,240,223379,1,2
92,308,223551,1,10
176,284,223724,1,2
220,208,223896,2,2,B|300:208,3,70,2|0|10|0
396,300,224586,6,4,B|456:244|440:160,1,140,4|10
442,173,225103,1,2
442,173,225276,1,2
412,84,225448,1,2
328,36,225620,1,2
236,24,225793,5,2
236,240,226138,1,2
236,24,226482,1,2
236,240,226827,1,2
236,240,227000,1,14
368,240,227172,1,2
408,240,227258,1,2
452,240,227345,5,6
420,176,227517,1,0
448,116,227689,1,10
416,60,227862,1,0
356,24,228034,1,2
296,60,228207,1,2
296,60,228379,1,10
288,128,228551,6,2,B|148:128,2,140
288,128,229414,1,2
348,192,229586,2,2,B|384:232|336:276,1,70,10|10
352,256,229931,1,0
288,312,230103,6,2,B|176:360|80:312,1,210
144,268,230793,2,2,B|212:280|288:240,1,140
288,312,231310,1,0
288,312,231482,1,14
364,212,231827,1,10
364,212,232000,1,6
360,60,232345,5,2
360,60,232431,1,2
360,60,232517,1,2
276,60,232689,5,6
144,72,233034,1,2
144,72,233207,1,2
212,220,233551,1,2
280,304,233724,2,2,B|280:252,2,35
352,220,234069,5,4
464,124,234414,2,2,B|376:164,1,70
444,60,234758,2,2,B|364:96,1,70
296,152,235103,2,2,B|296:187,2,35
200,100,235448,5,4
52,144,235793,2,2,B|52:96|96:96,1,70
160,216,236310,1,10
80,272,236482,1,2
160,324,236655,1,2
240,272,236827,2,0,B|412:272,1,140,4|0
464,276,237345,1,2
496,200,237517,5,10
460,124,237689,1,10
408,60,237862,1,2
320,60,238034,1,10
320,60,238120,1,2
320,60,238207,1,2
320,60,238293,1,2
320,60,238379,5,14
272,120,238551,1,0
232,52,238724,2,8,B|180:116,1,70,10|0
152,40,239069,1,2
112,104,239241,1,2
152,168,239414,1,10
216,200,239586,6,2,B|368:200,3,140
448,288,240793,1,10
384,340,240965,1,2
384,340,241051,1,2
384,340,241138,5,6
352,272,241310,1,0
308,336,241482,1,10
276,268,241655,1,0
236,332,241827,1,2
200,268,242000,2,2,B|204:216|152:192,1,70,2|10
92,192,242345,6,2,B|32:128|104:68,2,140
132,264,243207,1,2
204,308,243379,1,2
288,296,243551,1,10
352,240,243724,1,0
352,240,243896,1,6
418,106,244414,6,2,B|356:45|293:102,1,140
296,180,244931,1,2
296,256,245103,2,2,B|245:292|220:232,1,70
156,252,245448,1,0
156,252,245620,1,10
104,196,245793,1,0
104,196,245965,1,2
152,48,246310,1,10
288,120,246655,6,2,B|348:72|416:120,2,140,2|2|2
332,184,247517,1,0
288,248,247689,1,10
216,286,247862,1,2
90,161,248207,5,2
213,35,248551,1,2
331,158,248896,1,2
331,158,249069,1,10
436,232,249241,1,2
436,275,249327,1,2
436,323,249414,5,6
364,288,249586,1,0
316,228,249758,1,10
248,265,249931,1,0
193,318,250103,1,2
122,334,250276,1,2
64,284,250448,1,10
56,212,250620,6,2,B|129:188,2,70,2|0|2
72,136,251138,2,0,B|5:158,2,70,10|0|2
144,104,251655,2,8,B|223:78,1,70,2|10
260,140,252000,1,2
332,88,252172,2,2,B|356:136|360:200|308:232|260:244|208:228|180:176,2,280
180,112,253896,5,2
180,112,254069,2,2,B|108:72,2,70,0|2|8
130,179,254586,1,2
218,296,254758,5,6
130,179,255103,2,0,B|64:140,2,70
224,180,255620,1,2
312,180,255793,2,2,B|311:136,2,35
464,180,256138,5,12
224,180,256482,1,2
144,180,256655,2,0,B|70:180,2,70
128,288,257172,1,2
174,289,257258,1,2
220,290,257345,1,2
328,292,257517,5,12
256,56,257862,1,2
256,56,258034,1,2
224,184,258379,2,2,B|256:216|300:174,3,70,2|2|2|6
256,26,259931,6,2,B|256:96,2,70
256,196,260620,1,2
255,197,260793,1,2
80,304,261138,5,2
424,304,261482,1,2
256,56,261827,1,6
60,192,267345,6,0,B|125:140|199:201,1,140,2|0
188,192,268034,2,0,B|253:244|327:183,1,140,2|0
316,192,268551,2,0,B|381:140|455:201,1,140,2|0
444,192,269241,1,2
452,52,269586,1,0
364,48,269758,1,0
308,116,269931,1,0
345,198,270103,6,0,B|262:253|196:177,1,140,2|0
107,64,270793,1,2
33,108,270965,1,2
16,192,271138,1,2
104,156,271310,2,0,B|178:117|223:221|251:137,1,140,2|0
348,180,272000,5,0
393,55,272172,1,0
440,180,272345,1,2
320,104,272517,1,2
468,104,272689,1,6
