osu file format v9

[General]
AudioFilename: Kamen Rider W OP 192.mp3
AudioLeadIn: 1004
PreviewTime: 41420
Countdown: 0
SampleSet: Normal
StackLeniency: 0.7
Mode: 0
LetterboxInBreaks: 1
SkinPreference:taiko

[Editor]
DistanceSpacing: 1.28
BeatDivisor: 4
GridSize: 8

[Metadata]
Title:W-B-X ~W-Boiled Extreme~ (TV Size)
Artist:Aya Kamiki w TAKUYA
Creator:arien666
Version:Oni
Source:Kamen Rider W
Tags:taiko taikosu double arken1015 Sushi

[Difficulty]
HPDrainRate:7
CircleSize:5
OverallDifficulty:6
ApproachRate:8
SliderMultiplier:1.44
SliderTickRate:4

[Events]
//Background and Video events
0,0,"dadon.jpg"
Video,0,"Kamen Rider W OP nosound.avi"
//Break Periods
//Storyboard Layer 0 (Background)
//Storyboard Layer 1 (Fail)
//Storyboard Layer 2 (Pass)
//Storyboard Layer 3 (Foreground)
//Storyboard Sound Samples
//Background Colour Transformations
3,100,163,162,255

[TimingPoints]
2033,428.571428571429,4,1,1,80,1,0
41461,-100,4,1,1,80,0,1
60318,-100,4,1,1,80,0,0

[Colours]
Combo1 : 112,196,193
Combo2 : 243,89,34

[HitObjects]
256,192,2033,1,0
256,96,2247,1,0
72,64,2675,1,0
256,32,3104,1,0
440,64,3533,1,0
256,192,3747,12,0,6104
256,192,6532,6,0,B|256:232,2,36,0|0|2
88,264,7175,6,0,B|64:224|80:168,1,72
128,120,7604,1,8
208,72,7818,1,0
304,72,8032,2,0,B|344:32,1,36
464,48,8461,1,2
480,192,8890,6,0,B|432:208|408:240,1,72
344,280,9318,1,8
256,312,9532,1,0
160,312,9747,2,0,B|128:288,1,36
32,192,10175,1,2
216,192,10604,5,0
256,176,10711,1,0
288,144,10818,1,0
312,56,11032,1,8
400,80,11247,1,0
456,152,11461,2,0,B|480:176|488:192,1,36
479,317,11890,1,2
296,368,12318,5,0
256,344,12425,1,0
232,304,12532,1,0
216,216,12747,1,8
216,120,12961,1,4
368,16,13390,5,4
256,16,13604,1,4
256,192,14032,5,0
256,376,14461,1,8
256,283,14675,1,0
256,99,15104,1,0
256,5,15318,1,2
256,192,15747,6,0,B|312:192,1,36
368,144,16068,2,0,B|408:144,1,36,0|8
480,96,16390,1,0
480,192,16604,2,0,B|424:192,1,36
352,192,16925,2,0,B|320:224,1,36,0|2
256,288,17247,1,0
256,384,17461,5,0
256,192,17890,1,8
256,96,18104,1,0
256,288,18533,1,0
256,192,18747,1,2
64,192,19175,6,0,B|104:192,1,36
165,126,19497,2,0,B|197:94,1,36,0|8
255,35,19818,1,0
255,127,20033,2,0,B|295:127,1,36
356,193,20354,2,0,B|388:225,1,36,0|2
446,284,20675,1,0
448,192,20890,5,0
448,8,21318,1,8
448,8,21533,1,0
289,100,21961,1,0
289,100,22175,1,2
255,281,22604,5,0
255,281,22711,1,0
256,192,22925,1,0
256,192,23033,1,8
208,112,23247,1,0
160,192,23461,1,0
160,192,23568,1,0
161,281,23783,1,0
161,281,23890,1,2
256,280,24104,1,0
352,280,24318,5,0
352,96,24747,1,8
352,96,24961,1,0
160,96,25390,1,0
160,96,25604,1,2
45,240,26033,6,0,B|13:200|13:168|61:128,1,108
175,100,26675,1,0
175,284,27104,1,0
175,191,27318,2,8,B|130:191,2,36,8|8|2
256,192,27747,6,0,B|296:192,2,36
256,104,28175,2,0,B|296:104,2,36
175,148,28604,2,0,B|229:148,2,36
82,148,29033,1,2
256,104,29461,6,0,B|304:104,2,36
284,192,29890,2,0,B|340:192,2,36
255,279,30318,2,0,B|303:279,4,36,0|0|0|0|2
256,192,31175,12,2,34175
256,192,34604,5,0
256,192,34711,1,0
256,192,34818,1,0
256,96,35033,1,0
256,96,35140,1,0
256,96,35247,1,0
256,0,35461,1,0
337,42,35675,1,0
369,74,35783,1,0
369,120,35890,1,2
369,304,36318,5,0
369,304,36425,1,0
369,304,36533,1,0
276,304,36747,1,0
276,304,36854,1,0
276,304,36961,1,0
256,216,37175,1,0
256,216,37283,1,0
256,216,37390,1,0
256,216,37497,1,0
256,216,37604,1,2
72,192,38033,6,0,B|192:56|328:56|456:208,1,432
256,192,39747,1,4
256,192,41461,5,0
256,192,41675,1,0
256,96,41890,1,8
336,144,42104,1,0
416,192,42318,2,0,B|464:224,2,36,0|8|0
336,240,42747,1,2
256,288,42961,6,0,B|256:344,2,36
160,192,43497,1,0
160,192,43604,1,8
256,192,43818,1,0
208,112,44032,1,0
208,112,44140,1,0
304,112,44354,1,0
304,112,44461,1,2
256,32,44675,1,0
352,32,44890,2,0,B|352:112|296:272|256:192|216:272|160:112|160:16,1,432
208,72,47032,5,0
304,72,47247,1,0
256,152,47461,2,0,B|256:232,1,72
256,320,47890,1,0
440,320,48318,5,0
504,256,48532,1,0
440,192,48747,1,8
376,256,48961,1,0
312,192,49175,2,0,B|288:160|248:144,1,72,0|8
160,144,49604,1,2
80,192,49818,1,0
80,288,50032,6,0,B|128:288,1,36
208,288,50354,2,0,B|240:256,1,36,0|8
256,176,50675,1,0
284,263,50890,2,0,B|332:263,1,36
412,263,51211,2,0,B|444:295,1,36,0|2
504,352,51532,1,0
411,352,51747,1,0
256,192,52175,5,6
101,351,52604,5,8
64,192,52925,1,8
101,32,53247,1,2
207,32,53461,1,2
480,32,54104,5,0
384,192,54532,2,0,B|344:224|288:224,1,72
227,221,54961,1,0
136,192,55175,6,4,B|8:192|24:120|8:48|152:48,2,288,12|6|4
304,192,57318,5,0
208,192,57532,1,2
256,368,57961,1,0
256,192,58390,1,0
256,192,58497,1,0
256,192,58604,12,2,60104
256,192,60318,5,0
208,112,60532,1,0
304,112,60747,1,8
256,32,60961,1,0
120,32,61282,2,0,B|80:72,1,36
32,120,61604,1,2
256,192,62032,5,0
304,272,62247,1,0
208,272,62461,1,8
256,352,62675,1,0
392,352,62997,2,0,B|432:312,1,36
480,264,63318,1,2
256,192,63747,5,0
176,144,63961,1,0
176,240,64175,1,8
96,192,64390,1,0
232,168,64711,1,0
280,168,64818,1,0
336,240,65032,1,2
256,72,65461,5,0
344,96,65675,1,0
344,192,65890,1,8
432,216,66104,1,0
256,264,66532,2,8,B|256:216|200:216,1,72
120,216,66961,1,2
168,136,67175,5,4
344,136,67390,1,4
256,384,68675,5,4
