osu file format v9

[General]
AudioFilename: Kamen Rider W OP 192.mp3
AudioLeadIn: 1004
PreviewTime: 41420
Countdown: 0
SampleSet: Normal
StackLeniency: 0.7
Mode: 0
LetterboxInBreaks: 1
SkinPreference:taiko

[Editor]
DistanceSpacing: 1.08
BeatDivisor: 2
GridSize: 8

[Metadata]
Title:W-B-X ~W-Boiled Extreme~ (TV Size)
Artist:Aya Kamiki w TAKUYA
Creator:arien666
Version:Kantan
Source:Kamen Rider W
Tags:taiko taikosu double arken1015 Sushi

[Difficulty]
HPDrainRate:2
CircleSize:3
OverallDifficulty:2
ApproachRate:3
SliderMultiplier:0.72
SliderTickRate:0.5

[Events]
//Background and Video events
0,0,"dadon.jpg"
Video,0,"Kamen Rider W OP nosound.avi"
//Break Periods
2,60518,62020
//Storyboard Layer 0 (Background)
//Storyboard Layer 1 (Fail)
//Storyboard Layer 2 (Pass)
//Storyboard Layer 3 (Foreground)
//Storyboard Sound Samples
//Background Colour Transformations
3,100,163,162,255

[TimingPoints]
2033,428.571428571429,4,1,1,80,1,0
41461,-100,4,1,1,80,0,1
60318,-100,4,1,1,80,0,0

[Colours]
Combo1 : 112,196,193
Combo2 : 243,89,34

[HitObjects]
128,192,7175,1,0
184,136,7604,1,0
256,104,8033,1,0
384,192,8890,5,0
328,136,9318,1,0
256,104,9747,1,0
384,192,10604,5,0
328,248,11033,1,0
256,280,11461,1,0
128,192,12318,5,4
184,248,12747,1,4
256,280,13175,1,4
384,192,14032,5,0
384,40,14890,1,0
256,128,15747,1,0
176,128,16175,1,0
128,192,16604,1,0
128,344,17461,5,0
128,192,18318,1,0
256,104,19175,1,0
328,144,19604,1,0
392,192,20032,1,0
256,192,20890,5,8
104,192,21747,1,8
176,56,22604,1,8
256,56,23032,1,8
336,56,23461,1,8
256,192,24318,5,8
408,192,25175,1,8
336,328,26032,1,8
256,328,26461,1,8
176,328,26890,1,2
256,192,27747,5,4
256,192,29461,5,4
256,192,31175,12,2,33747
256,36,34604,5,4
256,348,36318,5,4
256,192,38033,12,4,39747
256,112,41461,5,4
256,192,41890,1,4
256,272,42318,1,4
392,192,43175,5,0
368,120,43604,1,0
328,48,44033,1,0
256,16,44461,1,0
184,48,44890,2,0,B|80:48|24:240,1,216
192,192,47033,5,8
256,144,47461,1,2
320,192,47890,1,8
256,240,48318,5,4
216,304,48747,1,4
296,304,49175,1,4
408,192,50033,6,0,B|344:128,1,72
304,192,50890,2,0,B|240:128,1,72
256,64,51747,1,0
200,208,52604,5,8
256,264,53033,1,2
312,208,53461,1,8
456,272,55175,6,4,B|416:272|416:272|376:272|352:248|352:208|352:208|352:40,1,288
256,72,57318,5,0
256,152,57747,1,0
256,232,58175,1,0
256,192,58604,12,0,60318
256,80,63747,6,0,B|256:184,1,72
256,232,64604,1,0
256,80,65461,1,0
64,328,67175,5,4
256,192,68675,5,4
