osu file format v9

[General]
AudioFilename: Kamen Rider W OP 192.mp3
AudioLeadIn: 1004
PreviewTime: 41420
Countdown: 0
SampleSet: Normal
StackLeniency: 0.7
Mode: 0
LetterboxInBreaks: 1
SkinPreference:taiko

[Editor]
DistanceSpacing: 1.62
BeatDivisor: 2
GridSize: 8

[Metadata]
Title:W-B-X ~W-Boiled Extreme~ (TV Size)
Artist:Aya Kamiki w TAKUYA
Creator:arien666
Version:Futsuu
Source:Kamen Rider W
Tags:taiko taikosu double arken1015 Sushi

[Difficulty]
HPDrainRate:4
CircleSize:4
OverallDifficulty:3
ApproachRate:4
SliderMultiplier:0.72
SliderTickRate:1

[Events]
//Background and Video events
0,0,"dadon.jpg"
Video,0,"Kamen Rider W OP nosound.avi"
//Break Periods
2,60518,62020
//Storyboard Layer 0 (Background)
//Storyboard Layer 1 (Fail)
//Storyboard Layer 2 (Pass)
//Storyboard Layer 3 (Foreground)
//Storyboard Sound Samples
//Background Colour Transformations
3,100,163,162,255

[TimingPoints]
2033,428.571428571429,4,1,1,80,1,0
41461,-100,4,1,1,80,0,1
60318,-100,4,1,1,80,0,0

[Colours]
Combo1 : 112,196,193
Combo2 : 243,89,34

[HitObjects]
32,64,6533,6,0,B|88:64,1,36,0|2
184,64,7175,5,0
256,152,7604,1,0
328,64,8033,1,0
456,264,8890,5,0
368,192,9318,1,0
256,152,9747,1,0
328,320,10604,5,0
256,232,11033,1,0
184,320,11461,1,0
24,152,12318,5,4
136,192,12747,1,4
256,192,13175,1,4
24,192,14032,6,0,B|80:136,1,72,0|2
304,192,15318,1,8
408,243,15747,6,0,B|464:187,1,72,0|2
208,192,17032,1,8
104,141,17461,6,0,B|48:197,1,72,0|2
256,312,18747,2,0,B|256:224,1,72,8|0
219,129,19604,2,0,B|307:129,1,72
256,360,20890,5,0
256,240,21318,1,2
480,192,22175,1,8
376,144,22604,5,0
256,144,23032,1,2
32,192,23890,1,8
136,144,24318,5,0
256,144,24747,1,2
480,192,25604,1,8
376,240,26032,5,0
256,240,26461,1,0
152,192,26890,2,0,B|88:192,2,36
256,144,27747,5,4
424,192,28390,1,0
256,240,29032,1,2
152,192,29461,5,4
328,192,30104,1,0
504,192,30747,1,2
256,192,31175,12,2,33747
320,192,34604,5,4
320,16,35247,1,0
320,192,35890,1,2
192,192,36318,5,4
192,368,36961,1,0
192,192,37604,1,2
256,192,38033,12,4,39747
256,96,41461,6,4,B|256:192,1,72,4|12
256,288,42318,1,4
464,192,43175,5,0
360,240,43604,1,0
256,288,44033,2,0,B|256:352,2,36
184,192,44890,6,0,B|224:88|296:88|336:224,1,216
88,192,47033,5,8
200,152,47461,1,2
256,48,47890,1,8
312,152,48318,6,4,B|392:208,1,72,4|12
488,192,49175,1,4
256,192,50033,5,0
256,72,50461,1,0
156,132,50890,2,0,B|92:132,2,36
256,192,51747,5,0
488,192,52604,1,8
368,192,53033,2,8,B|368:136,2,36,8|8|2
136,192,54318,6,0,B|192:192,2,36
16,192,55175,2,4,B|32:64|104:48|168:48|224:128,1,288
328,112,57318,6,0,B|372:112,1,36
480,112,57961,1,0
256,192,58604,12,4,60318
376,192,63747,5,0
256,192,64175,1,0
136,192,64604,1,0
256,64,65247,2,0,B|376:128|376:207,1,180
256,360,67175,6,4,B|256:320,1,36
256,192,68675,1,4
