osu file format v9

[General]
AudioFilename: Sonic X - The Shining Road.mp3
AudioLeadIn: 0
PreviewTime: 71880
Countdown: 0
SampleSet: Soft
StackLeniency: 0.7
Mode: 0
LetterboxInBreaks: 1

[Editor]
Bookmarks: 121880,140942,191072,202010
DistanceSpacing: 0.9
BeatDivisor: 4
GridSize: 8

[Metadata]
Title:The Shining Road
Artist:Aya Hiroshige
Creator:ztrot
Version:Normal445
Source:Sonic X
Tags:Amy Rose Charles445 Tails Cosmo Sonic DarkDunskin

[Difficulty]
HPDrainRate:3
CircleSize:4
OverallDifficulty:3
ApproachRate:4
SliderMultiplier:1.9
SliderTickRate:2

[Events]
//Background and Video events
0,0,"SonicX_SunRise.jpg"
//Break Periods
2,112080,120560
//Storyboard Layer 0 (Background)
//Storyboard Layer 1 (Fail)
//Storyboard Layer 2 (Pass)
//Storyboard Layer 3 (Foreground)
//Storyboard Sound Samples
//Background Colour Transformations
3,100,163,162,255

[TimingPoints]
31812,625,4,2,1,50,1,0
71880,625,4,2,1,50,1,0
121255,-100,4,2,2,50,0,0
162010,625,4,2,1,50,1,0
202010,-100,4,2,1,50,0,1
233260,-100,4,2,1,50,0,0
243103,-100,4,2,1,15,0,0
243416,-100,4,2,1,30,0,0
244353,-100,4,2,0,30,0,0

[Colours]
Combo1 : 252,241,163
Combo2 : 255,202,228
Combo3 : 239,107,111
Combo4 : 132,132,255

[HitObjects]
64,96,31812,5,0
120,160,32124,1,0
176,224,32437,2,0,B|217:274|296:274|344:224,2,190,2|0|2
88,224,33999,1,0
104,304,34312,2,0,B|184:416|344:416|441:304,2,380,2|2|2
72,224,37124,5,0
112,144,37437,2,0,B|153:94|232:94|280:144,2,190,0|2|0
160,216,38999,1,0
208,288,39312,2,0,B|248:344|328:344|376:288,2,190,2|0|2
288,136,41187,2,0,B|288:32,2,95,0|0|2
352,192,42124,5,0
384,272,42437,2,0,B|392:352|312:384|256:344,2,190,0|2|0
296,264,43999,1,0
296,264,44312,2,0,B|201:90,1,190,0|2
168,24,45249,1,0
120,96,45562,2,0,B|24:264,2,190,0|2|2
168,24,47124,5,0
256,24,47437,2,0,B|352:48,1,95
288,112,48062,2,0,B|480:160,1,190,2|0
448,240,48999,1,0
400,312,49312,2,0,B|352:352|272:352|224:312,2,190,0|2|0
280,16,51499,5,0
224,80,51812,2,0,B|212:141|151:192|89:193,1,190,4|2
0,192,52749,1,0
88,192,53062,2,0,B|149:204|200:265|201:327,1,190,0|2
256,256,53999,1,0
310,327,54312,6,0,B|312:265|363:204|424:192,1,190,4|2
512,192,55249,1,0
423,193,55562,2,0,B|361:192|300:141|288:80,1,190,2|0
104,112,56812,6,0,B|45:158|45:227|104:272,2,190,2|2|2
176,64,58374,1,0
256,40,58687,1,2
344,40,58999,1,0
424,64,59312,2,0,B|512:120|512:248|424:304,2,285,6|0|0
376,136,61499,1,0
328,208,61812,6,0,B|272:296|144:296|88:208,1,285,4|0
56,128,63062,1,0
208,88,64312,6,0,B|264:0|392:0|448:88,1,285,4|0
480,168,65562,1,4
200,304,66812,6,0,B|144:352|72:272|16:328,2,190,2|2|4
264,248,68374,1,0
320,184,68687,1,2
384,128,68999,1,0
440,64,69312,2,0,B|328:8|184:8|72:64,1,380,2|2
72,63,70874,1,2
40,312,71880,6,0,B|86:371|155:371|200:312,1,190,4|8
256,248,72817,1,0
312,184,73130,2,0,B|358:125|427:125|472:184,1,190,4|8
392,216,74067,1,0
392,216,74380,2,0,B|392:24,1,190,4|8
224,72,75630,6,0,B|208:152|160:184|88:184,1,190,4|8
128,96,76567,1,0
128,96,76880,2,0,B|266:254,1,190,4|8
312,296,77817,1,0
384,344,78130,2,0,B|432:368|480:344,2,95,4|0|8
256,192,79067,12,0,80630
176,72,81255,5,8
256,48,81567,1,2
336,24,81880,2,0,B|400:8|464:40|488:112,1,190,4|8
456,192,82817,1,0
486,276,83130,2,0,B|464:344|400:376|336:360,1,190,0|8
256,328,84067,1,0
175,360,84380,6,0,B|112:376|48:344|25:276,1,190,4|8
56,192,85317,1,4
25,107,85630,2,0,B|48:40|112:8|175:23,1,190,0|8
256,40,86567,1,0
336,72,86880,6,0,B|416:120|424:232,2,190,4|8|4
216,192,88755,1,8
152,248,89067,1,0
88,304,89380,5,4
256,352,90005,1,8
424,304,90630,1,8
256,264,91255,1,8
256,96,91880,1,4
176,64,92192,5,0
96,40,92505,2,0,B|48:24|0:40,2,95,8|0|4
256,96,93755,1,8
336,64,94067,1,0
416,40,94380,2,0,B|464:24|512:40,2,95,4|0|8
336,224,95630,2,0,B|295:274|216:274|168:224,1,190,4|8
80,224,96567,1,0
128,296,96880,6,0,B|192:368|320:368|384:296,1,285,4|0
432,224,98130,2,0,B|480:144,1,95,4|4
432,72,98755,2,0,B|383:153,1,95,8|0
336,224,99380,2,0,B|295:274|216:274|168:224,2,190,4|8|4
208,120,101255,5,8
128,80,101567,1,0
48,40,101880,2,0,B|-16:128|48:216,1,190,2|8
104,280,102817,1,0
168,344,103130,2,0,B|256:408|344:344,1,190,4|8
256,208,104380,6,0,B|256:8,2,190,2|8|4
256,296,105942,1,4
256,384,106255,1,8
408,344,106880,6,0,B|472:320|512:272|512:200,1,190,2|8
507,114,107817,1,0
440,59,108130,2,0,B|328:3|184:3|72:59,1,380,4|4
384,208,110630,5,0
336,280,110942,1,0
256,312,111255,1,0
176,280,111567,1,0
128,208,111880,1,2
256,48,121880,5,4
256,136,122192,1,0
176,176,122505,2,0,B|217:226|296:226|344:176,2,190,8|4|8
128,104,124067,1,0
88,24,124380,2,0,B|-24:104|-24:264|88:361,2,380,4|4|4
176,16,127192,5,0
248,64,127505,2,0,B|289:114|368:114|416:64,2,190,8|4|8
328,24,129067,1,0
328,24,129380,2,0,B|328:216,1,190,4|8
328,296,130317,1,0
328,376,130630,1,4
160,336,131255,2,0,B|56:336,2,95,8|0|4
232,288,132192,5,0
288,224,132505,2,0,B|328:167|296:87|216:95,2,190,8|4|8
216,176,134067,1,0
216,175,134380,2,0,B|392:87,1,190,4|8
464,48,135317,1,0
464,136,135630,2,0,B|464:328,2,190,4|8|4
384,176,137192,5,0
312,224,137505,2,0,B|267:253|224:224,1,95,8|0
176,152,138130,2,0,B|127:111|47:111|0:152,1,190,4|8
56,216,139067,1,0
0,280,139380,2,0,B|48:320|128:320|176:280,2,190,4|8|4
256,88,141567,5,0
312,24,141880,2,0,B|376:24|432:72|432:144,1,190,4|8
368,200,142817,1,0
432,256,143130,2,0,B|432:320|384:376|312:376,1,190,4|8
256,312,144067,1,0
200,376,144380,6,0,B|136:376|80:328|80:256,1,190,4|8
144,200,145317,1,0
80,144,145630,2,0,B|80:80|128:24|200:24,1,190,4|8
256,224,146880,6,0,B|256:336|394:354,2,190,4|8|4
256,136,148442,1,0
296,64,148755,1,8
376,32,149067,1,0
464,24,149380,2,0,B|552:80|552:208|464:264,2,285,4|2|8
416,96,151567,1,0
368,168,151880,6,0,B|312:256|184:256|128:168,1,285,4|0
80,96,153130,1,4
368,168,154380,6,0,B|312:80|184:80|128:168,1,285,4|0
80,240,155630,1,4
312,304,156880,6,0,B|392:360|496:328,2,190,4|8|4
240,256,158442,1,0
176,200,158755,1,8
120,136,159067,1,0
72,63,159380,2,0,B|184:8|328:8|440:64,1,380,4|4
440,63,160942,1,4
200,335,162010,6,0,B|155:395|86:395|40:336,1,190,4|8
104,280,162947,1,0
168,224,163260,2,0,B|214:165|283:165|328:224,1,190,4|8
368,296,164197,1,0
408,224,164510,2,0,B|408:32,1,190,4|8
256,96,165760,6,0,B|240:176|192:208|120:208,1,190,4|8
160,120,166697,1,0
192,40,167010,2,0,B|124:39|76:71|60:151,1,190,4|8
56,240,167947,1,0
72,320,168260,2,0,B|96:368|160:376,2,95,4|0|8
256,192,169197,12,4,170760
120,24,171385,5,8
152,104,171697,1,0
184,184,172010,2,0,B|207:253|305:253|328:184,1,190,4|8
256,136,172947,1,0
256,136,173260,2,0,B|256:336,2,190,4|8|4
128,24,175135,5,8
72,88,175447,1,0
48,168,175760,2,0,B|16:264|88:344,1,190,4|8
169,369,176697,1,0
254,375,177010,6,0,B|454:375,2,190,4|8|4
256,216,178885,1,8
256,128,179197,1,0
256,40,179510,5,4
136,160,180135,1,8
256,288,180760,1,8
376,168,181385,1,8
256,40,182010,1,4
176,72,182322,5,0
96,88,182635,2,0,B|48:104|0:88,2,95,8|0|4
256,40,183885,1,8
336,72,184197,1,0
416,88,184510,2,0,B|464:104|512:88,2,95,4|0|8
336,224,185760,2,0,B|295:274|216:274|168:224,1,190,4|8
104,168,186697,1,0
128,88,187010,6,0,B|192:16|320:16|384:88,1,285,4|0
440,152,188260,2,0,B|488:240,1,95,4|0
400,232,188885,2,0,B|424:328,1,95,8|0
340,301,189510,2,0,B|299:251|220:251|172:301,2,190,4|8|4
344,144,191385,5,8
272,96,191697,1,0
200,56,192010,2,0,B|112:-8|24:56,1,190,2|8
56,136,192947,1,0
104,208,193260,2,0,B|192:272|280:208,1,190,4|8
416,104,194510,6,0,B|480:192|416:280,2,190,2|8|4
344,56,196072,1,0
256,40,196385,1,8
104,112,197010,6,0,B|160:144|160:240|104:272,1,190,2|8
64,192,197947,1,0
64,192,198260,2,0,B|448:192,1,380,4|4
128,256,200760,5,0
176,328,201073,1,0
256,360,201385,1,0
336,328,201698,1,0
384,256,202010,1,4
256,144,202635,5,8
208,72,202947,2,0,B|160:32|80:32|32:72,2,190,0|2|8
256,144,204510,2,0,B|296:192|296:272|256:320,1,190,4|8
112,232,205760,2,0,B|16:232,2,95,4|4|8
200,232,206697,1,0
288,232,207010,5,4
456,232,207635,1,8
456,232,207947,2,0,B|448:168|400:112|328:112,2,190,0|2|8
376,256,209510,2,0,B|376:325|320:373|256:381,1,190,4|8
112,296,210760,5,4
56,232,211072,1,4
112,168,211385,1,8
56,104,211697,1,0
112,40,212010,6,0,B|160:16|248:16|296:40,1,190,4|8
280,120,212947,2,0,B|328:144|416:144|464:120,1,190
408,56,213885,2,0,B|384:104|384:192|408:240,2,190,8|4|8
256,128,215760,5,4
320,184,216072,1,4
256,240,216385,1,8
320,296,216697,1,8
256,352,217010,5,4
96,192,218260,1,8
256,32,219510,1,8
416,192,220760,5,4
400,280,221072,1,0
336,336,221385,1,8
256,352,221697,1,0
168,352,222010,6,0,B|103:351|56:267|90:212,1,190,4|8
159,263,222947,2,0,B|333:164,1,190,0|4
320,80,223885,2,0,B|384:80|431:164|397:220,2,190,8|4|8
160,128,225760,1,4
96,184,226072,1,4
160,240,226385,1,8
96,296,226697,1,0
160,352,227010,6,0,B|216:360|296:360|352:352,3,190,4|8|4|8
416,304,229197,1,0
472,240,229510,2,0,B|496:191|496:103|472:56,1,190,4|8
320,128,230760,1,4
248,168,231072,1,4
176,208,231385,1,8
104,248,231697,1,0
40,304,232010,6,0,B|88:344|168:344|216:304,1,190,4|8
280,248,232947,2,0,B|328:208|408:208|456:248,1,190,0|4
368,296,233885,2,0,B|368:104,2,190,8|4|8
208,232,235760,5,4
144,176,236072,1,4
208,120,236385,1,8
144,64,236697,1,8
256,192,237010,12,0,238885
256,320,239510,5,4
256,320,239822,1,4
256,64,242010,5,4
256,64,242322,1,4
32,192,243260,5,4
104,232,243572,1,4
176,272,243885,1,8
248,312,244197,1,8
320,352,244510,1,4
