osu file format v9

[General]
AudioFilename: Sonic X - The Shining Road.mp3
AudioLeadIn: 0
PreviewTime: 71880
Countdown: 0
SampleSet: Soft
StackLeniency: 0.7
Mode: 0
LetterboxInBreaks: 1

[Editor]
DistanceSpacing: 0.7
BeatDivisor: 4
GridSize: 8

[Metadata]
Title:The Shining Road
Artist:Aya Hiroshige
Creator:ztrot
Version:Hard
Source:Sonic X
Tags:Amy Rose Charles445 Tails Cosmo Sonic DarkDunskin

[Difficulty]
HPDrainRate:6
CircleSize:4
OverallDifficulty:8
ApproachRate:8
SliderMultiplier:3.2
SliderTickRate:2

[Events]
//Background and Video events
0,0,"SonicX_SunRise.jpg"
//Break Periods
2,113017,121130
//Storyboard Layer 0 (Background)
//Storyboard Layer 1 (Fail)
//Storyboard Layer 2 (Pass)
//Storyboard Layer 3 (Foreground)
//Storyboard Sound Samples
//Background Colour Transformations
3,100,163,162,255

[TimingPoints]
31812,625,4,2,1,50,1,0
71880,625,4,2,1,50,1,0
121255,-100,4,2,2,50,0,0
162010,625,4,2,1,50,1,0
202010,-100,4,2,1,50,0,1
233260,-100,4,2,1,50,0,0
243103,-100,4,2,1,15,0,0
243416,-100,4,2,1,30,0,0

[Colours]
Combo1 : 252,241,163
Combo2 : 255,202,228
Combo3 : 239,107,111
Combo4 : 132,132,255

[HitObjects]
256,80,32124,1,0
256,192,32437,1,2
256,304,32749,1,0
352,248,33062,1,0
352,136,33374,1,0
256,80,33687,1,2
160,136,33999,1,0
160,248,34312,2,0,B|160:344|256:408|352:344|352:248,1,320,2|0
256,192,35249,5,0
200,96,35562,1,2
256,0,35874,1,0
312,96,36187,1,2
256,192,36499,1,0
256,80,36812,1,2
144,96,37124,5,0
256,80,37437,1,0
368,96,37749,1,0
360,208,38062,2,0,B|392:304|352:392|256:440|160:392|120:304|152:208,1,480,2|0
152,104,39312,2,0,B|152:16|256:-48|360:16|360:104,1,320,2|0
256,144,40249,1,2
360,192,40562,2,0,B|360:280|256:344|152:280|152:192,1,320,0|0
256,144,41499,1,0
256,32,41812,5,2
344,96,42124,2,0,B|416:152|392:240,1,160
288,192,42749,2,0,B|216:248|240:336,1,160,0|2
128,328,43374,1,0
48,248,43687,1,2
88,144,43999,1,0
168,224,44312,2,0,B|144:320|256:376|368:320|344:224,1,320,0|2
256,152,45249,1,0
256,152,45562,1,0
168,88,45874,5,2
200,40,46030,1,0
256,32,46187,1,2
312,40,46343,1,0
344,88,46499,1,2
256,152,46812,1,2
256,264,47124,5,0
144,264,47437,1,0
256,264,47749,1,0
368,264,48062,2,0,B|408:176|376:96|256:48|136:96|104:176|144:264,1,480,2|0
176,368,49312,6,0,B|336:368,1,160
336,312,49780,2,0,B|168:312,1,160
176,256,50249,2,0,B|344:256,1,160
312,144,50874,1,2
256,128,51030,1,0
200,144,51187,1,0
200,32,51499,5,0
312,32,51812,1,4
256,128,52124,1,0
200,224,52437,1,2
312,224,52749,2,0,B|392:272|368:368,1,160,0|0
200,224,53374,2,0,B|120:272|144:368,1,160,0|2
256,336,53999,1,0
256,224,54312,1,4
376,32,54937,5,2
256,96,55249,1,0
136,32,55562,1,2
160,256,56187,5,0
256,192,56499,1,0
352,256,56812,5,2
256,192,57124,1,0
160,128,57437,5,2
256,192,57749,1,0
352,128,58062,5,2
256,192,58374,1,0
184,280,58687,5,2
256,368,58999,1,0
328,280,59312,2,0,B|368:192|256:96|136:192|184:280,1,320,6|0
256,368,60249,5,0
368,352,60562,1,6
448,280,60874,1,0
448,168,61187,1,0
368,96,61499,1,0
256,64,61812,2,0,B|176:48|88:160|176:272|256:256,1,320,4|0
256,160,62749,5,0
256,160,63062,2,0,B|336:144|424:256|336:368|256:352,1,320,0|2
256,256,64312,6,0,B|176:272|88:160|176:48|256:64,1,320,4|2
256,160,65249,1,0
256,64,65562,2,0,B|336:48|424:160|336:272|256:256,1,320,4|2
88,104,66812,5,2
112,216,67124,1,0
200,288,67437,1,2
312,288,67749,1,0
400,216,68062,1,4
424,104,68374,1,0
312,128,68687,1,2
200,128,68999,1,0
168,232,69312,2,0,B|144:320|256:400|368:320|344:232,2,320,6|2|6
256,160,70874,1,2
456,24,71880,5,4
456,136,72192,1,0
456,248,72505,1,8
368,312,72817,1,0
320,344,72973,1,0
272,312,73130,2,0,B|184:312|136:384,2,160,4|0|8
368,232,74067,1,0
320,200,74223,1,0
272,232,74380,2,0,B|184:232|136:160,2,160,4|0|8
128,64,75630,5,0
256,152,75942,1,0
384,64,76255,1,8
256,152,76567,1,0
104,256,76880,2,0,B|184:208|256:256|328:312|408:240,1,320,4|8
416,128,77817,6,0,B|416:32|312:32,1,160,0|4
197,32,78442,2,0,B|96:32|96:128,1,160,0|8
200,168,79067,1,0
256,264,79380,1,4
312,168,79692,1,4
368,264,80005,1,8
312,360,80317,1,0
256,360,80473,2,0,B|88:360,1,160,4|0
96,304,80942,2,0,B|256:304,1,160,4|8
256,192,81567,1,2
144,192,81880,1,4
312,48,82505,5,8
200,48,82817,1,0
200,48,82973,2,0,B|104:48|72:176|176:216,1,240
256,144,83755,1,8
312,48,84067,1,0
368,144,84380,2,0,B|392:224|328:280|256:280|184:280|120:224,1,320,4|8
136,128,85317,1,4
136,128,85473,1,0
56,272,85942,5,0
144,336,86255,1,8
256,328,86567,1,0
368,336,86880,1,4
456,272,87192,1,0
368,336,87505,2,0,B|304:264|368:192,1,160,8|0
144,336,88130,2,0,B|208:264|144:192,1,160,4|0
184,88,88755,2,0,B|256:152|328:88,1,160,8|0
256,208,89380,5,4
304,312,89692,1,0
360,312,89848,1,0
384,264,90005,1,8
208,312,90317,1,0
152,312,90473,1,0
120,360,90630,1,8
256,240,90942,1,8
256,184,91098,1,0
216,144,91255,1,8
256,384,91567,5,8
312,384,91723,1,8
360,352,91880,1,4
152,352,92192,5,0
256,304,92505,1,8
360,352,92817,1,0
360,240,93130,1,4
256,192,93442,1,4
152,240,93755,1,8
152,128,94067,2,0,B|64:144|32:232,1,160,0|4
360,128,94692,2,0,B|448:144|480:232,1,160,0|8
176,352,95630,5,4
256,280,95942,1,4
160,224,96255,1,8
256,168,96567,1,0
352,224,96880,2,4,B|376:136|256:80|136:136|160:224,1,320,4|8
256,280,97817,1,0
352,336,98130,1,4
256,280,98442,1,4
160,336,98755,1,8
160,224,99067,1,0
256,160,99380,5,4
352,224,99692,1,0
352,112,100005,1,8
256,56,100317,1,0
256,56,100473,1,8
160,112,100786,1,0
160,112,100942,1,4
256,168,101255,5,8
200,264,101567,1,0
312,264,101880,2,0,B|376:264|376:176|376:176|504:144|504:280,1,320,2|8
408,336,102817,1,4
408,336,102973,1,0
256,264,103442,5,0
256,264,103755,1,8
312,168,104067,1,8
200,168,104380,2,0,B|136:168|136:256|136:256|8:288|8:152,1,320,2|8
104,48,105317,1,4
104,48,105473,1,8
256,128,105942,5,0
256,16,106255,1,8
352,72,106567,1,8
352,184,106880,2,0,B|360:288|256:320|152:288|160:184,1,320,6|8
256,128,107817,1,0
256,128,107973,1,4
96,80,108442,5,0
88,192,108755,1,8
160,272,109067,1,8
256,336,109380,1,4
256,112,110005,1,0
256,336,110630,5,0
312,240,110942,1,0
200,240,111255,1,0
256,144,111567,1,0
256,144,111723,1,0
208,120,111880,2,0,B|192:72|256:56|320:72|304:120,3,160
256,32,121880,5,4
168,96,122192,1,0
256,168,122505,2,0,B|352:160|392:232,1,160,8|0
288,280,123130,1,4
176,280,123442,1,0
136,176,123755,2,0,B|62:212|65:308,1,160,8|0
176,280,124380,2,0,B|256:352|328:304|400:248|496:312,1,320,4|8
480,192,125317,1,0
408,104,125630,1,4
336,192,125942,5,0
312,144,126098,1,0
256,128,126255,1,8
200,144,126411,1,0
176,192,126567,1,0
256,272,126880,5,4
336,192,127192,1,0
256,120,127505,1,8
176,192,127817,1,0
256,272,128130,2,0,B|384:296|376:192|384:80|256:120,1,320,4|8
256,272,129067,1,0
256,272,129380,2,0,B|128:296|136:192|128:80|256:120,1,320,4|8
256,8,130317,1,0
352,64,130630,2,0,B|440:112|456:192|440:272|352:320,1,320,4|8
304,352,131411,1,0
248,352,131567,1,0
144,304,131880,1,4
152,192,132192,6,0,B|96:128|8:144,1,160,0|8
80,224,132817,2,0,B|136:160|224:176,1,160,0|4
256,288,133442,1,0
287,176,133755,2,0,B|376:160|432:224,1,160,8|0
416,112,134380,6,0,B|256:96|96:112,2,320,4|8|4
352,200,135942,1,0
304,232,136098,1,0
256,264,136255,1,8
208,232,136411,1,0
160,200,136567,1,0
256,144,136880,1,4
328,56,137192,5,0
256,144,137505,1,8
184,56,137817,1,0
152,160,138130,2,0,B|152:248|256:312|360:248|360:160,1,320,4|8
200,320,139067,1,0
256,336,139223,1,0
312,320,139380,2,0,B|392:296|424:208,1,160,4|0
200,320,140005,2,0,B|120:296|88:208,1,160,8|0
256,232,140630,1,4
256,120,140942,5,0
224,72,141098,1,0
280,72,141255,1,8
184,136,141567,1,0
184,136,141880,2,0,B|152:232|256:320|360:232|328:136,1,320,4|8
432,184,142817,1,0
416,296,143130,1,4
312,336,143442,5,0
200,336,143755,1,8
256,240,144067,1,0
144,240,144380,2,0,B|48:240|48:136,1,160,4|0
144,88,145005,1,8
240,136,145317,2,0,B|240:237|144:237,1,160,0|4
256,40,146255,5,8
336,120,146567,1,0
256,200,146880,1,4
184,120,147192,1,0
256,200,147505,1,8
336,280,147817,1,0
256,360,148130,1,4
176,280,148442,1,0
256,200,148755,6,0,B|216:128|256:128|296:128|256:56,2,160,0|0|4
88,352,150005,1,8
88,240,150317,2,0,B|176:232|192:136,1,160,0|4
80,128,150942,1,0
144,32,151255,1,8
256,40,151567,1,0
368,32,151880,2,0,B|432:104|448:176|432:248|368:320,1,320,4|8
256,296,152817,1,0
143,319,153130,2,0,B|80:248|64:176|80:104|144:32,1,320,4|8
256,224,154380,6,0,B|176:176|200:72|256:160|256:160|312:72|336:176|296:200,1,320,4|8
256,304,155317,1,0
152,264,155630,2,0,B|88:200|72:104|136:24|216:8,1,320,4|8
256,232,156880,6,0,B|256:320|360:352,1,160,4|0
216,192,157505,2,0,B|128:192|96:296,1,160,8|0
256,152,158130,2,0,B|256:64|152:32,1,160,4|0
296,192,158755,2,0,B|384:192|416:88,1,160,8|0
472,192,159380,5,4
256,264,160005,1,8
40,192,160630,1,4
40,192,160942,1,4
456,360,162010,5,4
456,248,162322,1,0
456,136,162635,1,8
368,72,162947,1,0
320,40,163103,1,0
272,72,163260,2,0,B|184:72|136:0,2,160,4|0|8
368,152,164197,1,0
320,184,164353,1,0
272,152,164510,2,0,B|184:152|136:224,2,160,4|0|8
128,320,165760,5,0
256,232,166072,1,0
384,320,166385,1,8
256,232,166697,1,0
104,128,167010,2,0,B|184:176|256:128|328:72|408:144,1,320,4|8
416,256,167947,6,0,B|416:352|312:352,1,160,0|4
197,352,168572,2,0,B|96:352|96:256,1,160,0|8
200,216,169197,1,0
256,120,169510,1,4
312,216,169822,1,4
368,120,170135,1,8
312,24,170447,1,0
256,24,170603,2,0,B|88:24,1,160,4|0
96,80,171072,2,0,B|256:80,1,160,4|8
256,192,171697,1,2
144,192,172010,1,4
312,336,172635,5,8
200,336,172947,1,0
200,336,173103,2,0,B|104:336|72:208|176:168,1,240
256,240,173885,1,8
312,336,174197,1,0
368,240,174510,2,0,B|392:160|328:104|256:104|184:104|120:160,1,320,4|8
136,256,175447,1,4
136,256,175603,1,0
56,112,176072,5,0
144,48,176385,1,8
256,56,176697,1,0
368,48,177010,1,4
456,112,177322,1,0
368,48,177635,2,0,B|304:120|368:192,1,160,8|0
144,48,178260,2,0,B|208:120|144:192,1,160,4|0
184,296,178885,2,0,B|256:232|328:296,1,160,8|0
256,176,179510,5,4
304,72,179822,1,0
360,72,179978,1,0
384,120,180135,1,8
208,72,180447,1,0
152,72,180603,1,0
120,24,180760,1,8
256,144,181072,1,8
256,200,181228,1,0
216,240,181385,1,8
256,0,181697,5,8
312,0,181853,1,8
360,32,182010,1,4
152,32,182322,5,0
256,80,182635,1,8
360,32,182947,1,0
360,144,183260,1,4
256,192,183572,1,4
152,144,183885,1,8
152,256,184197,2,0,B|64:240|32:152,1,160,0|4
360,256,184822,2,0,B|448:240|480:152,1,160,0|8
176,32,185760,5,4
256,104,186072,1,4
160,160,186385,1,8
256,216,186697,1,0
352,160,187010,2,4,B|376:248|256:304|136:248|160:160,1,320,4|8
256,104,187947,1,0
352,48,188260,1,4
256,104,188572,1,4
160,48,188885,1,8
160,160,189197,1,0
256,224,189510,5,4
352,160,189822,1,0
352,272,190135,1,8
256,328,190447,1,0
256,328,190603,1,8
160,272,190916,1,0
160,272,191072,1,4
256,216,191385,5,8
200,120,191697,1,0
312,120,192010,2,0,B|376:120|376:208|376:208|504:240|504:104,1,320,2|8
408,48,192947,1,4
408,48,193103,1,0
256,120,193572,5,0
256,120,193885,1,8
312,216,194197,1,8
200,216,194510,2,0,B|136:216|136:128|136:128|8:96|8:232,1,320,2|8
104,336,195447,1,4
104,336,195603,1,8
256,256,196072,5,0
256,368,196385,1,8
352,312,196697,1,8
352,200,197010,2,0,B|360:96|256:64|152:96|160:200,1,320,6|8
256,256,197947,1,0
256,256,198103,1,4
96,304,198572,5,0
88,192,198885,1,8
160,112,199197,1,8
256,48,199510,1,4
256,272,200135,1,0
256,48,200760,5,4
312,144,201072,1,4
200,144,201385,1,4
256,240,201697,1,0
256,240,201853,1,0
256,240,202010,6,0,B|248:336|352:392|456:336|448:240,1,320,4|8
352,184,202947,2,0,B|360:88|256:32|152:88|160:184,1,320
256,240,203885,1,8
256,352,204197,1,0
160,296,204510,2,0,B|64:296|24:192|64:88|160:88,2,320,4|8|4
256,352,206072,1,0
352,296,206385,1,8
256,232,206697,1,0
360,184,207010,2,0,B|360:88|256:48|152:88|152:184,2,320,4|8|4
256,232,208572,5,0
256,344,208885,1,8
152,296,209197,1,0
152,184,209510,2,0,B|152:88|256:48|360:88|360:184,1,320,4|8
256,232,210447,1,0
360,296,210760,1,4
360,184,211072,1,0
256,136,211385,1,8
152,184,211697,1,0
152,184,212010,6,0,B|152:280|256:320|360:280|360:184,1,320,4|8
256,136,212947,1,0
160,96,213260,2,0,B|224:80|232:16|232:16|256:56|256:56|280:16|280:16|288:80|352:96,2,320,4|8|4
184,192,214822,1,0
256,280,215135,1,8
328,192,215447,1,0
256,104,215760,5,4
256,216,216072,1,0
176,296,216385,2,0,B|96:328|24:256,1,160,8|0
128,208,217010,2,0,B|64:136|128:64,1,160,4|0
184,64,217478,1,0
240,64,217635,2,8,B|176:135|240:207,1,160
256,320,218260,2,0,B|328:368|408:320,1,160,4|0
408,264,218728,1,0
456,232,218885,2,0,B|504:160|456:80,3,160,8|8|4|0
416,48,219978,1,0
360,48,220135,1,8
256,80,220447,5,4
208,112,220603,1,0
160,144,220760,1,4
256,200,221072,1,4
352,144,221385,1,4
256,240,221697,1,4
152,168,222010,6,0,B|152:264|256:304|360:264|360:168,1,320,0|8
424,256,222947,1,0
336,328,223260,2,0,B|272:352|168:352|104:288|80:200,1,320,4|8
80,96,224197,1,0
176,152,224510,6,0,B|336:152,1,160,4|0
256,72,225135,2,0,B|256:240,1,160,8|0
256,344,225760,1,4
184,256,226072,1,0
328,256,226385,1,8
256,168,226697,1,8
176,72,227010,2,0,B|224:-16|224:88|224:88|256:64|288:40|288:40|288:160|344:72,2,320,4|8|4
152,184,228572,5,0
256,232,228885,1,8
360,184,229197,1,0
360,296,229510,2,0,B|376:376|256:440|136:376|152:296,2,320,4|8|4
256,264,231072,1,4
312,168,231385,1,8
200,168,231697,1,0
256,72,232010,2,0,B|184:32|88:32|40:120|80:224,1,320,4|8
168,152,232947,1,0
192,264,233260,1,4
256,48,233885,5,8
376,240,234510,1,4
136,240,235135,1,8
256,48,235760,1,4
176,120,236072,1,0
256,48,236385,1,8
336,120,236697,1,0
256,200,237010,1,0
256,192,237322,12,4,239510
256,192,239822,5,4
72,64,240760,5,4
72,64,241072,1,0
72,64,241385,1,4
72,64,241697,1,4
184,64,242010,1,4
296,64,242322,1,4
440,320,242947,5,0
440,320,243260,1,8
440,320,243572,1,8
440,320,243885,1,0
328,320,244197,1,0
216,320,244510,1,0
