osu file format v5

[General]
AudioFilename: YouTube - Lucky Star OP2.mp3
AudioLeadIn: 0
PreviewTime: -1
Countdown: 1
SampleSet: Soft
StackLeniency: 0.7
Mode: 0
LetterboxInBreaks: 1

[Metadata]
Title:Motteke! Sailor Fuku
Artist:Aya Hirano, Emiri Katou, Kaori Fukuhara & Aya Endo
Creator:TacomenX
Version:Normal
Source:
Tags:

[Difficulty]
HPDrainRate:4
CircleSize:5
OverallDifficulty:5
SliderMultiplier:0.7
SliderTickRate:1

[Events]
//Background and Video events
1,0,"Lucky Star OP.avi"
//Break Periods
//Storyboard Layer 0 (Background)
//Storyboard Layer 1 (Failing)
//Storyboard Layer 2 (Passing)
//Storyboard Layer 3 (Foreground)
//Storyboard Sound Samples
//Background Colour Transformations
3,100,163,162,255

[TimingPoints]
20040,339.829029361886,4,2,0,100,1
24314,229.808255826105,4,2,0,100,1
31643,243.055648212928,4,2,0,100,1
38283,351.609198096622,4,2,0,100,1
45475,234.391701438054,4,2,0,100,1
49530,234.391701438054,4,2,0,100,1
49940,395.864754868875,4,2,0,100,1
54382,242.985731417482,4,2,0,100,1
71172,424.273581650614,4,2,0,100,1
81186,247.772193047973,4,2,0,100,1

[HitObjects]
96,128,6446,1,2
96,192,6786,1,2
96,256,7126,1,2
96,256,7806,2,2,B|224:160,1,140
288,160,8825,1,2
384,160,9505,1,2
384,224,9845,1,2
384,320,10524,1,2
352,320,10864,2,2,B|128:256,1,210
160,160,12223,1,2
224,224,13923,1,2
288,160,14602,1,2
352,224,15622,1,2
448,160,16301,5,2
352,224,16981,1,2
256,192,18001,1,2
160,128,18340,1,2
96,64,18680,1,2
192,64,19360,1,2
224,64,19700,1,2
256,64,20040,1,2
288,64,20379,1,2
320,64,20719,2,4,C|384:192|256:192|160:160|128:96|160:64,1,490
224,64,23438,1,4
256,64,23778,1,4
288,64,24117,1,4
64,96,24974,1,0
96,64,26382,1,0
96,96,26669,5,0
96,128,26899,1,0
96,160,27129,1,0
128,160,27387,1,0
128,128,27617,1,0
160,128,27876,6,0,B|320:128,1,140
320,160,28594,1,0
320,192,28823,1,0
288,192,29053,1,0
256,192,29312,1,0
68,174,29800,6,2,B|307:130|278:130,2,210
95,150,31466,1,2
149,135,31734,1,2
128,96,32129,1,0
128,128,32372,1,0
128,160,32615,1,0
128,192,32858,1,0
128,224,33101,1,0
128,256,33344,1,0
160,256,33587,1,0
160,224,33830,1,0
160,192,34073,1,0
160,160,34316,1,0
160,128,34559,1,0
192,128,34802,1,0
192,160,35045,1,0
224,192,35288,2,0,C|416:128,1,140
398,139,36018,2,0,B|96:64,1,280
96,96,37243,5,0
96,96,37476,1,4
96,96,37717,5,0
96,96,37962,5,0
56,185,38986,6,0,B|408:219,2,350
96,192,42853,5,0
160,192,43205,1,0
224,192,43557,1,0
273,206,43908,6,0,B|-60:148,1,280
180,208,45594,1,0
208,194,45852,1,0
224,160,46119,1,0
256,128,46412,1,0
306,77,46646,5,0
333,80,46881,1,0
363,75,47115,1,0
384,160,47504,1,0
384,192,47818,1,0
352,256,48053,2,0,B|64:256,1,280
128,256,49764,1,0
128,224,49940,1,0
160,192,50335,1,0
192,192,50548,1,0
224,192,50898,2,0,B|224:-32|224:0|224:32,1,140
256,192,51919,1,0
288,192,52315,1,0
320,224,52562,1,0
384,256,53106,1,0
448,256,53502,1,0
448,192,53898,1,0
384,192,54294,1,0
320,192,54624,2,0,B|32:192,1,280
132,64,56325,2,0,B|447:297,1,350
112,168,57786,2,0,B|315:51,2,210
377,155,59622,1,0
377,155,59974,2,0,B|67:113,1,280
96,64,61428,1,0
128,96,61671,1,0
160,64,61914,1,0
224,96,62400,1,0
224,128,62886,2,0,B|32:160|64:128,1,140
71,144,63864,2,0,B|394:316,1,350
379,308,65323,2,0,B|218:23,1,280
256,192,66052,12,0,70185
64,96,71148,5,0
128,160,71596,1,0
192,96,72020,1,0
256,160,72444,1,0
320,96,72869,1,0
384,160,73293,1,0
320,96,73717,1,0
320,96,74141,1,0
256,160,74566,1,0
448,96,75414,5,0
448,160,76263,1,0
448,224,76687,1,0
448,288,77111,1,0
320,288,77536,2,0,B|32:288,1,280
32,224,79657,1,4
96,160,80081,1,4
192,96,80506,1,4
256,192,80641,12,0,82871
96,64,83168,1,0
128,64,83415,1,0
160,64,83663,1,0
192,64,83911,1,0
224,64,84159,1,0
352,64,85645,1,0
352,160,86636,1,0
352,288,86884,1,0
224,256,87380,1,0
224,160,88123,1,0
224,128,88371,1,0
320,128,88866,1,0
