osu file format v5

[General]
AudioFilename: Lost_My_Music.mp3
AudioLeadIn: 0
PreviewTime: -1
Countdown: 1
SampleSet: Normal
StackLeniency: 0.7
Mode: 0
LetterboxInBreaks: 1

[Metadata]
Title:Lost my music
Artist:Aya Hirano
Creator:AnimmeFann
Version:Normal
Source:
Tags:

[Difficulty]
HPDrainRate:5
CircleSize:5
OverallDifficulty:5
SliderMultiplier:1.4
SliderTickRate:1

[Events]
//Background and Video events
0,0,"miusic-1.jpg"
//Break Periods
2,89375,98431
2,165081,193306
//Storyboard Layer 0 (Background)
//Storyboard Layer 1 (Failing)
//Storyboard Layer 2 (Passing)
//Storyboard Layer 3 (Foreground)
//Storyboard Sound Samples
//Background Colour Transformations
3,100,0,0,0

[TimingPoints]
0,300,4,1,0,100,1
89400,300,4,1,0,100,1
89506,300,4,1,0,100,1

[HitObjects]
64,96,22800,1,0
96,64,23100,1,0
128,96,23400,1,0
160,64,23700,1,0
192,96,24000,1,0
224,64,24300,1,0
320,96,24600,2,0,B|416:96,1,70,2|0
160,192,25575,1,0
192,224,25875,1,0
224,256,26175,1,0
256,224,26475,1,0
288,256,26775,1,0
320,224,27075,1,0
320,224,27150,1,0
128,128,27900,1,0
160,192,28200,1,0
192,128,28500,1,0
224,192,28800,2,0,B|320:192|352:192,1,105
384,192,29325,1,0
256,192,29700,1,0
224,160,32400,5,0
256,128,32700,1,0
288,160,33000,1,0
256,192,33300,1,0
320,224,33600,2,0,B|160:224,1,140
192,224,34200,2,0,B|224:64,1,140,0|0
224,96,35025,1,0
288,96,35400,1,0
64,160,36075,5,0
96,160,36375,1,0
128,160,36675,1,0
64,256,37500,1,0
96,256,37800,1,0
128,256,38100,1,0
160,288,38400,1,0
192,256,38700,1,0
224,288,39000,2,2,B|320:288,1,70,2|2
128,128,42000,5,0
128,160,42300,5,0
128,192,42600,1,0
128,224,42900,1,0
128,256,43200,2,0,B|288:256,1,140
268,256,43800,1,8
96,160,44775,1,8
160,160,45075,2,8,B|320:160,1,140
300,160,45675,2,8,B|288:320,1,140
289,299,46275,1,8
32,192,47175,1,8
96,128,47400,1,8
160,192,47700,1,8
224,128,48000,1,8
288,192,48300,1,8
352,128,48600,1,8
416,192,48825,2,8,B|480:192,1,35
64,288,51675,2,0,B|64:128,1,140
128,160,52200,2,0,B|128:320,1,140
192,288,52800,2,0,B|192:128,1,140
197,100,53325,2,0,B|517:324,1,385
480,320,54300,1,10
480,320,54525,1,10
53,166,55275,5,0
95,130,55500,1,0
138,102,55800,1,0
16,260,56700,1,0
47,313,57000,1,0
87,270,57300,1,0
132,326,57600,2,0,B|320:156|433:287|448:282,1,315,0|12
64,32,60075,5,0
64,32,60300,1,0
128,32,60600,2,0,B|480:224,1,385
416,320,61800,1,0
384,288,62100,1,0
352,320,62400,1,0
320,288,62700,1,0
288,320,63000,2,0,B|-32:32,1,420
64,32,64200,1,10
96,96,64875,1,8
96,96,65100,1,8
224,96,65400,1,8
224,96,65700,1,8
384,96,66000,1,8
384,96,66300,1,8
384,96,66600,2,8,B|384:256,1,140
384,320,67200,2,8,B|224:320,1,140
160,320,67800,2,10,B|160:160,1,140
32,160,69675,1,0
32,160,69900,1,0
32,96,70200,2,0,B|480:96,1,420
416,160,71400,1,0
320,160,71700,1,0
224,160,72000,1,0
128,160,72300,1,0
96,64,72600,2,0,B|512:64,1,385
478,64,73725,1,0
96,64,74475,1,0
128,64,74775,1,0
192,64,75075,1,0
224,64,75375,1,0
288,64,75675,1,0
320,64,75975,1,0
320,128,76275,2,0,B|160:128,1,140
192,128,76875,2,0,B|32:128,1,140
52,128,77400,5,0
52,128,77700,1,0
64,64,79875,5,0
64,64,80100,1,0
64,160,80400,1,0
64,160,80625,1,0
160,64,81000,1,0
160,64,81225,1,0
160,160,81450,1,0
160,160,81975,1,0
256,64,82275,1,0
256,64,82575,1,0
256,160,82875,1,0
256,160,83175,1,0
352,64,83475,2,0,B|352:192,1,105
352,160,84000,1,0
64,320,84600,1,0
96,320,84900,1,0
128,256,85200,1,0
160,256,85500,1,0
192,320,85800,1,0
224,320,86025,1,0
256,320,86325,1,0
288,256,86700,1,0
320,256,86850,1,0
384,320,87075,1,0
416,320,87375,1,0
480,256,87600,1,0
480,256,87825,1,0
480,256,88050,1,0
96,128,99631,5,0
160,128,99931,1,0
224,128,100231,1,0
224,224,100531,1,0
160,224,100831,1,0
96,224,101131,2,8,B|96:64,1,140
96,96,102256,1,0
96,224,102556,1,0
192,224,102856,1,0
320,224,103156,1,0
320,96,103456,2,8,B|160:96,1,140
96,128,104731,1,8
160,192,105031,1,8
224,128,105331,1,8
288,192,105631,1,8
480,128,105931,2,8,B|320:128,1,140
256,128,106531,1,8
32,320,109231,2,0,B|32:160,1,140
128,192,109831,2,0,B|128:352,1,140
224,320,110431,2,0,B|224:160,1,140
352,224,111106,1,0
352,224,111931,1,0
352,224,112231,1,0
64,160,112906,1,0
96,96,113131,1,0
160,160,113431,2,0,B|320:160,1,140
352,96,114256,1,0
416,128,114631,1,0
384,160,114931,1,0
352,192,115231,1,0
320,224,115531,1,0
288,256,115831,1,0
96,288,118831,5,0
160,288,119131,1,0
224,288,119431,1,0
288,288,119731,1,0
352,288,120031,1,0
416,288,120331,2,0,B|416:128,1,140
256,64,121531,1,0
192,128,121831,1,0
128,192,122131,1,0
192,256,122431,1,0
256,320,122731,1,0
256,192,123031,1,8
64,192,123931,5,8
96,160,124231,1,8
128,192,124531,1,8
160,160,124831,1,8
192,192,125131,1,8
192,192,125431,2,8,B|352:192,1,140
64,64,128506,5,0
64,64,128731,1,0
64,128,129031,1,0
64,128,129331,1,0
64,192,129631,1,0
64,192,129931,1,0
64,256,130231,2,0,B|384:256,1,315
416,160,131131,1,8
416,160,131431,1,8
128,64,131956,2,8,B|288:64,1,140
352,64,132556,1,8
352,160,133606,1,8
256,160,133831,2,8,B|96:160,1,140
128,256,134431,1,8
224,256,134731,2,8,B|416:256,1,175
32,128,136756,6,8,B|192:128,1,140
160,128,137356,2,0,B|320:128,1,140,0|0
384,128,138406,1,0
384,224,138631,1,0
384,320,138931,1,0
288,320,139231,1,0
192,320,139531,1,0
192,224,139831,1,0
288,128,140806,1,8
288,224,141106,1,8
32,192,141706,5,0
64,128,141931,1,0
96,192,142231,1,0
128,128,142531,1,0
160,192,142831,1,0
192,128,143131,1,0
224,192,143431,1,0
256,128,143656,1,0
288,192,143956,1,0
320,128,144256,1,0
352,192,144556,2,0,B|512:192,1,140
32,64,146356,2,0,B|192:64,1,140
256,64,147031,1,0
32,128,147931,1,0
96,128,148231,1,0
96,128,148531,1,0
192,128,148831,1,0
192,128,149056,1,0
192,128,149356,1,0
288,128,150256,1,8
288,128,150556,1,8
64,96,151306,1,0
128,96,151531,1,0
64,160,151831,1,0
128,160,152131,1,0
256,96,152431,1,0
320,96,152731,1,0
256,160,153031,1,0
320,160,153331,1,0
96,224,153631,1,0
160,224,153931,1,0
96,288,154231,1,0
160,288,154531,1,0
64,160,156706,1,0
64,160,156931,1,0
128,160,157306,1,0
128,160,157531,1,0
64,224,157831,1,0
128,224,158056,2,0,B|320:224,1,175
384,224,158731,1,0
384,160,158956,1,0
384,160,159256,1,0
384,96,159631,1,0
384,96,159931,1,0
320,96,160231,1,0
320,96,160531,2,0,B|160:96,1,140
64,64,161506,5,0
64,64,161731,1,0
128,64,162106,1,0
128,64,162331,1,0
192,64,162631,2,0,B|320:64,1,105
288,64,163231,1,0
352,64,163456,1,0
448,64,163756,1,0
448,96,164131,1,0
448,128,164431,1,0
448,160,164656,1,0
448,160,164881,1,0
64,160,194506,5,0
128,96,194731,1,0
192,160,195031,1,0
256,96,195931,1,0
320,160,196231,1,0
352,192,196531,1,0
352,224,196831,1,0
320,256,197131,1,0
288,224,197431,1,0
288,192,198331,1,0
320,160,198631,1,0
64,64,199306,5,0
64,64,199531,1,0
192,64,199831,1,0
192,64,200056,1,0
64,160,200431,1,0
64,160,200731,1,0
192,160,201031,1,0
192,160,201256,1,0
320,64,201631,1,0
320,64,201931,1,0
320,160,202231,2,0,B|320:320,1,140
96,160,204031,5,0
96,160,204256,1,0
96,160,204556,1,0
96,64,205531,1,0
192,64,205831,2,0,B|352:64,1,140
320,64,206431,1,0
320,64,206731,1,0
320,192,207031,1,0
320,192,207856,2,0,B|160:192,1,140
32,64,208906,1,0
32,128,209131,1,0
96,64,209431,1,0
96,128,209731,1,0
192,64,210031,1,0
192,128,210331,1,0
256,64,210631,1,0
256,128,210931,1,0
352,64,211231,1,0
352,128,211456,1,0
256,192,211681,12,0,213031
64,160,213706,1,0
160,160,213931,1,0
224,160,214231,1,0
384,288,215131,1,0
224,224,215431,1,0
128,224,215731,1,0
64,224,216031,1,0
64,224,216331,1,0
64,160,216631,1,0
128,160,217531,1,0
128,160,217831,1,0
64,96,218506,6,0,B|64:224,1,105
128,224,219031,2,0,B|128:64,1,140
192,96,219631,2,0,B|192:256,1,140
64,96,220231,2,0,B|224:96,1,140
128,192,220831,2,0,B|288:192,1,140
192,288,221431,2,0,B|352:288,1,140
32,96,223231,6,0,B|288:96,1,245
242,96,224731,1,0
384,96,225031,1,0
384,96,225331,1,0
384,96,225631,1,0
256,96,225931,1,0
256,96,226231,1,0
96,96,227056,2,0,B|256:96,1,140
64,256,228031,5,0
128,192,228331,1,0
192,256,228631,1,0
256,192,228931,1,0
320,256,229231,1,0
384,192,229531,1,0
448,128,229831,1,0
384,64,230131,1,0
320,128,230431,1,0
256,64,230731,1,0
256,64,231031,2,0,B|96:64,1,140
32,64,233506,5,0
32,96,233731,1,0
32,192,234031,1,0
32,224,234256,1,0
128,160,234556,1,0
128,160,234781,1,0
128,160,235081,1,0
224,64,235531,1,0
224,128,235831,1,0
224,160,236131,1,0
224,224,236431,1,0
224,256,236656,1,0
224,320,236956,1,0
224,320,237181,2,0,B|384:320,1,140
64,64,238231,5,0
96,96,238456,1,0
160,64,238831,1,0
192,96,239056,1,0
288,64,239431,1,0
320,96,239656,1,0
352,64,239881,1,0
448,288,240406,1,0
448,288,240556,1,0
384,288,240706,1,0
320,288,240931,1,0
320,288,241231,1,0
256,288,241456,2,0,B|128:288,1,105
64,160,243106,5,8
64,160,243331,1,8
160,96,243631,1,8
160,96,243931,1,8
288,96,244231,1,8
288,96,244456,2,8,B|448:96,1,140
428,96,245131,1,8
448,192,245431,1,8
448,192,245656,1,8
320,192,246031,1,8
320,192,246331,1,8
224,192,246631,1,8
224,192,246856,2,8,B|64:192,1,140
64,64,247906,5,8
96,96,248131,1,8
128,64,248431,1,8
160,96,248731,1,8
192,64,248956,2,8,B|320:64,1,105
352,64,249556,1,8
352,160,249856,1,8
352,160,250006,1,8
256,160,250231,1,8
160,160,250531,1,8
160,160,250831,2,8,B|32:160,1,105
64,160,251281,1,8
256,192,251581,12,8,252331
