osu file format v5

[General]
AudioFilename: Super Robot Wars Original Generations - Ash To Ash(Lamia).mp3
AudioLeadIn: 0
PreviewTime: -1
Countdown: 1
SampleSet: Normal
StackLeniency: 0.7
Mode: 0
LetterboxInBreaks: 1
EditorBookmarks: 0
EditorDistanceSpacing: 0.800000011920929

[Metadata]
Title:ASH TO ASH= Lamia Loveless Vocal
Artist:Ax
Creator:Alexbomber
Version:Normal
Source:
Tags:

[Difficulty]
HPDrainRate:5
CircleSize:4
OverallDifficulty:1
SliderMultiplier:1.1
SliderTickRate:1

[Events]
//Background and Video events
//Break Periods
//Storyboard Layer 0 (Background)
//Storyboard Layer 1 (Fail)
//Storyboard Layer 2 (Pass)
//Storyboard Layer 3 (Foreground)
//Storyboard Sound Samples
//Background Colour Transformations
3,100,163,162,255

[TimingPoints]
10,1000,4,1,0,100,1,0

[HitObjects]
256,192,6625,5,0
256,192,6750,1,0
256,192,10625,1,0
416,288,11125,1,0
384,64,11625,1,0
256,192,12250,1,0
256,192,17125,1,0
384,288,17750,1,0
352,192,18125,1,0
128,192,19125,1,0
160,96,19750,1,0
384,288,20375,1,0
384,160,20625,1,0
288,192,21000,1,0
256,192,22375,1,0
416,64,23125,1,0
224,64,23500,1,0
224,256,23875,1,0
128,192,24500,1,0
448,96,25625,1,0
320,128,27875,5,0
416,64,28375,1,0
384,256,28750,1,0
160,256,29750,1,0
160,128,30125,1,0
448,96,31500,1,0
384,256,32125,1,0
192,128,32750,1,0
192,288,33125,1,0
448,96,34250,1,0
384,288,35125,1,0
256,128,35375,1,0
160,256,35750,1,0
128,64,36250,1,0
416,128,37500,1,0
320,288,38375,1,0
160,128,39000,1,0
320,128,39875,1,0
160,288,41125,1,0
416,288,41625,1,0
320,64,42250,1,0
128,96,43000,1,0
160,288,43750,1,0
384,160,44375,1,0
256,192,45125,1,0
352,64,46375,5,0
96,224,47500,1,0
384,256,48125,1,0
448,64,49000,1,0
256,64,49375,1,0
192,192,49625,1,0
416,192,50000,1,0
224,320,51000,1,0
416,64,51375,1,0
64,128,52375,1,0
384,224,54125,1,0
192,160,55625,1,0
352,192,57000,1,0
160,288,58375,1,0
352,192,58750,1,0
384,320,59500,1,0
416,128,60875,1,0
96,224,62125,1,0
352,288,63625,1,0
224,128,64750,1,0
416,32,66250,1,0
192,224,67625,1,0
448,320,68875,1,0
384,192,69375,1,0
128,192,70000,1,0
384,96,71500,1,0
160,256,72625,1,0
288,192,74500,1,0
288,192,74625,1,0
288,192,74750,1,0
288,192,75125,1,0
288,128,75500,1,0
256,192,80875,5,0
256,192,81000,1,0
256,192,84750,1,0
416,320,85500,1,0
416,96,86000,1,0
256,192,87125,1,0
256,192,89875,1,0
448,64,91500,1,0
160,192,92500,1,0
448,256,93875,1,0
416,64,94875,1,0
384,128,95250,1,0
288,128,96750,1,0
224,224,97375,1,0
448,256,98750,1,0
416,128,99375,1,0
256,224,99875,1,0
96,128,102000,1,0
384,128,103125,1,0
256,192,104375,1,0
96,288,105500,1,0
224,288,105875,1,0
256,96,106875,1,0
256,192,107375,1,0
384,96,108375,1,0
256,192,109500,1,0
192,288,109750,1,0
352,256,110000,1,0
384,64,110625,1,0
224,192,111500,1,0
384,288,112125,1,0
384,96,112875,5,0
256,224,113375,1,0
96,96,114000,1,0
416,256,114750,1,0
352,96,115250,1,0
224,224,115750,1,0
384,224,116500,1,0
288,96,117125,1,0
192,224,117750,1,0
416,288,118625,1,0
384,128,119375,1,0
256,192,120000,6,0,B|192:192|192:160,1,96.25
224,192,123500,1,0
352,96,124000,1,0
384,288,124375,1,0
256,192,125125,1,0
384,96,125750,1,0
352,256,126375,1,0
256,192,127250,1,0
160,96,128375,1,0
96,288,129000,1,0
256,192,129750,1,0
384,96,130000,1,0
384,288,130500,1,0
256,192,131625,1,0
320,96,132500,1,0
256,192,133375,1,0
384,320,133750,1,0
256,192,134875,1,0
64,192,136125,1,0
96,192,136375,1,0
256,192,137875,1,0
256,96,138375,1,0
320,192,139000,1,0
256,192,139625,1,0
256,256,140250,1,0
192,256,140625,1,0
192,192,141125,1,0
256,192,141500,1,0
320,192,143125,1,0
416,256,144250,1,0
288,288,145000,1,0
256,288,145500,1,0
128,256,146250,1,0
256,192,147125,12,0,149625
