osu file format v14

[General]
AudioFilename: 296234_Awake___Supernova.mp3
AudioLeadIn: 0
PreviewTime: 40205
Countdown: 0
SampleSet: Soft
StackLeniency: 0.7
Mode: 2
LetterboxInBreaks: 0
WidescreenStoryboard: 1

[Editor]
Bookmarks: 150415
DistanceSpacing: 0.8
BeatDivisor: 4
GridSize: 8
TimelineZoom: 1

[Metadata]
Title:Supernova
TitleUnicode:Supernova
Artist:Awake
ArtistUnicode:Awake
Creator:Razorflamekun
Version:Salad
Source:Newgrounds
Tags:audio portal Kite Rawrthaas Z3nx Remillion Cross _Gezo_ Magic Bomb Blocko iJinJin rew0825
BeatmapID:616923
BeatmapSetID:261327

[Difficulty]
HPDrainRate:5.5
CircleSize:3.7
OverallDifficulty:7.5
ApproachRate:7.5
SliderMultiplier:1.4
SliderTickRate:1

[Events]
//Background and Video events
0,0,"Advent_SuperNova_Wallpaper_by_jbeave.jpg",0,0
//Break Periods
//Storyboard Layer 0 (Background)
//Storyboard Layer 1 (Fail)
//Storyboard Layer 2 (Pass)
//Storyboard Layer 3 (Foreground)
//Storyboard Sound Samples

[TimingPoints]
100,315.789473684211,4,2,0,45,1,0
19047,-100,4,2,0,70,0,0
20310,-100,4,1,1,70,0,0
36731,-100,4,1,1,75,0,0
39257,-100,4,1,1,80,0,0
40521,-100,4,1,1,70,0,1
60731,-100,4,1,0,70,0,0
61047,-100,4,1,1,70,0,0
77152,-100,4,1,1,60,0,0
78415,-100,4,1,1,70,0,0
79678,-100,4,1,1,80,0,0
80626,-100,4,1,1,95,0,0
80942,-100,4,1,1,80,0,0
82205,-100,4,1,0,80,0,0
82836,-100,4,1,1,80,0,0
92310,-100,4,1,1,60,0,0
93573,-100,4,1,1,80,0,1
108731,-100,4,1,1,45,0,1
113784,-100,4,1,1,80,0,1
133994,-100,4,2,1,80,0,0

[HitObjects]
96,88,100,5,4,0:0:0:0:
304,192,415,1,8,0:0:0:0:
136,312,731,1,0,0:0:0:0:
248,120,1047,1,8,0:0:0:0:
160,288,1363,2,8,B|328:240|264:336,1,140,0|8,0:0|0:0,0:0:0:0:
168,88,1994,5,0,0:0:0:0:
232,176,2152,1,0,0:0:0:0:
288,240,2310,1,8,0:0:0:0:
64,152,2626,2,0,P|160:152|168:216,1,140,0|8,0:0|0:0,0:0:0:0:
352,240,3257,1,0,0:0:0:0:
232,208,3573,1,8,0:0:0:0:
120,256,3889,5,0,0:0:0:0:
392,96,4205,1,8,0:0:0:0:
320,88,4363,1,0,0:0:0:0:
256,80,4521,1,0,0:0:0:0:
176,72,4678,1,8,0:0:0:0:
88,96,4836,1,8,0:0:0:0:
256,192,5152,12,0,9889,0:0:0:0:
336,56,10205,6,0,B|488:80|360:168,1,140,4|8,0:0|0:0,0:0:0:0:
216,128,10836,1,0,0:0:0:0:
104,176,11152,2,0,B|288:176|360:64|376:352,1,420,8|0,0:0|0:0,0:0:0:0:
176,336,12415,1,8,0:0:0:0:
400,80,12731,5,0,0:0:0:0:
192,112,13047,1,8,0:0:0:0:
264,240,13363,1,0,0:0:0:0:
408,184,13678,1,8,0:0:0:0:
496,336,13994,5,0,0:0:0:0:
248,168,14310,1,8,0:0:0:0:
72,304,14626,1,0,0:0:0:0:
304,264,14942,1,8,0:0:0:0:
160,128,15257,2,0,P|256:128|256:72,1,140,4|8,0:0|0:0,0:0:0:0:
16,200,15889,2,0,B|192:184|128:112|176:88|56:24,2,280,0|0|0,0:0|0:0|0:0,0:0:0:0:
200,56,17468,1,8,0:0:0:0:
120,256,17784,5,8,0:0:0:0:
336,296,18100,1,8,0:0:0:0:
400,104,18415,1,0,0:0:0:0:
208,32,18731,1,8,0:0:0:0:
128,112,19047,5,0,0:0:0:0:
56,176,19205,1,0,0:0:0:0:
96,296,19363,1,8,0:0:0:0:
224,224,19521,1,0,0:0:0:0:
208,112,19678,1,0,0:0:0:0:
344,176,19836,1,8,0:0:0:0:
432,88,19994,1,12,0:0:0:0:
464,200,20310,5,4,0:0:0:0:
264,48,20626,1,8,0:0:0:0:
288,256,20942,2,0,P|336:288|416:312,1,140,0|8,0:0|0:0,0:0:0:0:
256,152,21573,1,0,0:0:0:0:
48,256,21889,1,8,0:0:0:0:
344,136,22205,2,0,P|336:208|256:184,1,140,0|8,0:0|0:0,0:0:0:0:
472,224,22836,1,0,0:0:0:0:
280,160,23152,1,8,0:0:0:0:
360,344,23468,2,0,P|440:344|440:384,1,140,0|8,0:0|0:0,0:0:0:0:
168,288,24100,5,0,0:0:0:0:
64,120,24415,1,8,0:0:0:0:
168,64,24573,1,0,0:0:0:0:
320,64,24889,1,0,0:0:0:0:
376,184,25047,2,0,B|472:168|456:96|488:104,1,140,8|4,0:0|0:0,0:0:0:0:
264,32,25678,5,8,0:0:0:0:
48,192,25994,1,0,0:0:0:0:
152,240,26152,1,0,0:0:0:0:
272,248,26310,1,8,0:0:0:0:
48,208,26626,2,0,P|152:232|160:264,1,140,0|8,0:0|0:0,0:0:0:0:
440,288,27257,1,0,0:0:0:0:
400,168,27415,1,0,0:0:0:0:
288,104,27573,1,8,0:0:0:0:
72,224,27889,6,0,P|144:304|96:352,1,140,0|8,0:0|0:0,0:0:0:0:
184,144,28521,1,0,0:0:0:0:
280,288,28678,1,0,0:0:0:0:
376,200,28836,1,8,0:0:0:0:
384,72,29152,5,0,0:0:0:0:
200,48,29468,1,8,0:0:0:0:
152,104,29626,1,0,0:0:0:0:
96,296,29942,1,0,0:0:0:0:
168,344,30100,2,0,P|264:368|256:408,1,140,8|4,0:0|0:0,0:0:0:0:
312,288,30731,5,8,0:0:0:0:
160,240,31047,2,0,L|264:264,2,70,0|0|8,0:0|0:0|0:0,0:0:0:0:
80,96,31678,2,0,P|72:184|160:184,1,140,0|8,0:0|0:0,0:0:0:0:
256,144,32310,2,0,L|352:152,2,70,0|0|8,0:0|0:0|0:0,0:0:0:0:
96,240,32942,2,0,P|200:288|208:256,1,140,0|8,0:0|0:0,0:0:0:0:
360,288,33573,2,0,L|400:200,2,70,0|0|8,0:0|0:0|0:0,0:0:0:0:
400,96,34205,5,0,0:0:0:0:
256,64,34521,1,8,0:0:0:0:
136,112,34678,1,0,0:0:0:0:
224,248,34994,1,0,0:0:0:0:
168,176,35152,1,8,0:0:0:0:
24,200,35468,5,0,0:0:0:0:
264,280,35784,1,8,0:0:0:0:
144,320,36100,2,0,B|256:336|288:264|192:96,2,280,0|0|0,0:0|0:0|0:0,0:0:0:0:
48,200,37678,1,8,0:0:0:0:
248,48,37994,1,0,0:0:0:0:
344,176,38310,1,8,0:0:0:0:
248,304,38626,1,0,0:0:0:0:
120,288,38942,1,8,0:0:0:0:
88,88,39257,5,4,0:0:0:0:
120,192,39415,1,0,0:0:0:0:
248,160,39573,1,8,0:0:0:0:
312,248,39731,1,0,0:0:0:0:
320,80,39889,1,12,0:0:0:0:
288,80,40205,5,8,0:0:0:0:
128,152,40363,1,8,0:0:0:0:
216,264,40521,2,0,P|376:200|296:136,1,350,4|0,0:0|0:0,0:0:0:0:
208,112,41468,1,8,0:0:0:0:
88,272,41626,2,0,P|256:304|312:192,1,280
128,88,42573,5,0,0:0:0:0:
24,176,42731,1,8,0:0:0:0:
64,312,42889,1,0,0:0:0:0:
208,256,43047,2,0,P|464:144|456:48,1,420,0|8,0:0|0:0,0:0:0:0:
304,120,44152,1,0,0:0:0:0:
288,264,44310,2,0,B|224:168|184:184|136:288,1,210
424,56,45257,5,8,0:0:0:0:
336,144,45415,1,8,0:0:0:0:
240,192,45573,2,0,P|328:256|344:240,1,140,0|8,0:0|0:0,0:0:0:0:
184,128,46205,1,0,0:0:0:0:
312,64,46363,1,0,0:0:0:0:
400,168,46521,1,8,0:0:0:0:
400,328,46678,6,0,P|360:248|320:272,1,140
200,304,47152,1,8,0:0:0:0:
304,248,47310,2,0,P|224:208|224:144,1,140
88,272,47784,1,8,0:0:0:0:
208,264,47942,1,0,0:0:0:0:
112,184,48100,2,0,P|200:160|304:232,1,210
360,136,48889,1,0,0:0:0:0:
400,264,49047,1,8,0:0:0:0:
280,336,49205,1,0,0:0:0:0:
160,192,49363,5,0,0:0:0:0:
128,296,49678,1,8,0:0:0:0:
248,344,49836,1,0,0:0:0:0:
448,320,50152,1,0,0:0:0:0:
432,232,50310,5,8,0:0:0:0:
416,160,50468,1,8,0:0:0:0:
328,96,50626,2,0,P|256:96|208:176,2,140,0|8|0,0:0|0:0|0:0,0:0:0:0:
192,248,51415,1,0,0:0:0:0:
81,241,51573,1,8,0:0:0:0:
56,144,51731,2,0,P|150:136|217:219,1,210,0|8,0:0|0:0,0:0:0:0:
346,179,52363,2,0,P|410:235|346:267,1,140
410,102,52836,1,8,0:0:0:0:
312,104,53152,6,0,B|191:148|137:113|64:213|328:338,1,420,0|8,0:0|0:0,0:0:0:0:
433,224,54257,1,0,0:0:0:0:
293,312,54415,2,0,P|298:228|242:192,1,140,0|8,0:0|0:0,0:0:0:0:
399,112,54889,2,0,B|287:105|248:34|147:104,1,210,0|8,0:0|0:0,0:0:0:0:
160,192,55521,1,8,0:0:0:0:
267,88,55678,6,0,P|261:173|203:130,1,140,0|8,0:0|0:0,0:0:0:0:
189,280,56310,1,0,0:0:0:0:
225,326,56468,1,0,0:0:0:0:
304,240,56626,1,8,0:0:0:0:
121,123,56784,6,0,P|205:124|212:198,1,140
352,240,57257,1,8,0:0:0:0:
317,92,57415,2,0,P|350:157|291:163,1,140
189,198,57889,1,8,0:0:0:0:
168,96,58205,6,0,P|248:96|296:128,1,140,0|8,0:0|0:0,0:0:0:0:
392,110,58678,2,0,P|442:188|293:266,1,280
237,120,59468,1,8,0:0:0:0:
118,182,59626,1,0,0:0:0:0:
234,119,59784,1,8,0:0:0:0:
118,184,59942,1,0,0:0:0:0:
225,272,60100,2,0,P|292:230|278:162,1,140,0|8,0:0|0:0,0:0:0:0:
318,51,60573,1,0,0:0:0:0:
152,96,60731,5,4,0:0:0:0:
256,104,61047,2,0,L|352:160,2,70,8|0|0,0:0|0:0|0:0,0:0:0:0:
144,223,61678,1,8,0:0:0:0:
92,106,61994,2,0,P|188:143|161:175,1,140,0|8,0:0|0:0,0:0:0:0:
328,148,62468,1,0,0:0:0:0:
328,240,62784,1,0,0:0:0:0:
202,307,62942,1,8,0:0:0:0:
210,155,63257,5,0,0:0:0:0:
129,255,63415,1,0,0:0:0:0:
41,151,63573,1,8,0:0:0:0:
196,42,63889,1,0,0:0:0:0:
346,51,64205,1,8,0:0:0:0:
339,150,64521,6,8,P|297:233|249:186,1,140
443,190,64994,1,0,0:0:0:0:
218,149,65310,1,0,0:0:0:0:
359,273,65468,2,8,P|411:335|359:379,1,140
212,245,65942,1,0,0:0:0:0:
240,336,66100,5,8,0:0:0:0:
368,336,66257,1,0,0:0:0:0:
304,224,66415,1,0,0:0:0:0:
160,208,66573,1,0,0:0:0:0:
96,128,66731,2,0,L|232:120,2,70,8|0|0,0:0|0:0|0:0,0:0:0:0:
168,32,67363,1,8,0:0:0:0:
264,48,67521,1,0,0:0:0:0:
440,144,67836,1,0,0:0:0:0:
368,208,67994,1,8,0:0:0:0:
232,288,68310,6,0,P|160:320|128:264,1,140,0|8,0:0|0:0,0:0:0:0:
160,192,68784,1,0,0:0:0:0:
360,144,69100,1,0,0:0:0:0:
272,96,69257,2,0,P|176:96|152:136,1,140,8|0,0:0|0:0,0:0:0:0:
64,264,69731,1,0,0:0:0:0:
328,248,70047,1,0,0:0:0:0:
432,160,70205,2,0,P|320:144|280:176,1,140,0|8,0:0|0:0,0:0:0:0:
240,296,70836,5,4,0:0:0:0:
312,96,71152,1,8,0:0:0:0:
288,200,71310,1,0,0:0:0:0:
136,264,71468,1,0,0:0:0:0:
40,200,71626,1,0,0:0:0:0:
104,112,71784,2,8,L|192:104,2,70,8|8|0,0:0|0:0|0:0,0:0:0:0:
320,248,72415,1,8,0:0:0:0:
160,192,72573,1,0,0:0:0:0:
320,248,72889,1,0,0:0:0:0:
160,192,73047,1,8,0:0:0:0:
120,80,73363,6,0,B|312:104|328:200|64:320,1,420,0|8,0:0|0:0,0:0:0:0:
352,216,74626,1,0,0:0:0:0:
400,80,74942,1,8,0:0:0:0:
264,128,75100,1,0,0:0:0:0:
104,232,75415,1,0,0:0:0:0:
240,304,75573,1,8,0:0:0:0:
296,56,75889,5,8,0:0:0:0:
192,64,76047,1,0,0:0:0:0:
80,104,76205,1,8,0:0:0:0:
24,160,76363,1,0,0:0:0:0:
56,232,76521,1,8,0:0:0:0:
176,208,76678,1,0,0:0:0:0:
272,160,76836,1,8,0:0:0:0:
296,56,76994,1,0,0:0:0:0:
416,112,77152,6,8,P|408:192|336:192,1,140
208,288,77626,1,0,0:0:0:0:
360,200,77942,1,0,0:0:0:0:
272,136,78100,1,8,0:0:0:0:
168,104,78415,6,0,P|104:176|120:240,1,140,4|8,0:0|0:0,0:0:0:0:
96,328,78889,1,0,0:0:0:0:
224,344,79047,1,8,0:0:0:0:
336,280,79205,1,0,0:0:0:0:
336,120,79678,6,4,P|232:192|200:168,1,140,4|8,0:0|0:0,0:0:0:0:
144,112,80152,1,4,0:0:0:0:
40,192,80310,1,8,0:0:0:0:
152,280,80468,1,0,0:0:0:0:
264,352,80626,2,8,L|352:352,1,70
360,200,80942,6,4,P|240:200|208:240,1,140,4|8,0:0|0:0,0:0:0:0:
208,360,81415,1,4,0:0:0:0:
88,304,81573,1,0,0:0:0:0:
144,176,81731,1,0,0:0:0:0:
480,264,82205,5,12,0:0:0:0:
408,312,82363,1,0,0:0:0:0:
304,96,82678,1,0,0:0:0:0:
216,152,82836,1,8,0:0:0:0:
104,232,83152,2,8,L|136:296,1,70
256,192,83468,12,0,88205,0:0:0:0:
48,56,88521,5,0,0:0:0:0:
216,224,88836,1,8,0:0:0:0:
312,368,89152,1,0,0:0:0:0:
456,208,89468,1,8,0:0:0:0:
384,40,89784,1,0,0:0:0:0:
152,40,90100,1,8,0:0:0:0:
64,216,90415,1,0,0:0:0:0:
320,184,90731,1,8,0:0:0:0:
248,96,91047,5,0,0:0:0:0:
96,120,91205,1,0,0:0:0:0:
128,240,91363,1,8,0:0:0:0:
240,304,91521,1,0,0:0:0:0:
280,184,91678,1,0,0:0:0:0:
248,104,91836,1,0,0:0:0:0:
152,176,91994,1,8,0:0:0:0:
112,288,92152,1,0,0:0:0:0:
248,344,92310,5,4,0:0:0:0:
304,168,92468,1,8,0:0:0:0:
376,304,92626,1,8,0:0:0:0:
440,192,92784,1,8,0:0:0:0:
336,96,92942,1,12,0:0:0:0:
168,128,93257,1,8,0:0:0:0:
48,208,93573,5,4,0:0:0:0:
128,304,93731,1,0,0:0:0:0:
240,200,93889,1,8,0:0:0:0:
400,40,94205,2,0,L|488:40,1,70
408,184,94521,1,8,0:0:0:0:
176,72,94836,5,0,0:0:0:0:
64,152,94994,1,0,0:0:0:0:
176,72,95152,1,8,0:0:0:0:
192,264,95468,2,0,L|280:264,1,70
128,280,95784,1,8,0:0:0:0:
312,104,96100,5,0,0:0:0:0:
440,200,96257,1,0,0:0:0:0:
368,288,96415,1,8,0:0:0:0:
160,128,96731,2,0,L|280:128,1,70
136,248,97047,1,8,0:0:0:0:
96,88,97363,6,0,L|184:88,1,70
48,184,97678,1,8,0:0:0:0:
96,312,97836,1,0,0:0:0:0:
296,248,98152,1,0,0:0:0:0:
240,120,98310,1,8,0:0:0:0:
88,136,98626,5,0,0:0:0:0:
184,264,98784,1,0,0:0:0:0:
96,136,98942,1,8,0:0:0:0:
344,136,99257,2,0,L|464:168,2,70,8|0|8,0:0|0:0|0:0,0:0:0:0:
200,352,99889,5,0,0:0:0:0:
72,224,100047,1,0,0:0:0:0:
200,352,100205,1,8,0:0:0:0:
224,88,100521,2,0,L|304:88,2,70,8|0|8,0:0|0:0|0:0,0:0:0:0:
408,232,101152,5,0,0:0:0:0:
288,312,101310,1,0,0:0:0:0:
408,232,101468,1,8,0:0:0:0:
160,64,101784,2,0,L|264:64,2,70,8|0|8,0:0|0:0|0:0,0:0:0:0:
80,208,102415,5,0,0:0:0:0:
192,312,102573,1,0,0:0:0:0:
216,152,102731,1,8,0:0:0:0:
80,208,102889,1,0,0:0:0:0:
192,312,103205,1,0,0:0:0:0:
224,152,103363,1,8,0:0:0:0:
392,168,103678,5,0,0:0:0:0:
336,48,103836,1,0,0:0:0:0:
216,40,103994,1,8,0:0:0:0:
80,96,104310,2,0,P|32:168|96:224,1,140,0|8,0:0|0:0,0:0:0:0:
216,320,104942,5,0,0:0:0:0:
320,240,105100,1,0,0:0:0:0:
256,136,105257,1,8,0:0:0:0:
160,48,105573,2,0,P|88:96|72:168,1,140,0|8,0:0|0:0,0:0:0:0:
160,320,106205,5,0,0:0:0:0:
288,272,106363,1,0,0:0:0:0:
160,320,106521,1,8,0:0:0:0:
384,72,106836,2,0,P|312:80|256:128,1,140,0|8,0:0|0:0,0:0:0:0:
448,248,107468,5,0,0:0:0:0:
320,336,107626,1,0,0:0:0:0:
448,248,107784,1,8,0:0:0:0:
200,344,108100,2,0,P|296:288|296:240,1,140,0|8,0:0|0:0,0:0:0:0:
232,224,108731,5,4,0:0:0:0:
208,152,108889,1,0,0:0:0:0:
160,80,109047,1,8,0:0:0:0:
80,96,109205,1,0,0:0:0:0:
40,176,109363,1,0,0:0:0:0:
64,248,109521,1,0,0:0:0:0:
152,296,109678,1,8,0:0:0:0:
232,248,109836,1,0,0:0:0:0:
304,168,109994,5,0,0:0:0:0:
312,72,110152,1,0,0:0:0:0:
376,120,110310,1,8,0:0:0:0:
424,184,110468,1,0,0:0:0:0:
416,304,110626,1,0,0:0:0:0:
408,192,110784,1,0,0:0:0:0:
296,224,110942,1,8,0:0:0:0:
376,120,111100,1,0,0:0:0:0:
256,160,111257,5,4,0:0:0:0:
152,128,111415,1,0,0:0:0:0:
112,208,111573,1,8,0:0:0:0:
192,224,111731,1,0,0:0:0:0:
240,296,111889,1,0,0:0:0:0:
136,272,112047,1,0,0:0:0:0:
64,216,112205,1,8,0:0:0:0:
112,120,112363,1,0,0:0:0:0:
184,56,112521,5,0,0:0:0:0:
280,48,112678,1,0,0:0:0:0:
248,128,112836,1,8,0:0:0:0:
328,160,112994,1,0,0:0:0:0:
400,192,113152,1,0,0:0:0:0:
368,272,113310,1,0,0:0:0:0:
328,352,113468,5,0,0:0:0:0:
256,272,113626,1,0,0:0:0:0:
168,216,113784,1,4,0:0:0:0:
192,104,113942,1,0,0:0:0:0:
304,104,114100,2,8,P|248:160|304:224,1,140
208,288,114573,5,0,0:0:0:0:
304,224,114731,1,8,0:0:0:0:
360,144,114889,2,0,L|456:144,1,70
384,240,115363,1,8,0:0:0:0:
232,160,115521,2,0,P|152:224|208:264,1,140
304,232,115994,1,8,0:0:0:0:
240,112,116310,6,0,P|448:176|352:248,1,420,0|8,0:0|0:0,0:0:0:0:
256,328,117573,1,0,0:0:0:0:
80,112,117889,1,8,0:0:0:0:
192,72,118047,2,0,P|328:88|336:128,1,140
360,144,118521,5,8,0:0:0:0:
264,192,118678,1,0,0:0:0:0:
136,240,118836,2,0,P|224:192|176:136,2,140,0|8|0,0:0|0:0|0:0,0:0:0:0:
80,152,119626,1,0,0:0:0:0:
144,64,119784,1,8,0:0:0:0:
128,168,119942,2,0,P|56:224|-16:184,1,140
104,304,120415,1,8,0:0:0:0:
208,256,120573,2,0,P|296:320|264:360,1,140
208,256,121047,1,8,0:0:0:0:
80,88,121363,6,0,P|152:120|120:160,1,140,0|8,0:0|0:0,0:0:0:0:
72,280,121836,2,0,P|168:320|224:272,1,140
304,256,122310,1,8,0:0:0:0:
240,168,122468,1,0,0:0:0:0:
152,144,122626,2,0,P|240:168|224:192,1,140,0|8,0:0|0:0,0:0:0:0:
128,224,123100,1,0,0:0:0:0:
376,312,123415,1,0,0:0:0:0:
352,224,123573,1,8,0:0:0:0:
304,112,123731,1,0,0:0:0:0:
392,80,123889,6,0,P|376:160|120:168,1,350
176,104,124836,1,8,0:0:0:0:
288,72,124994,2,0,P|160:96|152:168,1,210,0|8,0:0|0:0,0:0:0:0:
40,240,125626,1,0,0:0:0:0:
208,320,125942,1,0,0:0:0:0:
320,256,126100,1,8,0:0:0:0:
232,104,126415,6,0,P|160:160|200:200,1,140,0|8,0:0|0:0,0:0:0:0:
312,56,126889,1,0,0:0:0:0:
184,128,127047,2,0,P|128:208|184:240,1,140,0|8,0:0|0:0,0:0:0:0:
352,184,127678,1,0,0:0:0:0:
120,264,127994,1,8,0:0:0:0:
280,320,128152,2,0,P|176:256|120:304,1,210,0|8,0:0|0:0,0:0:0:0:
72,192,128784,1,0,0:0:0:0:
184,64,128942,6,0,P|296:96|320:256,1,280
176,64,129731,2,0,P|136:128|8:128,1,210
144,304,130363,1,0,0:0:0:0:
344,208,130678,1,0,0:0:0:0:
216,48,130994,1,0,0:0:0:0:
64,136,131152,1,8,0:0:0:0:
304,144,131468,5,4,0:0:0:0:
424,208,131678,1,4,0:0:0:0:
304,312,131889,1,4,0:0:0:0:
168,200,132100,1,4,0:0:0:0:
304,144,132310,1,4,0:0:0:0:
424,208,132521,1,4,0:0:0:0:
304,312,132731,5,0,0:0:0:0:
208,272,132889,1,0,0:0:0:0:
120,232,133047,1,8,0:0:0:0:
40,232,133205,1,0,0:0:0:0:
32,168,133284,5,0,0:0:0:0:
80,144,133363,1,0,0:0:0:0:
128,128,133442,1,0,0:0:0:0:
176,120,133521,1,0,0:0:0:0:
216,104,133600,1,0,0:0:0:0:
248,96,133678,1,8,0:0:0:0:
280,64,133757,1,0,0:0:0:0:
232,32,133836,1,0,0:0:0:0:
192,32,133915,1,0,0:0:0:0:
128,48,133994,6,0,P|88:136|256:232,1,280,4|0,0:0|0:0,0:0:0:0:
64,136,134784,1,0,0:0:0:0:
168,184,134942,1,0,0:0:0:0:
240,88,135100,2,0,P|312:144|232:240,1,210
168,96,135731,1,0,0:0:0:0:
256,144,135889,5,0,0:0:0:0:
112,56,136047,2,0,P|0:112|-40:80,1,140
176,128,136521,2,0,P|432:80|384:208,1,490
256,88,137784,2,0,P|184:136|264:200,1,210
352,240,138415,1,0,0:0:0:0:
216,48,138731,5,0,0:0:0:0:
80,72,138889,1,0,0:0:0:0:
64,208,139047,2,0,P|184:256|360:224,1,280
320,152,139836,1,0,0:0:0:0:
208,128,140152,1,0,0:0:0:0:
368,208,140468,1,0,0:0:0:0:
208,328,140784,1,0,0:0:0:0:
96,136,141100,1,0,0:0:0:0:
320,104,141573,6,0,P|440:144|456:112,1,140
240,56,142047,2,0,P|160:120|152:304,1,280
232,224,142836,5,0,0:0:0:0:
96,80,143152,1,0,0:0:0:0:
336,136,143468,1,0,0:0:0:0:
128,232,143784,1,0,0:0:0:0:
256,192,144100,12,0,150415,0:0:0:0:
