osu file format v14

[General]
AudioFilename: 296234_Awake___Supernova.mp3
AudioLeadIn: 0
PreviewTime: 40205
Countdown: 0
SampleSet: Normal
StackLeniency: 0.7
Mode: 1
LetterboxInBreaks: 0
WidescreenStoryboard: 1

[Editor]
Bookmarks: 100,10205,20310,40521,60731,83468,93573,113468,133994,150415
DistanceSpacing: 0.8
BeatDivisor: 4
GridSize: 32
TimelineZoom: 2

[Metadata]
Title:Supernova
TitleUnicode:Supernova
Artist:Awake
ArtistUnicode:Awake
Creator:Razorflamekun
Version:Inner Oni
Source:Newgrounds
Tags:audio portal Kite Rawrthaas Z3nx Remillion Cross _Gezo_ Magic Bomb Blocko iJinJin rew0825
BeatmapID:626227
BeatmapSetID:261327

[Difficulty]
HPDrainRate:7
CircleSize:4.5
OverallDifficulty:8
ApproachRate:10
SliderMultiplier:1.4
SliderTickRate:1

[Events]
//Background and Video events
0,0,"bg_rfk.png",0,0
//Break Periods
//Storyboard Layer 0 (Background)
//Storyboard Layer 1 (Fail)
//Storyboard Layer 2 (Pass)
//Storyboard Layer 3 (Foreground)
//Storyboard Sound Samples

[TimingPoints]
100,315.789473684211,4,1,0,100,1,0
20310,-90.9090909090909,4,1,0,100,0,0
40521,-83.3333333333333,4,1,0,100,0,1
60731,-90.9090909090909,4,1,0,100,0,0
83468,-100,4,1,0,100,0,0
92310,-100,4,1,0,100,0,0
93573,-90.9090909090909,4,1,0,100,0,1
98626,-83.3333333333333,4,1,0,100,0,1
103678,-76.9230769230769,4,1,0,100,0,1
108731,-71.4285714285714,4,1,0,100,0,1
113468,-66.6666666666667,4,1,0,100,0,1
130205,-71.4285714285714,4,1,0,100,0,1
131468,-76.9230769230769,4,1,0,100,0,1
132731,-86.9565217391304,4,1,0,100,0,1
133205,-95.2380952380952,4,1,0,100,0,1
133994,-100,4,1,0,100,0,0

[HitObjects]
256,192,100,5,12,0:0:0:0:
320,192,257,1,0,0:0:0:0:
320,192,415,1,8,0:0:0:0:
320,192,573,1,0,0:0:0:0:
288,192,626,1,0,0:0:0:0:
288,192,678,1,0,0:0:0:0:
320,192,731,1,0,0:0:0:0:
288,192,784,1,0,0:0:0:0:
288,192,836,1,0,0:0:0:0:
320,192,889,1,0,0:0:0:0:
288,192,942,1,0,0:0:0:0:
288,192,994,1,0,0:0:0:0:
320,192,1047,1,0,0:0:0:0:
320,192,1205,1,8,0:0:0:0:
320,192,1363,1,0,0:0:0:0:
320,192,1521,1,8,0:0:0:0:
288,192,1600,1,0,0:0:0:0:
320,192,1678,1,0,0:0:0:0:
320,192,1731,1,0,0:0:0:0:
320,192,1784,1,0,0:0:0:0:
320,192,1836,1,0,0:0:0:0:
320,192,1994,1,8,0:0:0:0:
320,192,2073,1,0,0:0:0:0:
320,192,2152,1,8,0:0:0:0:
320,192,2231,1,0,0:0:0:0:
320,192,2310,1,0,0:0:0:0:
352,224,2363,1,0,0:0:0:0:
320,224,2415,1,0,0:0:0:0:
320,224,2468,1,0,0:0:0:0:
320,224,2521,1,0,0:0:0:0:
320,224,2573,1,0,0:0:0:0:
320,192,2626,1,0,0:0:0:0:
320,192,2784,1,8,0:0:0:0:
320,192,2942,1,0,0:0:0:0:
320,192,3100,1,8,0:0:0:0:
320,192,3257,1,8,0:0:0:0:
256,192,3336,1,0,0:0:0:0:
256,192,3415,1,0,0:0:0:0:
288,192,3468,1,0,0:0:0:0:
256,192,3521,1,0,0:0:0:0:
256,192,3573,1,0,0:0:0:0:
256,192,3731,1,8,0:0:0:0:
256,192,3810,1,0,0:0:0:0:
256,192,3889,1,8,0:0:0:0:
256,192,4047,1,8,0:0:0:0:
288,192,4126,1,0,0:0:0:0:
256,192,4205,1,8,0:0:0:0:
256,192,4363,1,8,0:0:0:0:
256,192,4442,1,0,0:0:0:0:
256,192,4521,1,8,0:0:0:0:
256,192,4600,1,8,0:0:0:0:
256,192,4678,1,0,0:0:0:0:
256,192,4757,1,8,0:0:0:0:
256,192,4836,1,8,0:0:0:0:
256,192,4915,1,0,0:0:0:0:
256,192,4994,1,8,0:0:0:0:
224,192,5152,1,12,0:0:0:0:
320,256,5310,1,0,0:0:0:0:
128,192,5468,1,8,0:0:0:0:
224,192,5626,1,8,0:0:0:0:
128,192,5784,1,8,0:0:0:0:
128,192,5942,1,0,0:0:0:0:
128,192,6100,1,8,0:0:0:0:
128,192,6257,1,0,0:0:0:0:
128,192,6415,1,8,0:0:0:0:
128,192,6573,1,8,0:0:0:0:
128,192,6731,1,8,0:0:0:0:
96,192,6810,1,0,0:0:0:0:
96,192,6889,1,8,0:0:0:0:
96,192,6968,1,8,0:0:0:0:
128,192,7047,1,8,0:0:0:0:
96,192,7126,1,0,0:0:0:0:
96,192,7205,1,8,0:0:0:0:
96,192,7284,1,8,0:0:0:0:
128,192,7363,1,8,0:0:0:0:
128,192,7442,1,0,0:0:0:0:
160,192,7521,1,8,0:0:0:0:
128,192,7600,1,8,0:0:0:0:
128,192,7678,1,8,0:0:0:0:
160,192,7757,1,0,0:0:0:0:
160,192,7836,1,8,0:0:0:0:
160,192,7915,1,8,0:0:0:0:
128,192,7994,1,8,0:0:0:0:
160,192,8073,1,0,0:0:0:0:
160,192,8152,1,8,0:0:0:0:
160,192,8231,1,0,0:0:0:0:
128,192,8310,1,8,0:0:0:0:
160,192,8389,1,0,0:0:0:0:
128,192,8468,1,8,0:0:0:0:
160,192,8547,1,8,0:0:0:0:
128,192,8626,1,8,0:0:0:0:
160,192,8705,1,0,0:0:0:0:
160,192,8784,1,8,0:0:0:0:
160,192,8863,1,0,0:0:0:0:
128,192,8942,1,8,0:0:0:0:
160,192,9021,1,0,0:0:0:0:
160,192,9100,1,8,0:0:0:0:
160,192,9178,1,8,0:0:0:0:
128,192,9257,1,8,0:0:0:0:
160,192,9336,1,0,0:0:0:0:
160,192,9415,1,8,0:0:0:0:
160,192,9494,1,0,0:0:0:0:
128,192,9573,1,8,0:0:0:0:
160,192,9652,1,0,0:0:0:0:
160,192,9731,1,8,0:0:0:0:
160,192,9810,1,8,0:0:0:0:
128,192,9889,1,8,0:0:0:0:
128,192,9968,1,0,0:0:0:0:
160,192,10047,1,8,0:0:0:0:
160,192,10126,1,0,0:0:0:0:
128,192,10205,1,8,0:0:0:0:
256,192,10363,1,0,0:0:0:0:
160,96,10521,1,8,0:0:0:0:
256,224,10678,1,0,0:0:0:0:
160,192,10836,1,8,0:0:0:0:
160,192,10994,1,8,0:0:0:0:
160,192,11152,1,8,0:0:0:0:
160,192,11310,1,0,0:0:0:0:
160,192,11468,1,8,0:0:0:0:
160,192,11626,1,0,0:0:0:0:
160,192,11784,1,8,0:0:0:0:
160,192,11942,1,0,0:0:0:0:
160,192,12100,1,8,0:0:0:0:
96,192,12257,1,8,0:0:0:0:
128,224,12415,1,8,0:0:0:0:
128,224,12573,1,8,0:0:0:0:
128,224,12731,1,8,0:0:0:0:
128,224,12889,1,0,0:0:0:0:
128,224,13047,1,8,0:0:0:0:
128,224,13205,1,0,0:0:0:0:
96,192,13363,1,8,0:0:0:0:
160,160,13521,1,8,0:0:0:0:
160,160,13678,1,8,0:0:0:0:
128,192,13836,1,0,0:0:0:0:
160,192,13994,1,8,0:0:0:0:
160,192,14152,1,0,0:0:0:0:
160,192,14310,1,8,0:0:0:0:
160,192,14468,1,0,0:0:0:0:
160,192,14626,1,8,0:0:0:0:
160,192,14784,1,8,0:0:0:0:
160,192,14942,1,8,0:0:0:0:
160,192,15100,1,8,0:0:0:0:
160,192,15257,1,12,0:0:0:0:
160,192,15415,1,0,0:0:0:0:
160,192,15573,1,8,0:0:0:0:
160,192,15731,1,0,0:0:0:0:
160,192,15889,1,8,0:0:0:0:
160,192,16047,1,8,0:0:0:0:
160,192,16205,1,8,0:0:0:0:
160,192,16363,1,0,0:0:0:0:
160,192,16521,1,8,0:0:0:0:
160,192,16678,1,0,0:0:0:0:
160,192,16836,1,8,0:0:0:0:
160,192,16994,1,8,0:0:0:0:
160,192,17152,1,8,0:0:0:0:
224,192,17310,1,8,0:0:0:0:
224,192,17468,1,8,0:0:0:0:
224,192,17626,1,0,0:0:0:0:
256,192,17784,1,4,0:0:0:0:
256,192,18100,1,12,0:0:0:0:
256,192,18415,1,4,0:0:0:0:
256,192,18731,1,12,0:0:0:0:
256,192,19047,1,4,0:0:0:0:
224,192,19205,1,12,0:0:0:0:
224,192,19363,1,4,0:0:0:0:
192,192,19521,1,8,0:0:0:0:
192,192,19600,1,0,0:0:0:0:
192,192,19678,1,8,0:0:0:0:
192,192,19757,1,0,0:0:0:0:
192,192,19836,1,8,0:0:0:0:
192,192,19915,1,8,0:0:0:0:
192,192,19994,1,8,0:0:0:0:
256,192,20310,1,12,0:0:0:0:
224,192,20468,1,8,0:0:0:0:
224,192,20547,1,0,0:0:0:0:
224,192,20626,1,8,0:0:0:0:
224,192,20784,1,8,0:0:0:0:
224,192,20863,1,0,0:0:0:0:
224,192,20942,1,8,0:0:0:0:
224,192,21021,1,0,0:0:0:0:
224,192,21100,1,8,0:0:0:0:
224,192,21257,1,8,0:0:0:0:
224,192,21336,1,8,0:0:0:0:
224,192,21415,1,0,0:0:0:0:
224,192,21494,1,8,0:0:0:0:
224,192,21573,1,0,0:0:0:0:
224,192,21652,1,8,0:0:0:0:
224,192,21731,1,8,0:0:0:0:
256,192,21889,1,8,0:0:0:0:
256,192,21968,1,0,0:0:0:0:
256,192,22047,1,8,0:0:0:0:
256,192,22126,1,8,0:0:0:0:
256,192,22205,1,8,0:0:0:0:
256,192,22284,1,0,0:0:0:0:
256,192,22363,1,8,0:0:0:0:
256,192,22521,1,8,0:0:0:0:
256,192,22600,1,0,0:0:0:0:
256,192,22678,1,8,0:0:0:0:
256,192,22757,1,0,0:0:0:0:
256,192,22836,1,8,0:0:0:0:
256,192,22915,1,0,0:0:0:0:
256,224,22994,1,8,0:0:0:0:
224,224,23152,1,8,0:0:0:0:
224,224,23231,1,8,0:0:0:0:
224,224,23310,1,8,0:0:0:0:
224,224,23389,1,0,0:0:0:0:
224,224,23468,1,8,0:0:0:0:
224,224,23547,1,8,0:0:0:0:
224,224,23626,1,8,0:0:0:0:
224,224,23784,1,8,0:0:0:0:
224,224,23863,1,0,0:0:0:0:
224,224,23942,1,8,0:0:0:0:
224,224,24021,1,8,0:0:0:0:
256,224,24100,1,8,0:0:0:0:
256,224,24415,1,12,0:0:0:0:
256,224,24573,1,8,0:0:0:0:
256,192,24652,1,0,0:0:0:0:
256,192,24731,1,0,0:0:0:0:
256,192,24810,1,0,0:0:0:0:
256,224,24889,1,8,0:0:0:0:
288,192,25047,1,0,0:0:0:0:
256,192,25100,1,0,0:0:0:0:
256,192,25152,1,0,0:0:0:0:
256,192,25205,1,0,0:0:0:0:
256,192,25257,1,0,0:0:0:0:
256,192,25310,1,0,0:0:0:0:
288,192,25363,1,0,0:0:0:0:
256,224,25521,1,8,0:0:0:0:
256,224,25600,1,0,0:0:0:0:
256,224,25678,1,8,0:0:0:0:
256,224,25836,1,8,0:0:0:0:
256,224,25915,1,8,0:0:0:0:
256,224,25994,1,0,0:0:0:0:
256,224,26073,1,8,0:0:0:0:
256,224,26152,1,8,0:0:0:0:
256,224,26310,1,8,0:0:0:0:
256,224,26389,1,0,0:0:0:0:
256,224,26468,1,8,0:0:0:0:
256,224,26547,1,8,0:0:0:0:
256,224,26626,1,8,0:0:0:0:
256,224,26705,1,0,0:0:0:0:
256,224,26784,1,8,0:0:0:0:
256,224,26942,1,8,0:0:0:0:
256,224,27021,1,8,0:0:0:0:
256,224,27100,1,0,0:0:0:0:
256,224,27178,1,0,0:0:0:0:
256,224,27257,1,8,0:0:0:0:
256,224,27336,1,8,0:0:0:0:
256,224,27415,1,0,0:0:0:0:
256,224,27573,1,8,0:0:0:0:
256,224,27652,1,8,0:0:0:0:
256,224,27731,1,8,0:0:0:0:
256,224,27810,1,0,0:0:0:0:
256,224,27889,1,8,0:0:0:0:
256,224,27968,1,0,0:0:0:0:
256,224,28047,1,8,0:0:0:0:
256,256,28205,1,8,0:0:0:0:
256,256,28284,1,8,0:0:0:0:
256,256,28363,1,0,0:0:0:0:
256,256,28442,1,8,0:0:0:0:
256,256,28521,1,8,0:0:0:0:
256,256,28600,1,8,0:0:0:0:
256,256,28678,1,0,0:0:0:0:
256,256,28757,1,8,0:0:0:0:
256,256,28836,1,8,0:0:0:0:
256,256,28915,1,8,0:0:0:0:
256,256,28994,1,0,0:0:0:0:
256,256,29073,1,8,0:0:0:0:
256,224,29152,1,8,0:0:0:0:
256,224,29468,1,12,0:0:0:0:
256,224,29626,1,8,0:0:0:0:
256,256,29705,1,0,0:0:0:0:
256,256,29784,1,0,0:0:0:0:
256,224,29863,1,0,0:0:0:0:
256,192,29942,1,8,0:0:0:0:
256,192,30100,1,0,0:0:0:0:
256,192,30152,1,0,0:0:0:0:
256,192,30205,1,0,0:0:0:0:
256,192,30257,1,0,0:0:0:0:
256,192,30310,1,0,0:0:0:0:
256,192,30363,1,0,0:0:0:0:
256,192,30415,1,0,0:0:0:0:
256,256,30573,1,8,0:0:0:0:
256,256,30652,1,0,0:0:0:0:
256,256,30731,1,8,0:0:0:0:
256,256,30889,1,8,0:0:0:0:
256,256,30968,1,8,0:0:0:0:
256,256,31047,1,8,0:0:0:0:
256,256,31126,1,0,0:0:0:0:
256,256,31205,1,8,0:0:0:0:
288,192,31363,1,8,0:0:0:0:
288,256,31442,1,8,0:0:0:0:
288,192,31521,1,8,0:0:0:0:
288,224,31600,1,0,0:0:0:0:
288,192,31678,1,8,0:0:0:0:
256,192,31757,1,0,0:0:0:0:
256,192,31836,1,8,0:0:0:0:
256,224,31915,1,8,0:0:0:0:
256,192,31994,1,8,0:0:0:0:
256,224,32152,1,8,0:0:0:0:
256,224,32231,1,0,0:0:0:0:
256,224,32310,1,8,0:0:0:0:
256,224,32389,1,0,0:0:0:0:
256,224,32468,1,8,0:0:0:0:
256,224,32626,1,8,0:0:0:0:
256,224,32705,1,0,0:0:0:0:
256,224,32784,1,8,0:0:0:0:
288,224,32863,1,8,0:0:0:0:
256,224,32942,1,8,0:0:0:0:
256,224,33021,1,0,0:0:0:0:
256,224,33100,1,8,0:0:0:0:
256,224,33257,1,8,0:0:0:0:
256,224,33336,1,8,0:0:0:0:
256,224,33415,1,8,0:0:0:0:
256,224,33494,1,0,0:0:0:0:
256,224,33573,1,8,0:0:0:0:
256,224,33652,1,8,0:0:0:0:
256,224,33731,1,8,0:0:0:0:
256,224,33810,1,0,0:0:0:0:
256,224,33889,1,8,0:0:0:0:
256,224,33968,1,8,0:0:0:0:
256,224,34047,1,8,0:0:0:0:
256,224,34126,1,0,0:0:0:0:
256,192,34205,1,8,0:0:0:0:
288,160,34521,1,12,0:0:0:0:
288,160,34678,1,8,0:0:0:0:
256,192,34757,1,0,0:0:0:0:
256,192,34836,1,0,0:0:0:0:
256,192,34915,1,0,0:0:0:0:
288,160,34994,1,8,0:0:0:0:
288,160,35152,1,12,0:0:0:0:
160,192,35468,1,8,0:0:0:0:
160,192,35547,1,0,0:0:0:0:
160,192,35626,1,8,0:0:0:0:
160,192,35705,1,0,0:0:0:0:
160,192,35784,1,8,0:0:0:0:
160,192,35863,1,0,0:0:0:0:
160,192,35942,1,8,0:0:0:0:
160,192,36021,1,8,0:0:0:0:
160,192,36100,1,8,0:0:0:0:
160,192,36178,1,8,0:0:0:0:
160,192,36257,1,8,0:0:0:0:
160,192,36336,1,0,0:0:0:0:
160,192,36415,1,8,0:0:0:0:
160,192,36494,1,0,0:0:0:0:
160,192,36573,1,8,0:0:0:0:
160,192,36652,1,8,0:0:0:0:
160,192,36731,1,8,0:0:0:0:
160,192,36810,1,0,0:0:0:0:
160,192,36889,1,8,0:0:0:0:
160,192,36968,1,0,0:0:0:0:
160,192,37047,1,8,0:0:0:0:
160,192,37126,1,0,0:0:0:0:
160,192,37205,1,8,0:0:0:0:
160,192,37284,1,8,0:0:0:0:
160,192,37363,1,8,0:0:0:0:
160,192,37442,1,8,0:0:0:0:
160,192,37521,1,8,0:0:0:0:
160,192,37600,1,0,0:0:0:0:
160,192,37678,1,8,0:0:0:0:
160,192,37757,1,0,0:0:0:0:
160,192,37836,1,8,0:0:0:0:
160,192,37915,1,8,0:0:0:0:
160,192,37994,1,8,0:0:0:0:
160,192,38073,1,0,0:0:0:0:
160,192,38152,1,8,0:0:0:0:
160,192,38231,1,0,0:0:0:0:
160,192,38310,1,8,0:0:0:0:
160,192,38389,1,0,0:0:0:0:
160,192,38468,1,8,0:0:0:0:
160,192,38547,1,8,0:0:0:0:
160,192,38626,1,8,0:0:0:0:
160,192,38705,1,8,0:0:0:0:
160,192,38784,1,8,0:0:0:0:
160,192,38863,1,0,0:0:0:0:
160,192,38942,1,8,0:0:0:0:
160,192,39021,1,0,0:0:0:0:
160,192,39100,1,8,0:0:0:0:
128,192,39178,1,8,0:0:0:0:
160,192,39257,1,8,0:0:0:0:
160,192,39336,1,0,0:0:0:0:
160,192,39415,1,8,0:0:0:0:
160,192,39494,1,0,0:0:0:0:
160,192,39573,1,8,0:0:0:0:
192,224,39652,1,0,0:0:0:0:
160,192,39731,1,8,0:0:0:0:
160,224,39810,1,8,0:0:0:0:
192,224,39889,1,8,0:0:0:0:
256,192,40205,1,12,0:0:0:0:
256,192,40363,1,4,0:0:0:0:
256,192,40521,1,12,0:0:0:0:
192,192,40678,1,0,0:0:0:0:
192,224,40836,1,12,0:0:0:0:
192,224,40994,1,0,0:0:0:0:
192,224,41073,1,8,0:0:0:0:
192,224,41152,1,8,0:0:0:0:
192,224,41231,1,8,0:0:0:0:
192,224,41310,1,0,0:0:0:0:
192,224,41468,1,12,0:0:0:0:
192,224,41626,1,0,0:0:0:0:
160,224,41784,1,0,0:0:0:0:
160,224,41863,1,8,0:0:0:0:
160,224,41942,1,0,0:0:0:0:
160,224,42100,1,12,0:0:0:0:
192,224,42257,1,8,0:0:0:0:
192,224,42336,1,0,0:0:0:0:
192,224,42415,1,8,0:0:0:0:
192,224,42494,1,8,0:0:0:0:
192,224,42573,1,0,0:0:0:0:
192,224,42731,1,12,0:0:0:0:
160,224,42889,1,0,0:0:0:0:
192,224,43047,1,0,0:0:0:0:
192,224,43126,1,8,0:0:0:0:
192,192,43205,1,8,0:0:0:0:
192,224,43363,1,12,0:0:0:0:
192,224,43521,1,0,0:0:0:0:
192,224,43600,1,8,0:0:0:0:
192,224,43679,1,8,0:0:0:0:
192,224,43758,1,8,0:0:0:0:
192,224,43837,1,0,0:0:0:0:
192,224,43995,1,12,0:0:0:0:
192,224,44153,1,0,0:0:0:0:
160,224,44311,1,0,0:0:0:0:
160,224,44390,1,8,0:0:0:0:
160,224,44469,1,0,0:0:0:0:
160,224,44627,1,12,0:0:0:0:
192,224,44784,1,8,0:0:0:0:
192,224,44863,1,0,0:0:0:0:
192,224,44942,1,8,0:0:0:0:
192,224,45021,1,8,0:0:0:0:
192,224,45100,1,0,0:0:0:0:
192,224,45258,1,12,0:0:0:0:
160,224,45416,1,0,0:0:0:0:
192,224,45573,1,0,0:0:0:0:
192,224,45652,1,8,0:0:0:0:
192,192,45731,1,8,0:0:0:0:
192,224,45889,1,12,0:0:0:0:
192,224,46047,1,0,0:0:0:0:
192,224,46126,1,8,0:0:0:0:
192,224,46205,1,8,0:0:0:0:
192,224,46284,1,8,0:0:0:0:
192,224,46363,1,0,0:0:0:0:
192,224,46521,1,12,0:0:0:0:
192,224,46679,1,0,0:0:0:0:
160,224,46837,1,0,0:0:0:0:
160,224,46916,1,8,0:0:0:0:
160,224,46995,1,0,0:0:0:0:
160,224,47153,1,12,0:0:0:0:
192,224,47310,1,8,0:0:0:0:
192,224,47389,1,0,0:0:0:0:
192,224,47468,1,8,0:0:0:0:
192,224,47547,1,8,0:0:0:0:
192,224,47626,1,0,0:0:0:0:
192,224,47784,1,12,0:0:0:0:
160,224,47942,1,0,0:0:0:0:
160,224,48100,1,0,0:0:0:0:
160,224,48178,1,8,0:0:0:0:
160,224,48257,1,8,0:0:0:0:
160,224,48336,1,0,0:0:0:0:
160,224,48415,1,8,0:0:0:0:
160,224,48573,1,8,0:0:0:0:
160,224,48652,1,0,0:0:0:0:
160,224,48731,1,8,0:0:0:0:
160,224,48810,1,8,0:0:0:0:
160,224,48889,1,8,0:0:0:0:
160,224,48968,1,0,0:0:0:0:
160,224,49047,1,8,0:0:0:0:
160,224,49205,1,4,0:0:0:0:
256,224,49363,1,12,0:0:0:0:
256,224,49678,1,12,0:0:0:0:
256,224,49836,1,4,0:0:0:0:
288,224,50152,1,0,0:0:0:0:
256,224,50310,1,4,0:0:0:0:
192,224,50468,1,12,0:0:0:0:
192,224,50626,1,4,0:0:0:0:
192,192,50784,1,0,0:0:0:0:
192,224,50942,1,12,0:0:0:0:
192,224,51100,1,0,0:0:0:0:
192,224,51179,1,8,0:0:0:0:
192,224,51258,1,8,0:0:0:0:
192,224,51337,1,8,0:0:0:0:
192,224,51416,1,0,0:0:0:0:
192,224,51574,1,12,0:0:0:0:
192,224,51732,1,0,0:0:0:0:
160,224,51890,1,0,0:0:0:0:
160,224,51969,1,8,0:0:0:0:
160,224,52048,1,0,0:0:0:0:
160,224,52206,1,12,0:0:0:0:
192,224,52363,1,8,0:0:0:0:
192,224,52442,1,0,0:0:0:0:
192,224,52521,1,8,0:0:0:0:
192,224,52600,1,8,0:0:0:0:
192,224,52679,1,0,0:0:0:0:
192,224,52837,1,12,0:0:0:0:
160,224,52995,1,0,0:0:0:0:
192,224,53152,1,0,0:0:0:0:
192,224,53231,1,8,0:0:0:0:
192,192,53310,1,8,0:0:0:0:
192,224,53468,1,12,0:0:0:0:
192,224,53626,1,0,0:0:0:0:
192,224,53705,1,8,0:0:0:0:
192,224,53784,1,8,0:0:0:0:
192,224,53863,1,8,0:0:0:0:
192,224,53942,1,0,0:0:0:0:
192,224,54100,1,12,0:0:0:0:
192,224,54258,1,0,0:0:0:0:
160,224,54416,1,0,0:0:0:0:
160,224,54495,1,8,0:0:0:0:
160,224,54574,1,0,0:0:0:0:
160,224,54732,1,12,0:0:0:0:
192,224,54889,1,8,0:0:0:0:
192,224,54968,1,0,0:0:0:0:
192,224,55047,1,8,0:0:0:0:
192,224,55126,1,8,0:0:0:0:
192,224,55205,1,0,0:0:0:0:
192,224,55363,1,12,0:0:0:0:
160,224,55521,1,0,0:0:0:0:
192,192,55678,1,8,0:0:0:0:
192,192,55757,1,0,0:0:0:0:
192,192,55836,1,8,0:0:0:0:
192,192,55915,1,0,0:0:0:0:
192,192,55994,1,8,0:0:0:0:
192,192,56073,1,0,0:0:0:0:
192,192,56152,1,8,0:0:0:0:
192,192,56231,1,8,0:0:0:0:
192,192,56310,1,8,0:0:0:0:
192,192,56389,1,8,0:0:0:0:
192,192,56468,1,8,0:0:0:0:
192,192,56547,1,0,0:0:0:0:
192,192,56626,1,8,0:0:0:0:
192,192,56705,1,0,0:0:0:0:
192,192,56784,1,8,0:0:0:0:
192,192,56863,1,0,0:0:0:0:
192,192,56942,1,8,0:0:0:0:
192,192,57021,1,0,0:0:0:0:
192,192,57100,1,8,0:0:0:0:
192,192,57178,1,0,0:0:0:0:
192,192,57258,1,8,0:0:0:0:
192,192,57337,1,0,0:0:0:0:
192,192,57416,1,8,0:0:0:0:
192,192,57495,1,8,0:0:0:0:
192,192,57574,1,8,0:0:0:0:
192,192,57652,1,8,0:0:0:0:
192,192,57732,1,8,0:0:0:0:
192,192,57810,1,0,0:0:0:0:
192,192,57889,1,8,0:0:0:0:
192,192,57968,1,0,0:0:0:0:
192,192,58047,1,8,0:0:0:0:
192,192,58126,1,0,0:0:0:0:
192,192,58205,1,8,0:0:0:0:
192,192,58284,1,0,0:0:0:0:
192,192,58363,1,8,0:0:0:0:
192,192,58442,1,0,0:0:0:0:
192,192,58521,1,8,0:0:0:0:
192,192,58600,1,0,0:0:0:0:
192,192,58679,1,8,0:0:0:0:
192,192,58757,1,8,0:0:0:0:
192,192,58837,1,8,0:0:0:0:
192,192,58916,1,8,0:0:0:0:
192,192,58994,1,8,0:0:0:0:
192,192,59074,1,0,0:0:0:0:
192,192,59152,1,8,0:0:0:0:
192,192,59231,1,0,0:0:0:0:
192,192,59310,1,8,0:0:0:0:
192,192,59389,1,0,0:0:0:0:
192,192,59468,1,8,0:0:0:0:
192,192,59547,1,0,0:0:0:0:
192,192,59626,1,8,0:0:0:0:
192,192,59705,1,0,0:0:0:0:
192,192,59784,1,8,0:0:0:0:
224,224,59863,1,0,0:0:0:0:
192,256,59942,1,8,0:0:0:0:
224,224,60021,1,8,0:0:0:0:
256,192,60100,1,0,0:0:0:0:
224,224,60152,1,0,0:0:0:0:
224,224,60205,1,0,0:0:0:0:
224,224,60257,1,0,0:0:0:0:
224,224,60310,1,0,0:0:0:0:
224,224,60363,1,0,0:0:0:0:
256,192,60415,1,0,0:0:0:0:
192,224,60573,1,0,0:0:0:0:
224,224,60731,1,12,0:0:0:0:
224,224,60889,1,0,0:0:0:0:
224,224,60968,1,8,0:0:0:0:
224,224,61047,1,0,0:0:0:0:
224,224,61205,1,8,0:0:0:0:
224,224,61284,1,8,0:0:0:0:
224,224,61363,1,0,0:0:0:0:
224,224,61442,1,8,0:0:0:0:
224,224,61521,1,8,0:0:0:0:
224,224,61600,1,0,0:0:0:0:
224,224,61678,1,8,0:0:0:0:
224,224,61757,1,8,0:0:0:0:
224,224,61836,1,0,0:0:0:0:
224,224,61915,1,8,0:0:0:0:
224,224,61994,1,8,0:0:0:0:
224,224,62310,1,12,0:0:0:0:
224,224,62468,1,8,0:0:0:0:
224,224,62547,1,0,0:0:0:0:
224,224,62626,1,0,0:0:0:0:
224,224,62705,1,0,0:0:0:0:
224,224,62784,1,8,0:0:0:0:
224,224,62942,1,12,0:0:0:0:
256,192,63257,1,8,0:0:0:0:
256,224,63336,1,8,0:0:0:0:
256,224,63415,1,0,0:0:0:0:
224,192,63494,1,8,0:0:0:0:
224,192,63573,1,8,0:0:0:0:
224,224,63652,1,0,0:0:0:0:
224,224,63731,1,8,0:0:0:0:
224,224,63810,1,8,0:0:0:0:
224,224,63889,1,0,0:0:0:0:
224,224,63968,1,8,0:0:0:0:
224,224,64047,1,8,0:0:0:0:
224,224,64126,1,0,0:0:0:0:
224,224,64205,1,8,0:0:0:0:
192,160,64521,1,0,0:0:0:0:
192,160,64836,1,12,0:0:0:0:
192,160,64994,1,8,0:0:0:0:
192,160,65073,1,0,0:0:0:0:
192,160,65152,1,0,0:0:0:0:
192,160,65231,1,0,0:0:0:0:
192,160,65310,1,8,0:0:0:0:
192,160,65468,1,12,0:0:0:0:
192,160,65784,1,0,0:0:0:0:
192,160,65942,1,0,0:0:0:0:
192,160,66100,1,12,0:0:0:0:
192,160,66257,1,0,0:0:0:0:
192,160,66336,1,8,0:0:0:0:
192,160,66415,1,0,0:0:0:0:
192,160,66494,1,8,0:0:0:0:
192,160,66573,1,0,0:0:0:0:
192,160,66731,1,12,0:0:0:0:
192,160,66889,1,0,0:0:0:0:
224,128,67047,1,0,0:0:0:0:
224,128,67363,1,12,0:0:0:0:
192,160,67521,1,8,0:0:0:0:
160,160,67600,1,0,0:0:0:0:
160,160,67678,1,0,0:0:0:0:
160,160,67757,1,0,0:0:0:0:
192,160,67836,1,8,0:0:0:0:
192,160,67994,1,12,0:0:0:0:
192,160,68310,1,0,0:0:0:0:
192,160,68389,1,8,0:0:0:0:
192,160,68468,1,0,0:0:0:0:
192,160,68547,1,8,0:0:0:0:
192,160,68626,1,8,0:0:0:0:
192,160,68784,1,8,0:0:0:0:
192,160,68863,1,8,0:0:0:0:
192,160,68942,1,0,0:0:0:0:
192,160,69021,1,8,0:0:0:0:
192,160,69100,1,8,0:0:0:0:
192,160,69178,1,0,0:0:0:0:
192,192,69257,1,8,0:0:0:0:
192,192,69336,1,8,0:0:0:0:
192,192,69415,1,0,0:0:0:0:
192,192,69494,1,8,0:0:0:0:
192,192,69573,1,8,0:0:0:0:
192,192,69731,1,0,0:0:0:0:
192,192,69889,1,12,0:0:0:0:
224,160,70047,1,8,0:0:0:0:
224,160,70126,1,8,0:0:0:0:
192,160,70205,1,0,0:0:0:0:
192,160,70284,1,8,0:0:0:0:
192,192,70363,1,8,0:0:0:0:
192,160,70521,1,12,0:0:0:0:
192,192,70836,1,0,0:0:0:0:
192,192,70915,1,8,0:0:0:0:
192,192,70994,1,0,0:0:0:0:
192,192,71152,1,12,0:0:0:0:
192,192,71310,1,0,0:0:0:0:
192,192,71468,1,8,0:0:0:0:
192,192,71626,1,0,0:0:0:0:
192,192,71784,1,12,0:0:0:0:
192,192,71942,1,0,0:0:0:0:
192,160,72100,1,0,0:0:0:0:
192,160,72415,1,12,0:0:0:0:
192,160,72573,1,8,0:0:0:0:
192,192,72652,1,0,0:0:0:0:
192,192,72731,1,0,0:0:0:0:
192,192,72810,1,0,0:0:0:0:
224,224,72889,1,8,0:0:0:0:
192,160,73047,1,12,0:0:0:0:
192,192,73363,1,0,0:0:0:0:
192,192,73442,1,0,0:0:0:0:
192,192,73521,1,8,0:0:0:0:
224,160,73600,1,0,0:0:0:0:
224,192,73678,1,8,0:0:0:0:
224,192,73757,1,0,0:0:0:0:
224,192,73836,1,8,0:0:0:0:
224,192,73915,1,8,0:0:0:0:
224,192,73994,1,8,0:0:0:0:
224,192,74073,1,8,0:0:0:0:
224,192,74152,1,8,0:0:0:0:
224,192,74231,1,0,0:0:0:0:
224,192,74310,1,8,0:0:0:0:
224,192,74389,1,0,0:0:0:0:
224,224,74468,1,8,0:0:0:0:
224,192,74547,1,0,0:0:0:0:
192,192,74626,1,8,0:0:0:0:
192,192,74942,1,12,0:0:0:0:
192,192,75100,1,8,0:0:0:0:
192,192,75178,1,0,0:0:0:0:
192,192,75257,1,0,0:0:0:0:
192,192,75336,1,0,0:0:0:0:
192,192,75415,1,8,0:0:0:0:
192,192,75573,1,12,0:0:0:0:
224,224,75889,1,8,0:0:0:0:
192,224,75968,1,0,0:0:0:0:
192,192,76047,1,8,0:0:0:0:
192,224,76126,1,0,0:0:0:0:
192,192,76205,1,8,0:0:0:0:
192,224,76284,1,0,0:0:0:0:
192,192,76363,1,8,0:0:0:0:
192,224,76442,1,0,0:0:0:0:
192,192,76521,1,8,0:0:0:0:
192,224,76600,1,0,0:0:0:0:
192,192,76678,1,8,0:0:0:0:
192,224,76757,1,0,0:0:0:0:
192,192,76836,1,8,0:0:0:0:
192,224,76915,1,0,0:0:0:0:
192,192,76994,1,8,0:0:0:0:
192,224,77073,1,0,0:0:0:0:
192,192,77152,1,8,0:0:0:0:
192,192,77231,1,0,0:0:0:0:
192,192,77310,1,0,0:0:0:0:
192,192,77389,1,0,0:0:0:0:
192,192,77468,1,8,0:0:0:0:
192,192,77547,1,0,0:0:0:0:
192,192,77626,1,8,0:0:0:0:
192,192,77705,1,0,0:0:0:0:
192,192,77784,1,0,0:0:0:0:
192,192,77863,1,0,0:0:0:0:
192,192,77942,1,8,0:0:0:0:
192,192,78021,1,0,0:0:0:0:
192,192,78100,1,8,0:0:0:0:
192,224,78178,1,0,0:0:0:0:
192,192,78257,1,0,0:0:0:0:
192,192,78415,1,12,0:0:0:0:
224,192,78573,1,0,0:0:0:0:
192,224,78652,1,8,0:0:0:0:
192,192,78731,1,8,0:0:0:0:
192,192,78889,1,8,0:0:0:0:
192,192,78968,1,0,0:0:0:0:
192,192,79047,1,8,0:0:0:0:
192,192,79126,1,0,0:0:0:0:
192,192,79205,1,8,0:0:0:0:
192,160,79363,1,0,0:0:0:0:
192,224,79442,1,8,0:0:0:0:
192,160,79521,1,8,0:0:0:0:
192,192,79678,1,12,0:0:0:0:
192,160,79836,1,0,0:0:0:0:
192,224,79915,1,8,0:0:0:0:
192,160,79994,1,8,0:0:0:0:
192,192,80152,1,8,0:0:0:0:
224,64,80231,1,0,0:0:0:0:
192,192,80310,1,8,0:0:0:0:
224,64,80389,1,0,0:0:0:0:
224,64,80468,1,8,0:0:0:0:
224,192,80626,1,0,0:0:0:0:
224,192,80678,1,0,0:0:0:0:
224,192,80731,1,0,0:0:0:0:
224,192,80784,1,0,0:0:0:0:
192,192,80942,1,12,0:0:0:0:
192,160,81100,1,0,0:0:0:0:
192,224,81178,1,8,0:0:0:0:
192,160,81257,1,8,0:0:0:0:
224,224,81415,1,8,0:0:0:0:
224,64,81494,1,0,0:0:0:0:
224,224,81573,1,8,0:0:0:0:
224,64,81652,1,0,0:0:0:0:
224,224,81731,1,8,0:0:0:0:
192,160,81889,1,0,0:0:0:0:
192,224,81968,1,8,0:0:0:0:
192,160,82047,1,8,0:0:0:0:
224,224,82205,1,12,0:0:0:0:
224,224,82363,1,4,0:0:0:0:
224,224,82836,1,4,0:0:0:0:
224,224,83152,1,4,0:0:0:0:
224,224,83468,1,12,0:0:0:0:
224,224,83626,1,0,0:0:0:0:
224,224,83942,1,0,0:0:0:0:
224,224,84100,1,8,0:0:0:0:
224,224,84415,1,0,0:0:0:0:
224,224,84573,1,0,0:0:0:0:
224,224,84731,1,8,0:0:0:0:
224,224,84889,1,8,0:0:0:0:
224,224,85205,1,0,0:0:0:0:
224,224,85363,1,8,0:0:0:0:
224,224,85678,1,0,0:0:0:0:
224,224,85836,1,0,0:0:0:0:
224,224,85994,1,8,0:0:0:0:
224,224,86152,1,8,0:0:0:0:
224,224,86468,1,0,0:0:0:0:
224,224,86626,1,8,0:0:0:0:
224,224,86942,1,0,0:0:0:0:
224,224,87100,1,0,0:0:0:0:
224,224,87257,1,8,0:0:0:0:
224,224,87415,1,8,0:0:0:0:
224,224,87731,1,0,0:0:0:0:
224,224,87889,1,8,0:0:0:0:
224,224,88205,1,8,0:0:0:0:
224,224,88363,1,0,0:0:0:0:
224,224,88521,1,8,0:0:0:0:
224,224,88678,1,0,0:0:0:0:
224,224,88836,1,0,0:0:0:0:
224,224,88994,1,8,0:0:0:0:
224,224,89152,1,0,0:0:0:0:
224,224,89310,1,0,0:0:0:0:
224,224,89468,1,8,0:0:0:0:
224,224,89626,1,0,0:0:0:0:
224,224,89784,1,8,0:0:0:0:
224,224,89942,1,0,0:0:0:0:
224,224,90100,1,0,0:0:0:0:
224,224,90257,1,8,0:0:0:0:
224,224,90415,1,0,0:0:0:0:
224,224,90573,1,0,0:0:0:0:
224,224,90731,1,8,0:0:0:0:
224,224,90889,1,0,0:0:0:0:
224,224,91047,1,8,0:0:0:0:
224,224,91205,1,0,0:0:0:0:
224,224,91363,1,0,0:0:0:0:
224,224,91521,1,8,0:0:0:0:
224,224,91678,1,0,0:0:0:0:
224,224,91836,1,0,0:0:0:0:
224,224,91994,1,8,0:0:0:0:
224,224,92152,1,0,0:0:0:0:
224,224,92310,1,12,0:0:0:0:
224,224,92468,1,12,0:0:0:0:
224,224,92626,1,12,0:0:0:0:
224,224,92784,1,12,0:0:0:0:
224,224,92942,1,12,0:0:0:0:
224,224,93257,1,12,0:0:0:0:
224,256,93573,1,12,0:0:0:0:
224,224,93731,1,8,0:0:0:0:
224,224,93810,1,0,0:0:0:0:
224,224,93889,1,8,0:0:0:0:
224,224,93968,1,0,0:0:0:0:
224,224,94047,1,8,0:0:0:0:
224,224,94126,1,8,0:0:0:0:
224,224,94205,1,8,0:0:0:0:
224,224,94284,1,8,0:0:0:0:
224,224,94363,1,8,0:0:0:0:
224,224,94442,1,0,0:0:0:0:
224,224,94521,1,8,0:0:0:0:
224,224,94600,1,0,0:0:0:0:
192,224,94678,1,8,0:0:0:0:
224,224,94836,1,8,0:0:0:0:
224,224,94915,1,8,0:0:0:0:
224,224,94994,1,8,0:0:0:0:
224,224,95073,1,0,0:0:0:0:
224,224,95152,1,8,0:0:0:0:
224,224,95231,1,0,0:0:0:0:
224,224,95310,1,8,0:0:0:0:
224,224,95389,1,8,0:0:0:0:
224,224,95468,1,8,0:0:0:0:
224,256,95547,1,8,0:0:0:0:
224,256,95626,1,8,0:0:0:0:
224,224,95705,1,0,0:0:0:0:
192,224,95784,1,8,0:0:0:0:
192,224,95863,1,8,0:0:0:0:
192,224,95942,1,8,0:0:0:0:
192,256,96100,1,8,0:0:0:0:
192,256,96178,1,0,0:0:0:0:
192,256,96257,1,8,0:0:0:0:
192,256,96336,1,8,0:0:0:0:
192,256,96415,1,8,0:0:0:0:
192,256,96494,1,0,0:0:0:0:
192,256,96573,1,8,0:0:0:0:
192,256,96652,1,8,0:0:0:0:
192,256,96731,1,8,0:0:0:0:
192,256,96810,1,8,0:0:0:0:
192,256,96889,1,8,0:0:0:0:
192,256,96968,1,0,0:0:0:0:
192,256,97047,1,8,0:0:0:0:
192,256,97126,1,8,0:0:0:0:
192,256,97205,1,8,0:0:0:0:
192,256,97363,1,8,0:0:0:0:
192,256,97441,1,0,0:0:0:0:
192,256,97520,1,8,0:0:0:0:
192,256,97599,1,0,0:0:0:0:
192,256,97678,1,8,0:0:0:0:
192,256,97757,1,8,0:0:0:0:
192,256,97836,1,8,0:0:0:0:
192,256,97915,1,8,0:0:0:0:
192,256,97994,1,8,0:0:0:0:
192,256,98073,1,8,0:0:0:0:
192,256,98152,1,8,0:0:0:0:
192,256,98231,1,8,0:0:0:0:
192,256,98310,1,8,0:0:0:0:
192,256,98389,1,0,0:0:0:0:
192,256,98468,1,8,0:0:0:0:
192,256,98626,1,8,0:0:0:0:
192,256,98704,1,8,0:0:0:0:
192,256,98783,1,8,0:0:0:0:
192,256,98862,1,0,0:0:0:0:
192,256,98942,1,8,0:0:0:0:
192,256,99021,1,0,0:0:0:0:
192,256,99099,1,8,0:0:0:0:
192,256,99178,1,8,0:0:0:0:
192,256,99257,1,8,0:0:0:0:
192,256,99336,1,8,0:0:0:0:
192,256,99415,1,8,0:0:0:0:
192,256,99494,1,0,0:0:0:0:
192,256,99573,1,8,0:0:0:0:
192,256,99652,1,8,0:0:0:0:
192,256,99731,1,8,0:0:0:0:
192,256,99889,1,8,0:0:0:0:
192,256,99967,1,0,0:0:0:0:
192,256,100047,1,8,0:0:0:0:
192,256,100125,1,0,0:0:0:0:
192,256,100204,1,8,0:0:0:0:
192,256,100283,1,0,0:0:0:0:
192,256,100362,1,8,0:0:0:0:
192,256,100441,1,8,0:0:0:0:
192,256,100520,1,8,0:0:0:0:
192,256,100599,1,8,0:0:0:0:
192,256,100678,1,8,0:0:0:0:
192,256,100757,1,0,0:0:0:0:
192,256,100836,1,8,0:0:0:0:
192,256,100915,1,0,0:0:0:0:
192,256,100994,1,8,0:0:0:0:
192,256,101152,1,8,0:0:0:0:
192,256,101230,1,0,0:0:0:0:
192,256,101309,1,8,0:0:0:0:
192,256,101388,1,8,0:0:0:0:
192,256,101467,1,8,0:0:0:0:
192,256,101546,1,0,0:0:0:0:
192,256,101625,1,8,0:0:0:0:
192,256,101704,1,8,0:0:0:0:
192,256,101783,1,8,0:0:0:0:
192,256,101862,1,8,0:0:0:0:
192,256,101941,1,8,0:0:0:0:
192,256,102020,1,0,0:0:0:0:
192,256,102099,1,8,0:0:0:0:
192,256,102178,1,8,0:0:0:0:
192,256,102257,1,8,0:0:0:0:
192,256,102415,1,8,0:0:0:0:
192,256,102493,1,8,0:0:0:0:
192,256,102572,1,0,0:0:0:0:
192,256,102651,1,8,0:0:0:0:
192,256,102730,1,8,0:0:0:0:
192,256,102809,1,0,0:0:0:0:
192,256,102889,1,8,0:0:0:0:
192,256,102967,1,8,0:0:0:0:
192,256,103046,1,8,0:0:0:0:
192,256,103125,1,8,0:0:0:0:
192,256,103204,1,8,0:0:0:0:
192,256,103283,1,0,0:0:0:0:
192,256,103362,1,8,0:0:0:0:
192,256,103441,1,8,0:0:0:0:
192,256,103520,1,0,0:0:0:0:
192,256,103678,1,8,0:0:0:0:
192,256,103756,1,8,0:0:0:0:
192,256,103836,1,8,0:0:0:0:
192,256,103914,1,0,0:0:0:0:
192,256,103994,1,8,0:0:0:0:
192,256,104072,1,0,0:0:0:0:
192,256,104151,1,8,0:0:0:0:
192,256,104230,1,8,0:0:0:0:
192,256,104309,1,8,0:0:0:0:
192,256,104388,1,8,0:0:0:0:
192,256,104468,1,8,0:0:0:0:
192,256,104546,1,0,0:0:0:0:
192,256,104625,1,8,0:0:0:0:
192,256,104704,1,0,0:0:0:0:
192,256,104783,1,8,0:0:0:0:
192,256,104784,1,0,0:0:0:0:
192,256,104862,1,8,0:0:0:0:
192,256,104941,1,8,0:0:0:0:
192,256,105020,1,8,0:0:0:0:
192,256,105099,1,8,0:0:0:0:
192,256,105178,1,0,0:0:0:0:
192,256,105257,1,8,0:0:0:0:
192,256,105336,1,0,0:0:0:0:
192,256,105415,1,8,0:0:0:0:
192,256,105494,1,8,0:0:0:0:
192,256,105573,1,8,0:0:0:0:
192,256,105652,1,8,0:0:0:0:
192,256,105731,1,8,0:0:0:0:
192,256,105810,1,0,0:0:0:0:
192,256,105889,1,8,0:0:0:0:
192,256,105967,1,0,0:0:0:0:
192,256,106046,1,8,0:0:0:0:
192,256,106125,1,8,0:0:0:0:
192,256,106204,1,8,0:0:0:0:
192,256,106283,1,0,0:0:0:0:
192,256,106362,1,8,0:0:0:0:
192,256,106441,1,0,0:0:0:0:
192,256,106520,1,8,0:0:0:0:
192,256,106599,1,0,0:0:0:0:
192,256,106678,1,8,0:0:0:0:
192,256,106757,1,0,0:0:0:0:
192,256,106836,1,8,0:0:0:0:
192,256,106915,1,0,0:0:0:0:
192,256,106994,1,8,0:0:0:0:
192,256,107072,1,0,0:0:0:0:
192,256,107151,1,8,0:0:0:0:
192,256,107230,1,0,0:0:0:0:
192,256,107309,1,8,0:0:0:0:
192,256,107388,1,0,0:0:0:0:
192,256,107467,1,8,0:0:0:0:
192,256,107546,1,8,0:0:0:0:
192,256,107625,1,8,0:0:0:0:
192,256,107704,1,0,0:0:0:0:
192,256,107783,1,8,0:0:0:0:
192,256,107862,1,0,0:0:0:0:
192,256,107941,1,8,0:0:0:0:
192,256,108020,1,8,0:0:0:0:
192,256,108099,1,8,0:0:0:0:
192,256,108178,1,8,0:0:0:0:
192,256,108257,1,8,0:0:0:0:
192,256,108336,1,0,0:0:0:0:
192,256,108415,1,8,0:0:0:0:
192,256,108494,1,0,0:0:0:0:
192,256,108573,1,8,0:0:0:0:
224,224,108731,1,8,0:0:0:0:
224,224,108810,1,0,0:0:0:0:
224,224,108889,1,8,0:0:0:0:
224,224,108968,1,0,0:0:0:0:
224,224,109047,1,8,0:0:0:0:
224,224,109126,1,0,0:0:0:0:
224,224,109205,1,8,0:0:0:0:
224,224,109284,1,8,0:0:0:0:
224,224,109363,1,8,0:0:0:0:
224,224,109442,1,8,0:0:0:0:
224,224,109521,1,8,0:0:0:0:
224,224,109600,1,0,0:0:0:0:
224,224,109678,1,8,0:0:0:0:
224,224,109757,1,0,0:0:0:0:
224,224,109836,1,8,0:0:0:0:
224,224,109915,1,0,0:0:0:0:
224,224,109994,1,8,0:0:0:0:
224,224,110073,1,0,0:0:0:0:
224,224,110152,1,8,0:0:0:0:
224,224,110231,1,0,0:0:0:0:
224,224,110310,1,8,0:0:0:0:
224,224,110389,1,0,0:0:0:0:
224,224,110468,1,8,0:0:0:0:
224,224,110547,1,8,0:0:0:0:
224,224,110626,1,8,0:0:0:0:
224,224,110705,1,8,0:0:0:0:
224,224,110784,1,8,0:0:0:0:
224,224,110863,1,0,0:0:0:0:
224,224,110942,1,8,0:0:0:0:
224,256,111021,1,0,0:0:0:0:
224,224,111100,1,8,0:0:0:0:
224,224,111178,1,0,0:0:0:0:
224,224,111257,1,8,0:0:0:0:
224,224,111336,1,0,0:0:0:0:
224,224,111415,1,8,0:0:0:0:
224,224,111494,1,0,0:0:0:0:
224,224,111573,1,8,0:0:0:0:
224,224,111652,1,0,0:0:0:0:
224,224,111731,1,8,0:0:0:0:
224,224,111810,1,8,0:0:0:0:
224,224,111889,1,8,0:0:0:0:
224,224,111968,1,8,0:0:0:0:
224,224,112047,1,8,0:0:0:0:
224,224,112126,1,0,0:0:0:0:
224,224,112205,1,8,0:0:0:0:
224,224,112284,1,0,0:0:0:0:
224,224,112363,1,8,0:0:0:0:
224,224,112442,1,0,0:0:0:0:
224,224,112521,1,8,0:0:0:0:
224,224,112600,1,0,0:0:0:0:
224,224,112678,1,8,0:0:0:0:
224,224,112757,1,0,0:0:0:0:
224,224,112836,1,8,0:0:0:0:
224,224,112915,1,0,0:0:0:0:
224,224,112994,1,8,0:0:0:0:
224,224,113073,1,8,0:0:0:0:
224,224,113152,1,8,0:0:0:0:
192,192,113310,1,0,0:0:0:0:
288,256,113468,1,12,0:0:0:0:
288,256,113626,1,4,0:0:0:0:
288,256,113784,1,12,0:0:0:0:
160,192,113942,1,0,0:0:0:0:
160,192,114100,1,12,0:0:0:0:
160,192,114257,1,0,0:0:0:0:
160,192,114336,1,8,0:0:0:0:
160,192,114415,1,8,0:0:0:0:
192,192,114494,1,8,0:0:0:0:
160,192,114573,1,0,0:0:0:0:
160,192,114731,1,12,0:0:0:0:
160,192,114889,1,0,0:0:0:0:
192,192,115047,1,0,0:0:0:0:
192,192,115126,1,8,0:0:0:0:
192,192,115205,1,0,0:0:0:0:
160,192,115363,1,12,0:0:0:0:
160,192,115521,1,8,0:0:0:0:
160,192,115600,1,8,0:0:0:0:
160,192,115678,1,0,0:0:0:0:
160,192,115757,1,8,0:0:0:0:
160,192,115836,1,0,0:0:0:0:
192,192,115994,1,12,0:0:0:0:
192,192,116152,1,0,0:0:0:0:
192,192,116310,1,0,0:0:0:0:
192,192,116389,1,8,0:0:0:0:
192,192,116468,1,8,0:0:0:0:
160,192,116626,1,12,0:0:0:0:
160,192,116784,1,0,0:0:0:0:
160,192,116863,1,8,0:0:0:0:
160,192,116942,1,0,0:0:0:0:
160,192,117020,1,8,0:0:0:0:
160,192,117099,1,0,0:0:0:0:
192,192,117257,1,12,0:0:0:0:
192,192,117415,1,0,0:0:0:0:
192,192,117573,1,8,0:0:0:0:
160,192,117652,1,8,0:0:0:0:
192,192,117731,1,0,0:0:0:0:
160,192,117889,1,12,0:0:0:0:
160,192,118047,1,0,0:0:0:0:
160,192,118126,1,8,0:0:0:0:
160,192,118205,1,8,0:0:0:0:
160,192,118283,1,0,0:0:0:0:
160,192,118362,1,8,0:0:0:0:
192,192,118520,1,12,0:0:0:0:
192,192,118678,1,0,0:0:0:0:
192,192,118836,1,8,0:0:0:0:
192,192,118916,1,8,0:0:0:0:
192,192,118994,1,0,0:0:0:0:
160,192,119153,1,12,0:0:0:0:
160,192,119311,1,8,0:0:0:0:
160,192,119390,1,8,0:0:0:0:
160,192,119468,1,0,0:0:0:0:
160,192,119547,1,8,0:0:0:0:
192,192,119626,1,0,0:0:0:0:
192,192,119784,1,12,0:0:0:0:
192,192,119942,1,0,0:0:0:0:
192,192,120100,1,8,0:0:0:0:
192,192,120178,1,0,0:0:0:0:
192,192,120258,1,0,0:0:0:0:
160,192,120415,1,12,0:0:0:0:
160,192,120574,1,0,0:0:0:0:
160,192,120653,1,8,0:0:0:0:
160,192,120731,1,0,0:0:0:0:
192,192,120810,1,8,0:0:0:0:
160,192,120889,1,8,0:0:0:0:
192,192,121047,1,12,0:0:0:0:
192,192,121205,1,0,0:0:0:0:
192,192,121363,1,8,0:0:0:0:
160,224,121442,1,8,0:0:0:0:
192,192,121521,1,0,0:0:0:0:
160,192,121678,1,12,0:0:0:0:
160,192,121836,1,8,0:0:0:0:
160,192,121916,1,8,0:0:0:0:
160,192,121994,1,0,0:0:0:0:
192,160,122073,1,8,0:0:0:0:
160,192,122152,1,0,0:0:0:0:
192,192,122310,1,12,0:0:0:0:
192,192,122468,1,0,0:0:0:0:
224,192,122626,1,0,0:0:0:0:
224,224,122705,1,8,0:0:0:0:
256,192,122784,1,0,0:0:0:0:
256,192,122942,1,12,0:0:0:0:
256,192,123100,1,8,0:0:0:0:
192,192,123178,1,0,0:0:0:0:
160,192,123257,1,8,0:0:0:0:
224,224,123336,1,0,0:0:0:0:
224,192,123415,1,8,0:0:0:0:
224,192,123573,1,12,0:0:0:0:
224,192,123731,1,0,0:0:0:0:
192,192,123889,1,8,0:0:0:0:
192,192,123968,1,0,0:0:0:0:
224,192,124047,1,8,0:0:0:0:
160,192,124205,1,12,0:0:0:0:
160,192,124363,1,0,0:0:0:0:
160,192,124442,1,8,0:0:0:0:
160,192,124520,1,8,0:0:0:0:
224,128,124600,1,0,0:0:0:0:
256,128,124678,1,8,0:0:0:0:
192,192,124836,1,12,0:0:0:0:
192,192,124994,1,0,0:0:0:0:
192,192,125152,1,8,0:0:0:0:
192,192,125231,1,8,0:0:0:0:
192,192,125310,1,0,0:0:0:0:
160,192,125468,1,12,0:0:0:0:
160,192,125626,1,8,0:0:0:0:
160,192,125705,1,8,0:0:0:0:
160,192,125783,1,0,0:0:0:0:
192,160,125863,1,8,0:0:0:0:
160,192,125941,1,0,0:0:0:0:
192,192,126099,1,12,0:0:0:0:
192,192,126257,1,0,0:0:0:0:
192,192,126415,1,0,0:0:0:0:
192,192,126494,1,0,0:0:0:0:
192,192,126573,1,8,0:0:0:0:
160,192,126731,1,12,0:0:0:0:
160,192,126889,1,0,0:0:0:0:
160,192,126968,1,8,0:0:0:0:
160,192,127046,1,8,0:0:0:0:
192,192,127126,1,8,0:0:0:0:
160,192,127204,1,0,0:0:0:0:
192,192,127363,1,12,0:0:0:0:
192,192,127520,1,0,0:0:0:0:
192,192,127678,1,8,0:0:0:0:
160,192,127757,1,0,0:0:0:0:
192,192,127836,1,0,0:0:0:0:
160,192,127994,1,12,0:0:0:0:
160,192,128152,1,0,0:0:0:0:
160,192,128231,1,8,0:0:0:0:
160,192,128309,1,0,0:0:0:0:
160,192,128388,1,8,0:0:0:0:
160,192,128467,1,8,0:0:0:0:
192,192,128625,1,12,0:0:0:0:
192,192,128783,1,0,0:0:0:0:
224,192,128942,1,0,0:0:0:0:
192,192,129021,1,8,0:0:0:0:
192,192,129100,1,8,0:0:0:0:
192,192,129257,1,12,0:0:0:0:
192,192,129415,1,0,0:0:0:0:
160,192,129494,1,8,0:0:0:0:
192,192,129573,1,0,0:0:0:0:
192,128,129652,1,0,0:0:0:0:
192,192,129731,1,8,0:0:0:0:
192,192,129889,1,12,0:0:0:0:
192,192,130047,1,8,0:0:0:0:
192,192,130205,1,0,0:0:0:0:
192,192,130284,1,0,0:0:0:0:
192,192,130363,1,8,0:0:0:0:
192,192,130521,1,12,0:0:0:0:
192,192,130678,1,8,0:0:0:0:
160,192,130757,1,0,0:0:0:0:
192,192,130836,1,0,0:0:0:0:
192,192,130915,1,0,0:0:0:0:
192,192,130994,1,8,0:0:0:0:
192,192,131152,1,12,0:0:0:0:
192,192,131310,1,0,0:0:0:0:
192,192,131468,1,4,0:0:0:0:
192,192,131678,1,4,0:0:0:0:
192,192,131889,1,4,0:0:0:0:
192,192,132152,1,12,0:0:0:0:
192,192,132363,1,12,0:0:0:0:
192,192,132573,1,12,0:0:0:0:
192,192,132731,1,4,0:0:0:0:
192,192,132889,1,12,0:0:0:0:
192,192,133047,1,4,0:0:0:0:
192,192,133205,1,0,0:0:0:0:
192,192,133257,1,0,0:0:0:0:
192,192,133310,1,0,0:0:0:0:
192,192,133363,1,0,0:0:0:0:
192,192,133415,1,0,0:0:0:0:
192,192,133468,1,0,0:0:0:0:
192,192,133521,1,0,0:0:0:0:
192,192,133573,1,0,0:0:0:0:
192,192,133626,1,0,0:0:0:0:
192,192,133678,1,0,0:0:0:0:
192,192,133731,1,0,0:0:0:0:
192,192,133784,1,0,0:0:0:0:
192,192,133836,1,0,0:0:0:0:
192,192,133994,1,12,0:0:0:0:
192,192,134152,1,0,0:0:0:0:
192,192,134310,1,0,0:0:0:0:
192,192,134468,1,0,0:0:0:0:
192,192,134626,1,0,0:0:0:0:
192,224,134784,1,8,0:0:0:0:
192,192,134942,1,0,0:0:0:0:
192,224,135100,1,8,0:0:0:0:
192,192,135257,1,0,0:0:0:0:
224,192,135415,1,0,0:0:0:0:
192,192,135573,1,0,0:0:0:0:
224,224,135731,1,8,0:0:0:0:
224,192,135889,1,0,0:0:0:0:
224,224,136047,1,8,0:0:0:0:
192,192,136205,1,0,0:0:0:0:
224,192,136363,1,0,0:0:0:0:
224,224,136521,1,8,0:0:0:0:
192,192,136678,1,0,0:0:0:0:
192,192,136836,1,0,0:0:0:0:
192,192,136994,1,0,0:0:0:0:
192,192,137152,1,8,0:0:0:0:
192,192,137310,1,0,0:0:0:0:
192,192,137468,1,0,0:0:0:0:
192,192,137626,1,0,0:0:0:0:
224,224,137784,1,8,0:0:0:0:
224,192,137942,1,0,0:0:0:0:
224,192,138100,1,0,0:0:0:0:
224,224,138257,1,8,0:0:0:0:
224,192,138415,1,0,0:0:0:0:
224,192,138573,1,0,0:0:0:0:
224,224,138731,1,8,0:0:0:0:
224,224,138889,1,8,0:0:0:0:
224,224,139047,1,8,0:0:0:0:
224,192,139205,1,0,0:0:0:0:
224,192,139363,1,0,0:0:0:0:
224,192,139521,1,0,0:0:0:0:
192,192,139678,1,8,0:0:0:0:
224,224,139836,1,8,0:0:0:0:
192,192,139994,1,0,0:0:0:0:
224,224,140152,1,8,0:0:0:0:
192,192,140310,1,0,0:0:0:0:
224,224,140468,1,8,0:0:0:0:
224,192,140626,1,0,0:0:0:0:
224,224,140784,1,8,0:0:0:0:
224,192,140942,1,0,0:0:0:0:
224,224,141100,1,8,0:0:0:0:
224,192,141257,1,0,0:0:0:0:
224,192,141415,1,0,0:0:0:0:
224,224,141573,1,8,0:0:0:0:
224,192,141731,1,0,0:0:0:0:
224,192,141889,1,0,0:0:0:0:
224,192,142047,1,8,0:0:0:0:
256,224,142205,1,0,0:0:0:0:
224,224,142363,1,0,0:0:0:0:
224,224,142521,1,8,0:0:0:0:
224,224,142678,1,0,0:0:0:0:
224,224,142836,1,8,0:0:0:0:
224,224,142994,1,0,0:0:0:0:
224,224,143152,1,8,0:0:0:0:
224,224,143310,1,0,0:0:0:0:
224,224,143468,1,8,0:0:0:0:
224,224,143626,1,0,0:0:0:0:
224,224,143784,1,8,0:0:0:0:
224,224,143942,1,0,0:0:0:0:
256,192,144100,8,0,150415,0:0:0:0:
