osu file format v14

[General]
AudioFilename: 296234_Awake___Supernova.mp3
AudioLeadIn: 0
PreviewTime: 40205
Countdown: 0
SampleSet: Soft
StackLeniency: 0.7
Mode: 3
LetterboxInBreaks: 0
SpecialStyle: 0
WidescreenStoryboard: 1

[Editor]
Bookmarks: 150415
DistanceSpacing: 0.8
BeatDivisor: 4
GridSize: 8
TimelineZoom: 1

[Metadata]
Title:Supernova
TitleUnicode:Supernova
Artist:Awake
ArtistUnicode:Awake
Creator:Razorflamekun
Version:5K NM
Source:Newgrounds
Tags:audio portal Kite Rawrthaas Z3nx Remillion Cross _Gezo_ Magic Bomb Blocko iJinJin rew0825
BeatmapID:615821
BeatmapSetID:261327

[Difficulty]
HPDrainRate:7
CircleSize:5
OverallDifficulty:7
ApproachRate:5
SliderMultiplier:1.4
SliderTickRate:1

[Events]
//Background and Video events
0,0,"Advent_SuperNova_Wallpaper_by_jbeave.jpg",0,0
//Break Periods
//Storyboard Layer 0 (Background)
//Storyboard Layer 1 (Fail)
//Storyboard Layer 2 (Pass)
//Storyboard Layer 3 (Foreground)
//Storyboard Sound Samples

[TimingPoints]
100,315.789473684211,4,2,0,10,1,0
19047,-100,4,2,0,10,0,0
20310,-100,4,1,1,10,0,0
36731,-100,4,1,1,10,0,0
39257,-100,4,1,1,10,0,0
40521,-100,4,1,1,10,0,1
60731,-100,4,1,0,10,0,0
61994,-100,4,1,1,10,0,0
77152,-100,4,1,1,10,0,0
78415,-100,4,1,1,10,0,0
79678,-100,4,1,1,10,0,0
80626,-100,4,1,1,10,0,0
80942,-100,4,1,1,10,0,0
82205,-100,4,1,0,10,0,0
83468,-100,4,1,1,10,0,0
92310,-100,4,1,1,10,0,0
93573,-100,4,1,1,10,0,1
133994,-100,4,2,1,10,0,0

[HitObjects]
51,192,100,5,0,0:0:0:0:
256,192,100,1,0,0:0:0:0:
460,192,100,1,0,0:0:0:0:
153,192,415,1,0,0:0:0:0:
256,192,573,1,0,0:0:0:0:
358,192,731,1,0,0:0:0:0:
460,192,1047,1,0,0:0:0:0:
51,192,1363,1,0,0:0:0:0:
153,192,1678,1,0,0:0:0:0:
358,192,1836,1,0,0:0:0:0:
153,192,1994,1,0,0:0:0:0:
256,192,2310,1,0,0:0:0:0:
460,192,2626,1,0,0:0:0:0:
51,192,2942,1,0,0:0:0:0:
256,192,3100,1,0,0:0:0:0:
153,192,3257,1,0,0:0:0:0:
358,192,3573,1,0,0:0:0:0:
153,192,3889,1,0,0:0:0:0:
256,192,4205,1,0,0:0:0:0:
460,192,4363,1,0,0:0:0:0:
358,192,4521,1,0,0:0:0:0:
256,192,4836,1,0,0:0:0:0:
51,192,5152,1,0,0:0:0:0:
358,192,5152,1,0,0:0:0:0:
153,192,5468,1,0,0:0:0:0:
256,192,5626,1,0,0:0:0:0:
460,192,5784,1,0,0:0:0:0:
358,192,6100,1,0,0:0:0:0:
51,192,6415,1,0,0:0:0:0:
256,192,6731,1,0,0:0:0:0:
460,192,6889,1,0,0:0:0:0:
51,192,7047,1,0,0:0:0:0:
153,192,7363,1,0,0:0:0:0:
358,192,7678,1,0,0:0:0:0:
460,192,7994,1,0,0:0:0:0:
256,192,8152,1,0,0:0:0:0:
51,192,8310,1,0,0:0:0:0:
460,192,8626,1,0,0:0:0:0:
358,192,8942,1,0,0:0:0:0:
153,192,9257,1,0,0:0:0:0:
256,192,9415,1,0,0:0:0:0:
51,192,9573,1,0,0:0:0:0:
358,192,9889,1,0,0:0:0:0:
153,192,10205,128,0,11468:0:0:0:0:
460,192,10205,1,0,0:0:0:0:
358,192,10521,1,0,0:0:0:0:
256,192,10836,128,0,11468:0:0:0:0:
51,192,10836,1,0,0:0:0:0:
358,192,11152,1,0,0:0:0:0:
460,192,11468,128,0,12100:0:0:0:0:
51,192,11784,1,0,0:0:0:0:
358,192,12100,1,0,0:0:0:0:
51,192,12415,1,0,0:0:0:0:
153,192,12731,1,0,0:0:0:0:
358,192,13047,1,0,0:0:0:0:
256,192,13205,1,0,0:0:0:0:
460,192,13363,1,0,0:0:0:0:
51,192,13678,1,0,0:0:0:0:
358,192,13994,1,0,0:0:0:0:
51,192,14310,1,0,0:0:0:0:
460,192,14468,1,0,0:0:0:0:
256,192,14626,1,0,0:0:0:0:
358,192,14942,1,0,0:0:0:0:
256,192,15257,128,0,16521:0:0:0:0:
51,192,15257,1,0,0:0:0:0:
358,192,15573,1,0,0:0:0:0:
153,192,15889,128,0,16521:0:0:0:0:
51,192,15889,1,0,0:0:0:0:
460,192,16205,1,0,0:0:0:0:
51,192,16521,128,0,17152:0:0:0:0:
358,192,16836,1,0,0:0:0:0:
256,192,17152,1,0,0:0:0:0:
153,192,17468,1,0,0:0:0:0:
51,192,17784,1,0,0:0:0:0:
460,192,17784,1,0,0:0:0:0:
153,192,18100,1,0,0:0:0:0:
358,192,18100,1,0,0:0:0:0:
256,192,18415,1,0,0:0:0:0:
460,192,18415,1,0,0:0:0:0:
358,192,18731,1,0,0:0:0:0:
51,192,18731,1,0,0:0:0:0:
153,192,19047,1,0,0:0:0:0:
460,192,19047,1,0,0:0:0:0:
256,192,19205,1,0,0:0:0:0:
358,192,19363,1,0,0:0:0:0:
460,192,19521,1,0,0:0:0:0:
153,192,19678,1,0,0:0:0:0:
256,192,19836,1,0,0:0:0:0:
358,192,19994,1,0,0:0:0:0:
51,192,20310,1,0,0:0:0:0:
256,192,20310,1,0,0:0:0:0:
460,192,20310,1,0,0:0:0:0:
153,192,20626,1,0,0:0:0:0:
358,192,20626,1,0,0:0:0:0:
256,192,20942,1,0,0:0:0:0:
460,192,21100,1,0,0:0:0:0:
358,192,21257,1,0,0:0:0:0:
51,192,21257,1,0,0:0:0:0:
51,192,21573,1,0,0:0:0:0:
256,192,21573,1,0,0:0:0:0:
460,192,21889,1,0,0:0:0:0:
153,192,21889,1,0,0:0:0:0:
256,192,22205,1,0,0:0:0:0:
460,192,22363,1,0,0:0:0:0:
51,192,22521,1,0,0:0:0:0:
358,192,22521,1,0,0:0:0:0:
153,192,22836,1,0,0:0:0:0:
358,192,22836,1,0,0:0:0:0:
256,192,23152,1,0,0:0:0:0:
460,192,23152,1,0,0:0:0:0:
153,192,23468,1,0,0:0:0:0:
256,192,23626,1,0,0:0:0:0:
460,192,23784,1,0,0:0:0:0:
51,192,23784,1,0,0:0:0:0:
358,192,24100,1,0,0:0:0:0:
153,192,24100,1,0,0:0:0:0:
51,192,24415,1,0,0:0:0:0:
460,192,24415,1,0,0:0:0:0:
51,192,24573,1,0,0:0:0:0:
460,192,24573,1,0,0:0:0:0:
256,192,24889,1,0,0:0:0:0:
358,192,24889,1,0,0:0:0:0:
256,192,25047,1,0,0:0:0:0:
358,192,25047,1,0,0:0:0:0:
460,192,25363,1,0,0:0:0:0:
51,192,25363,1,0,0:0:0:0:
153,192,25678,1,0,0:0:0:0:
358,192,25678,1,0,0:0:0:0:
460,192,25994,1,0,0:0:0:0:
358,192,26152,1,0,0:0:0:0:
51,192,26310,1,0,0:0:0:0:
256,192,26310,1,0,0:0:0:0:
460,192,26626,1,0,0:0:0:0:
358,192,26626,1,0,0:0:0:0:
51,192,26942,1,0,0:0:0:0:
153,192,26942,1,0,0:0:0:0:
256,192,27257,1,0,0:0:0:0:
358,192,27415,1,0,0:0:0:0:
51,192,27573,1,0,0:0:0:0:
460,192,27573,1,0,0:0:0:0:
256,192,27889,1,0,0:0:0:0:
153,192,27889,1,0,0:0:0:0:
460,192,28205,1,0,0:0:0:0:
358,192,28205,1,0,0:0:0:0:
358,192,28521,1,0,0:0:0:0:
153,192,28678,1,0,0:0:0:0:
358,192,28836,1,0,0:0:0:0:
460,192,28836,1,0,0:0:0:0:
51,192,29152,1,0,0:0:0:0:
256,192,29152,1,0,0:0:0:0:
358,192,29468,1,0,0:0:0:0:
460,192,29468,1,0,0:0:0:0:
358,192,29626,1,0,0:0:0:0:
460,192,29626,1,0,0:0:0:0:
153,192,29942,1,0,0:0:0:0:
256,192,29942,1,0,0:0:0:0:
153,192,30100,1,0,0:0:0:0:
256,192,30100,1,0,0:0:0:0:
460,192,30415,1,0,0:0:0:0:
358,192,30415,1,0,0:0:0:0:
51,192,30415,1,0,0:0:0:0:
256,192,30731,1,0,0:0:0:0:
460,192,30731,1,0,0:0:0:0:
256,192,31047,1,0,0:0:0:0:
51,192,31205,1,0,0:0:0:0:
153,192,31363,1,0,0:0:0:0:
460,192,31363,1,0,0:0:0:0:
51,192,31678,1,0,0:0:0:0:
256,192,31678,1,0,0:0:0:0:
256,192,31994,1,0,0:0:0:0:
358,192,31994,1,0,0:0:0:0:
51,192,32310,1,0,0:0:0:0:
460,192,32468,1,0,0:0:0:0:
358,192,32626,1,0,0:0:0:0:
153,192,32626,1,0,0:0:0:0:
460,192,32942,1,0,0:0:0:0:
153,192,32942,1,0,0:0:0:0:
51,192,33257,1,0,0:0:0:0:
256,192,33257,1,0,0:0:0:0:
153,192,33573,1,0,0:0:0:0:
358,192,33731,1,0,0:0:0:0:
153,192,33889,1,0,0:0:0:0:
256,192,33889,1,0,0:0:0:0:
460,192,34205,1,0,0:0:0:0:
51,192,34205,1,0,0:0:0:0:
153,192,34521,1,0,0:0:0:0:
460,192,34521,1,0,0:0:0:0:
460,192,34678,1,0,0:0:0:0:
153,192,34678,1,0,0:0:0:0:
256,192,34994,1,0,0:0:0:0:
358,192,34994,1,0,0:0:0:0:
358,192,35152,1,0,0:0:0:0:
256,192,35152,1,0,0:0:0:0:
358,192,35468,1,0,0:0:0:0:
460,192,35468,1,0,0:0:0:0:
51,192,35784,1,0,0:0:0:0:
256,192,35784,1,0,0:0:0:0:
153,192,36100,1,0,0:0:0:0:
460,192,36415,1,0,0:0:0:0:
358,192,36415,1,0,0:0:0:0:
358,192,36731,1,0,0:0:0:0:
51,192,37047,1,0,0:0:0:0:
256,192,37047,1,0,0:0:0:0:
460,192,37363,1,0,0:0:0:0:
153,192,37678,1,0,0:0:0:0:
256,192,37678,1,0,0:0:0:0:
51,192,37994,1,0,0:0:0:0:
460,192,38310,1,0,0:0:0:0:
358,192,38310,1,0,0:0:0:0:
153,192,38626,1,0,0:0:0:0:
358,192,38942,1,0,0:0:0:0:
256,192,38942,1,0,0:0:0:0:
51,192,39257,1,0,0:0:0:0:
460,192,39257,1,0,0:0:0:0:
256,192,39573,1,0,0:0:0:0:
460,192,39731,1,0,0:0:0:0:
153,192,39889,1,0,0:0:0:0:
358,192,39889,1,0,0:0:0:0:
51,192,40205,1,0,0:0:0:0:
460,192,40205,1,0,0:0:0:0:
358,192,40363,1,0,0:0:0:0:
153,192,40363,1,0,0:0:0:0:
51,192,40521,1,0,0:0:0:0:
256,192,40521,128,0,41310:0:0:0:0:
460,192,40521,1,0,0:0:0:0:
460,192,41310,1,0,0:0:0:0:
153,192,41310,128,0,41626:0:0:0:0:
358,192,41626,1,0,0:0:0:0:
51,192,41626,128,0,42257:0:0:0:0:
153,192,42257,1,0,0:0:0:0:
460,192,42257,128,0,42573:0:0:0:0:
358,192,42573,1,0,0:0:0:0:
256,192,42573,128,0,43047:0:0:0:0:
153,192,43047,1,0,0:0:0:0:
51,192,43047,128,0,44310:0:0:0:0:
153,192,44310,1,0,0:0:0:0:
358,192,44310,128,0,44784:0:0:0:0:
51,192,44784,1,0,0:0:0:0:
460,192,44784,128,0,45257:0:0:0:0:
51,192,45257,1,0,0:0:0:0:
153,192,45415,1,0,0:0:0:0:
358,192,45415,1,0,0:0:0:0:
51,192,45573,1,0,0:0:0:0:
460,192,45573,128,0,46363:0:0:0:0:
358,192,46363,1,0,0:0:0:0:
256,192,46363,128,0,46678:0:0:0:0:
153,192,46678,1,0,0:0:0:0:
51,192,46678,128,0,46994:0:0:0:0:
358,192,46994,1,0,0:0:0:0:
460,192,46994,128,0,47310:0:0:0:0:
153,192,47310,1,0,0:0:0:0:
256,192,47310,128,0,47626:0:0:0:0:
358,192,47626,1,0,0:0:0:0:
51,192,47626,128,0,48100:0:0:0:0:
460,192,48100,1,0,0:0:0:0:
256,192,48100,128,0,48573:0:0:0:0:
51,192,48573,1,0,0:0:0:0:
153,192,48573,128,0,50152:0:0:0:0:
460,192,49047,1,0,0:0:0:0:
51,192,49363,1,0,0:0:0:0:
358,192,49678,1,0,0:0:0:0:
358,192,49836,1,0,0:0:0:0:
256,192,50152,1,0,0:0:0:0:
256,192,50310,1,0,0:0:0:0:
256,192,50468,1,0,0:0:0:0:
256,192,50626,1,0,0:0:0:0:
358,192,50626,128,0,51415:0:0:0:0:
51,192,51415,1,0,0:0:0:0:
256,192,51415,128,0,51731:0:0:0:0:
460,192,51731,1,0,0:0:0:0:
358,192,51731,128,0,52363:0:0:0:0:
51,192,52363,1,0,0:0:0:0:
153,192,52363,128,0,52678:0:0:0:0:
460,192,52678,1,0,0:0:0:0:
51,192,52678,128,0,53152:0:0:0:0:
256,192,53152,1,0,0:0:0:0:
460,192,53152,128,0,54415:0:0:0:0:
153,192,54415,1,0,0:0:0:0:
358,192,54415,128,0,54889:0:0:0:0:
460,192,54889,1,0,0:0:0:0:
256,192,54889,128,0,55363:0:0:0:0:
153,192,55363,1,0,0:0:0:0:
358,192,55521,1,0,0:0:0:0:
460,192,55521,1,0,0:0:0:0:
153,192,55678,1,0,0:0:0:0:
51,192,55678,1,0,0:0:0:0:
460,192,56468,1,0,0:0:0:0:
256,192,56468,1,0,0:0:0:0:
51,192,56784,1,0,0:0:0:0:
256,192,56784,1,0,0:0:0:0:
358,192,57100,1,0,0:0:0:0:
460,192,57100,1,0,0:0:0:0:
256,192,57257,1,0,0:0:0:0:
153,192,57415,1,0,0:0:0:0:
51,192,57415,1,0,0:0:0:0:
358,192,57731,1,0,0:0:0:0:
460,192,57731,1,0,0:0:0:0:
256,192,57889,1,0,0:0:0:0:
153,192,58205,1,0,0:0:0:0:
51,192,58205,1,0,0:0:0:0:
460,192,58678,128,0,60731:0:0:0:0:
51,192,58678,1,0,0:0:0:0:
51,192,59152,1,0,0:0:0:0:
256,192,59152,1,0,0:0:0:0:
153,192,59468,1,0,0:0:0:0:
358,192,59784,1,0,0:0:0:0:
358,192,59942,1,0,0:0:0:0:
51,192,60100,128,0,60415:0:0:0:0:
256,192,60257,1,0,0:0:0:0:
256,192,60415,1,0,0:0:0:0:
153,192,60731,1,0,0:0:0:0:
358,192,60731,1,0,0:0:0:0:
51,192,61047,1,0,0:0:0:0:
460,192,61047,1,0,0:0:0:0:
256,192,61363,1,0,0:0:0:0:
51,192,61678,1,0,0:0:0:0:
460,192,61678,1,0,0:0:0:0:
256,192,61994,1,0,0:0:0:0:
358,192,62310,1,0,0:0:0:0:
358,192,62468,1,0,0:0:0:0:
153,192,62784,1,0,0:0:0:0:
153,192,62942,1,0,0:0:0:0:
51,192,63257,1,0,0:0:0:0:
153,192,63573,1,0,0:0:0:0:
460,192,63573,1,0,0:0:0:0:
358,192,63889,1,0,0:0:0:0:
256,192,64205,1,0,0:0:0:0:
460,192,64205,1,0,0:0:0:0:
153,192,64521,1,0,0:0:0:0:
51,192,64521,1,0,0:0:0:0:
460,192,64836,1,0,0:0:0:0:
460,192,64994,1,0,0:0:0:0:
358,192,65310,1,0,0:0:0:0:
358,192,65468,1,0,0:0:0:0:
153,192,65784,1,0,0:0:0:0:
460,192,66100,1,0,0:0:0:0:
51,192,66100,1,0,0:0:0:0:
256,192,66415,1,0,0:0:0:0:
358,192,66573,1,0,0:0:0:0:
460,192,66731,1,0,0:0:0:0:
51,192,66889,1,0,0:0:0:0:
153,192,67047,1,0,0:0:0:0:
51,192,67363,1,0,0:0:0:0:
51,192,67521,1,0,0:0:0:0:
358,192,67836,1,0,0:0:0:0:
358,192,67994,1,0,0:0:0:0:
153,192,68310,1,0,0:0:0:0:
460,192,68310,1,0,0:0:0:0:
256,192,68784,1,0,0:0:0:0:
256,192,68942,1,0,0:0:0:0:
256,192,69100,1,0,0:0:0:0:
51,192,69573,1,0,0:0:0:0:
460,192,69731,1,0,0:0:0:0:
358,192,69731,1,0,0:0:0:0:
256,192,70205,1,0,0:0:0:0:
51,192,70205,1,0,0:0:0:0:
358,192,70521,1,0,0:0:0:0:
153,192,70521,1,0,0:0:0:0:
51,192,70836,1,0,0:0:0:0:
460,192,70836,1,0,0:0:0:0:
256,192,71152,1,0,0:0:0:0:
460,192,71152,1,0,0:0:0:0:
358,192,71468,1,0,0:0:0:0:
256,192,71626,1,0,0:0:0:0:
153,192,71784,1,0,0:0:0:0:
51,192,71942,1,0,0:0:0:0:
460,192,72100,1,0,0:0:0:0:
256,192,72100,1,0,0:0:0:0:
358,192,72415,1,0,0:0:0:0:
358,192,72573,1,0,0:0:0:0:
153,192,72889,1,0,0:0:0:0:
153,192,73047,1,0,0:0:0:0:
256,192,73363,1,0,0:0:0:0:
460,192,73678,1,0,0:0:0:0:
51,192,73678,1,0,0:0:0:0:
153,192,73994,1,0,0:0:0:0:
358,192,74310,1,0,0:0:0:0:
460,192,74310,1,0,0:0:0:0:
153,192,74626,1,0,0:0:0:0:
256,192,74626,1,0,0:0:0:0:
51,192,74942,1,0,0:0:0:0:
51,192,75100,1,0,0:0:0:0:
460,192,75415,1,0,0:0:0:0:
460,192,75573,1,0,0:0:0:0:
51,192,75889,1,0,0:0:0:0:
358,192,75889,1,0,0:0:0:0:
256,192,76205,1,0,0:0:0:0:
460,192,76205,1,0,0:0:0:0:
51,192,76521,1,0,0:0:0:0:
153,192,76836,1,0,0:0:0:0:
460,192,76836,1,0,0:0:0:0:
358,192,77152,1,0,0:0:0:0:
256,192,77468,1,0,0:0:0:0:
256,192,77626,1,0,0:0:0:0:
460,192,77942,1,0,0:0:0:0:
460,192,78100,1,0,0:0:0:0:
51,192,78415,1,0,0:0:0:0:
153,192,78415,1,0,0:0:0:0:
358,192,78415,1,0,0:0:0:0:
256,192,78889,1,0,0:0:0:0:
256,192,79047,1,0,0:0:0:0:
256,192,79205,1,0,0:0:0:0:
153,192,79678,1,0,0:0:0:0:
358,192,79678,1,0,0:0:0:0:
460,192,79678,1,0,0:0:0:0:
51,192,80152,1,0,0:0:0:0:
51,192,80310,1,0,0:0:0:0:
51,192,80468,1,0,0:0:0:0:
256,192,80942,1,0,0:0:0:0:
358,192,80942,1,0,0:0:0:0:
153,192,80942,1,0,0:0:0:0:
460,192,81415,1,0,0:0:0:0:
460,192,81573,1,0,0:0:0:0:
460,192,81731,1,0,0:0:0:0:
51,192,82205,1,0,0:0:0:0:
51,192,82363,1,0,0:0:0:0:
358,192,82836,1,0,0:0:0:0:
153,192,82836,1,0,0:0:0:0:
460,192,83152,1,0,0:0:0:0:
153,192,83152,1,0,0:0:0:0:
51,192,83468,1,0,0:0:0:0:
256,192,83468,1,0,0:0:0:0:
153,192,83942,1,0,0:0:0:0:
256,192,84100,1,0,0:0:0:0:
460,192,84415,1,0,0:0:0:0:
358,192,84573,1,0,0:0:0:0:
256,192,84731,1,0,0:0:0:0:
153,192,84889,1,0,0:0:0:0:
51,192,85205,1,0,0:0:0:0:
153,192,85363,1,0,0:0:0:0:
256,192,85678,1,0,0:0:0:0:
358,192,85836,1,0,0:0:0:0:
460,192,85994,1,0,0:0:0:0:
358,192,86152,1,0,0:0:0:0:
256,192,86468,1,0,0:0:0:0:
153,192,86626,1,0,0:0:0:0:
51,192,86942,1,0,0:0:0:0:
153,192,87100,1,0,0:0:0:0:
256,192,87257,1,0,0:0:0:0:
358,192,87415,1,0,0:0:0:0:
256,192,87731,1,0,0:0:0:0:
358,192,87889,1,0,0:0:0:0:
460,192,88205,1,0,0:0:0:0:
256,192,88521,1,0,0:0:0:0:
153,192,88521,1,0,0:0:0:0:
51,192,88836,1,0,0:0:0:0:
358,192,88836,1,0,0:0:0:0:
460,192,89152,1,0,0:0:0:0:
256,192,89152,1,0,0:0:0:0:
153,192,89468,1,0,0:0:0:0:
51,192,89468,1,0,0:0:0:0:
256,192,89784,1,0,0:0:0:0:
358,192,89784,1,0,0:0:0:0:
460,192,90100,1,0,0:0:0:0:
153,192,90100,1,0,0:0:0:0:
51,192,90415,1,0,0:0:0:0:
153,192,90415,1,0,0:0:0:0:
256,192,90731,1,0,0:0:0:0:
460,192,90731,1,0,0:0:0:0:
460,192,91047,1,0,0:0:0:0:
51,192,91047,1,0,0:0:0:0:
153,192,91363,1,0,0:0:0:0:
256,192,91363,1,0,0:0:0:0:
358,192,91678,1,0,0:0:0:0:
460,192,91678,1,0,0:0:0:0:
51,192,91994,1,0,0:0:0:0:
153,192,91994,1,0,0:0:0:0:
51,192,92310,1,0,0:0:0:0:
256,192,92310,1,0,0:0:0:0:
460,192,92310,1,0,0:0:0:0:
153,192,92626,1,0,0:0:0:0:
358,192,92626,1,0,0:0:0:0:
51,192,92942,1,0,0:0:0:0:
460,192,92942,1,0,0:0:0:0:
153,192,93257,1,0,0:0:0:0:
358,192,93257,1,0,0:0:0:0:
256,192,93573,128,0,94836:0:0:0:0:
51,192,93573,1,0,0:0:0:0:
460,192,93573,1,0,0:0:0:0:
358,192,93889,1,0,0:0:0:0:
153,192,93889,1,0,0:0:0:0:
358,192,94205,1,0,0:0:0:0:
460,192,94363,1,0,0:0:0:0:
51,192,94521,1,0,0:0:0:0:
358,192,94836,128,0,96100:0:0:0:0:
153,192,95152,1,0,0:0:0:0:
51,192,95152,1,0,0:0:0:0:
256,192,95468,1,0,0:0:0:0:
460,192,95626,1,0,0:0:0:0:
51,192,95784,1,0,0:0:0:0:
153,192,96100,128,0,97363:0:0:0:0:
51,192,96415,1,0,0:0:0:0:
256,192,96415,1,0,0:0:0:0:
358,192,96731,1,0,0:0:0:0:
460,192,96889,1,0,0:0:0:0:
256,192,97047,1,0,0:0:0:0:
358,192,97363,128,0,98626:0:0:0:0:
51,192,97678,1,0,0:0:0:0:
460,192,97678,1,0,0:0:0:0:
153,192,97994,1,0,0:0:0:0:
256,192,98152,1,0,0:0:0:0:
460,192,98310,1,0,0:0:0:0:
153,192,98626,128,0,99889:0:0:0:0:
460,192,98942,1,0,0:0:0:0:
51,192,98942,1,0,0:0:0:0:
358,192,99257,1,0,0:0:0:0:
256,192,99415,1,0,0:0:0:0:
51,192,99573,1,0,0:0:0:0:
460,192,99889,128,0,101152:0:0:0:0:
358,192,100205,1,0,0:0:0:0:
256,192,100205,1,0,0:0:0:0:
51,192,100521,1,0,0:0:0:0:
153,192,100678,1,0,0:0:0:0:
256,192,100836,1,0,0:0:0:0:
153,192,101152,128,0,102415:0:0:0:0:
256,192,101468,1,0,0:0:0:0:
358,192,101468,1,0,0:0:0:0:
51,192,101784,1,0,0:0:0:0:
256,192,101942,1,0,0:0:0:0:
358,192,102100,1,0,0:0:0:0:
460,192,102415,128,0,103678:0:0:0:0:
358,192,102731,1,0,0:0:0:0:
51,192,102731,1,0,0:0:0:0:
256,192,103047,1,0,0:0:0:0:
153,192,103205,1,0,0:0:0:0:
51,192,103363,1,0,0:0:0:0:
153,192,103678,128,0,104942:0:0:0:0:
51,192,103994,1,0,0:0:0:0:
358,192,103994,1,0,0:0:0:0:
256,192,104310,1,0,0:0:0:0:
460,192,104468,1,0,0:0:0:0:
51,192,104626,1,0,0:0:0:0:
358,192,104942,128,0,106205:0:0:0:0:
51,192,105257,1,0,0:0:0:0:
256,192,105257,1,0,0:0:0:0:
460,192,105573,1,0,0:0:0:0:
51,192,105731,1,0,0:0:0:0:
153,192,105889,1,0,0:0:0:0:
256,192,106205,128,0,107468:0:0:0:0:
460,192,106521,1,0,0:0:0:0:
153,192,106521,1,0,0:0:0:0:
51,192,106836,1,0,0:0:0:0:
358,192,106994,1,0,0:0:0:0:
460,192,107152,1,0,0:0:0:0:
51,192,107468,128,0,108731:0:0:0:0:
358,192,107784,1,0,0:0:0:0:
460,192,107784,1,0,0:0:0:0:
153,192,108100,1,0,0:0:0:0:
256,192,108257,1,0,0:0:0:0:
358,192,108415,1,0,0:0:0:0:
256,192,108731,1,0,0:0:0:0:
460,192,108731,1,0,0:0:0:0:
153,192,109047,1,0,0:0:0:0:
358,192,109047,1,0,0:0:0:0:
51,192,109678,1,0,0:0:0:0:
460,192,109678,1,0,0:0:0:0:
153,192,109994,1,0,0:0:0:0:
358,192,109994,1,0,0:0:0:0:
51,192,110310,1,0,0:0:0:0:
256,192,110310,1,0,0:0:0:0:
256,192,110942,1,0,0:0:0:0:
358,192,110942,1,0,0:0:0:0:
153,192,111257,1,0,0:0:0:0:
51,192,111257,1,0,0:0:0:0:
460,192,111257,1,0,0:0:0:0:
256,192,111573,1,0,0:0:0:0:
153,192,111573,1,0,0:0:0:0:
460,192,112205,1,0,0:0:0:0:
153,192,112205,1,0,0:0:0:0:
51,192,112521,1,0,0:0:0:0:
358,192,112521,1,0,0:0:0:0:
153,192,112836,1,0,0:0:0:0:
256,192,112836,1,0,0:0:0:0:
153,192,113152,1,0,0:0:0:0:
358,192,113152,1,0,0:0:0:0:
51,192,113468,1,0,0:0:0:0:
460,192,113468,1,0,0:0:0:0:
256,192,113626,1,0,0:0:0:0:
153,192,113784,1,0,0:0:0:0:
358,192,113784,1,0,0:0:0:0:
460,192,113784,1,0,0:0:0:0:
51,192,114100,1,0,0:0:0:0:
358,192,114100,1,0,0:0:0:0:
256,192,114415,1,0,0:0:0:0:
460,192,114573,1,0,0:0:0:0:
358,192,114731,1,0,0:0:0:0:
256,192,114889,1,0,0:0:0:0:
153,192,114889,1,0,0:0:0:0:
51,192,115047,1,0,0:0:0:0:
153,192,115363,1,0,0:0:0:0:
358,192,115363,1,0,0:0:0:0:
51,192,115521,1,0,0:0:0:0:
256,192,115836,1,0,0:0:0:0:
358,192,115994,1,0,0:0:0:0:
460,192,115994,1,0,0:0:0:0:
153,192,116310,1,0,0:0:0:0:
256,192,116310,1,0,0:0:0:0:
51,192,116626,1,0,0:0:0:0:
358,192,116626,1,0,0:0:0:0:
460,192,116942,1,0,0:0:0:0:
153,192,117257,1,0,0:0:0:0:
51,192,117257,1,0,0:0:0:0:
358,192,117573,1,0,0:0:0:0:
460,192,117573,1,0,0:0:0:0:
153,192,117889,1,0,0:0:0:0:
51,192,117889,1,0,0:0:0:0:
256,192,118047,1,0,0:0:0:0:
358,192,118521,1,0,0:0:0:0:
256,192,118521,1,0,0:0:0:0:
460,192,118678,1,0,0:0:0:0:
153,192,118678,1,0,0:0:0:0:
51,192,118836,1,0,0:0:0:0:
256,192,118836,1,0,0:0:0:0:
256,192,119152,1,0,0:0:0:0:
358,192,119152,1,0,0:0:0:0:
153,192,119468,1,0,0:0:0:0:
256,192,119626,1,0,0:0:0:0:
358,192,119784,1,0,0:0:0:0:
51,192,119784,1,0,0:0:0:0:
460,192,119942,1,0,0:0:0:0:
358,192,120257,1,0,0:0:0:0:
256,192,120415,1,0,0:0:0:0:
51,192,120415,1,0,0:0:0:0:
358,192,120573,1,0,0:0:0:0:
153,192,120889,1,0,0:0:0:0:
358,192,121047,1,0,0:0:0:0:
256,192,121047,1,0,0:0:0:0:
460,192,121363,1,0,0:0:0:0:
153,192,121363,1,0,0:0:0:0:
358,192,121678,1,0,0:0:0:0:
256,192,121678,1,0,0:0:0:0:
153,192,121836,1,0,0:0:0:0:
51,192,122310,1,0,0:0:0:0:
358,192,122310,1,0,0:0:0:0:
256,192,122626,1,0,0:0:0:0:
460,192,122942,1,0,0:0:0:0:
153,192,122942,1,0,0:0:0:0:
51,192,123257,1,0,0:0:0:0:
256,192,123573,1,0,0:0:0:0:
460,192,123573,1,0,0:0:0:0:
153,192,123889,1,0,0:0:0:0:
51,192,123889,1,0,0:0:0:0:
460,192,124205,1,0,0:0:0:0:
358,192,124205,1,0,0:0:0:0:
358,192,124521,1,0,0:0:0:0:
153,192,124678,1,0,0:0:0:0:
256,192,124836,1,0,0:0:0:0:
51,192,124836,1,0,0:0:0:0:
358,192,124994,1,0,0:0:0:0:
358,192,125468,1,0,0:0:0:0:
460,192,125468,1,0,0:0:0:0:
153,192,125626,1,0,0:0:0:0:
51,192,125942,1,0,0:0:0:0:
358,192,126100,1,0,0:0:0:0:
256,192,126100,1,0,0:0:0:0:
460,192,126415,1,0,0:0:0:0:
358,192,126415,1,0,0:0:0:0:
51,192,126731,1,0,0:0:0:0:
153,192,126731,1,0,0:0:0:0:
358,192,127047,1,0,0:0:0:0:
256,192,127363,1,0,0:0:0:0:
153,192,127363,1,0,0:0:0:0:
51,192,127678,1,0,0:0:0:0:
460,192,127678,1,0,0:0:0:0:
153,192,127994,1,0,0:0:0:0:
256,192,127994,1,0,0:0:0:0:
358,192,128152,1,0,0:0:0:0:
51,192,128626,1,0,0:0:0:0:
153,192,128626,1,0,0:0:0:0:
256,192,128784,1,0,0:0:0:0:
460,192,128942,1,0,0:0:0:0:
358,192,128942,1,0,0:0:0:0:
358,192,129257,1,0,0:0:0:0:
153,192,129257,1,0,0:0:0:0:
51,192,129573,1,0,0:0:0:0:
256,192,129731,1,0,0:0:0:0:
51,192,129889,1,0,0:0:0:0:
153,192,129889,1,0,0:0:0:0:
358,192,130047,1,0,0:0:0:0:
153,192,130363,1,0,0:0:0:0:
256,192,130521,1,0,0:0:0:0:
51,192,130521,1,0,0:0:0:0:
358,192,130678,1,0,0:0:0:0:
256,192,130994,1,0,0:0:0:0:
153,192,131152,1,0,0:0:0:0:
460,192,131152,1,0,0:0:0:0:
51,192,131468,1,0,0:0:0:0:
153,192,131678,1,0,0:0:0:0:
358,192,131889,1,0,0:0:0:0:
460,192,132100,1,0,0:0:0:0:
153,192,132310,1,0,0:0:0:0:
256,192,132521,1,0,0:0:0:0:
460,192,132731,1,0,0:0:0:0:
51,192,132889,1,0,0:0:0:0:
153,192,133047,1,0,0:0:0:0:
256,192,133205,1,0,0:0:0:0:
358,192,133363,1,0,0:0:0:0:
460,192,133521,1,0,0:0:0:0:
51,192,133678,1,0,0:0:0:0:
153,192,133836,1,0,0:0:0:0:
256,192,133994,1,0,0:0:0:0:
358,192,133994,1,0,0:0:0:0:
153,192,134784,1,0,0:0:0:0:
460,192,135100,1,0,0:0:0:0:
51,192,135731,1,0,0:0:0:0:
256,192,136047,1,0,0:0:0:0:
460,192,136521,1,0,0:0:0:0:
51,192,136836,1,0,0:0:0:0:
153,192,137152,1,0,0:0:0:0:
256,192,137468,1,0,0:0:0:0:
153,192,137784,1,0,0:0:0:0:
460,192,138257,1,0,0:0:0:0:
358,192,138731,1,0,0:0:0:0:
256,192,138889,1,0,0:0:0:0:
153,192,139047,1,0,0:0:0:0:
51,192,139836,1,0,0:0:0:0:
358,192,140152,1,0,0:0:0:0:
460,192,140468,1,0,0:0:0:0:
358,192,140784,1,0,0:0:0:0:
153,192,141100,1,0,0:0:0:0:
51,192,141573,1,0,0:0:0:0:
460,192,141889,1,0,0:0:0:0:
358,192,142205,1,0,0:0:0:0:
51,192,142521,1,0,0:0:0:0:
153,192,142836,1,0,0:0:0:0:
256,192,143152,1,0,0:0:0:0:
358,192,143468,1,0,0:0:0:0:
256,192,143784,1,0,0:0:0:0:
51,192,144100,128,0,145363:0:0:0:0:
153,192,144415,1,0,0:0:0:0:
256,192,145047,1,0,0:0:0:0:
153,192,145363,128,0,146626:0:0:0:0:
358,192,145678,1,0,0:0:0:0:
460,192,146310,1,0,0:0:0:0:
256,192,146626,128,0,147889:0:0:0:0:
51,192,146942,1,0,0:0:0:0:
153,192,147573,1,0,0:0:0:0:
358,192,147889,128,0,149152:0:0:0:0:
256,192,148205,1,0,0:0:0:0:
460,192,148836,1,0,0:0:0:0:
460,192,149152,128,0,150415:0:0:0:0:
358,192,149626,128,0,150415:0:0:0:0:
