osu file format v14

[General]
AudioFilename: 296234_Awake___Supernova.mp3
AudioLeadIn: 0
PreviewTime: 40205
Countdown: 0
SampleSet: Normal
StackLeniency: 0.7
Mode: 3
LetterboxInBreaks: 0
SpecialStyle: 0
WidescreenStoryboard: 1

[Editor]
Bookmarks: 150415
DistanceSpacing: 0.8
BeatDivisor: 8
GridSize: 8
TimelineZoom: 1

[Metadata]
Title:Supernova
TitleUnicode:Supernova
Artist:Awake
ArtistUnicode:Awake
Creator:Razorflamekun
Version:4K SHD
Source:Newgrounds
Tags:audio portal Kite Rawrthaas Z3nx Remillion Cross _Gezo_ Magic Bomb Blocko iJinJin rew0825
BeatmapID:621395
BeatmapSetID:261327

[Difficulty]
HPDrainRate:8
CircleSize:4
OverallDifficulty:8
ApproachRate:5
SliderMultiplier:1.4
SliderTickRate:1

[Events]
//Background and Video events
0,0,"Advent_SuperNova_Wallpaper_by_jbeave.jpg",0,0
//Break Periods
//Storyboard Layer 0 (Background)
//Storyboard Layer 1 (Fail)
//Storyboard Layer 2 (Pass)
//Storyboard Layer 3 (Foreground)
//Storyboard Sound Samples

[TimingPoints]
100,315.789473684211,4,2,0,10,1,0
19047,-100,4,2,0,10,0,0
20310,-100,4,1,1,10,0,0
36731,-100,4,1,1,10,0,0
39257,-100,4,1,1,10,0,0
40521,-100,4,1,1,10,0,1
60731,-100,4,1,0,10,0,0
61994,-100,4,1,1,10,0,0
77152,-100,4,1,1,10,0,0
78415,-100,4,1,1,10,0,0
79678,-100,4,1,1,10,0,0
80626,-100,4,1,1,10,0,0
80942,-100,4,1,1,10,0,0
82205,-100,4,1,0,10,0,0
83468,-100,4,1,1,10,0,0
92310,-100,4,1,1,10,0,0
93573,-100,4,1,1,10,0,1
133994,-117.647058823529,4,2,1,10,0,0

[HitObjects]
64,192,100,5,0,0:0:0:0:
320,192,100,1,0,0:0:0:0:
448,192,100,1,0,0:0:0:0:
192,192,257,1,0,0:0:0:0:
64,192,415,1,0,0:0:0:0:
448,192,415,1,0,0:0:0:0:
192,192,573,1,0,0:0:0:0:
320,192,652,1,0,0:0:0:0:
64,192,731,1,0,0:0:0:0:
192,192,810,1,0,0:0:0:0:
320,192,889,1,0,0:0:0:0:
448,192,968,1,0,0:0:0:0:
64,192,1047,1,0,0:0:0:0:
192,192,1205,1,0,0:0:0:0:
320,192,1205,1,0,0:0:0:0:
448,192,1363,1,0,0:0:0:0:
320,192,1363,1,0,0:0:0:0:
192,192,1521,1,0,0:0:0:0:
448,192,1521,1,0,0:0:0:0:
64,192,1600,1,0,0:0:0:0:
192,192,1678,1,0,0:0:0:0:
320,192,1718,1,0,0:0:0:0:
192,192,1757,1,0,0:0:0:0:
448,192,1836,1,0,0:0:0:0:
448,192,1994,1,0,0:0:0:0:
320,192,2073,1,0,0:0:0:0:
448,192,2152,1,0,0:0:0:0:
192,192,2231,1,0,0:0:0:0:
320,192,2271,1,0,0:0:0:0:
448,192,2310,1,0,0:0:0:0:
64,192,2350,1,0,0:0:0:0:
192,192,2389,1,0,0:0:0:0:
320,192,2428,1,0,0:0:0:0:
448,192,2468,1,0,0:0:0:0:
64,192,2507,1,0,0:0:0:0:
192,192,2547,1,0,0:0:0:0:
320,192,2586,1,0,0:0:0:0:
448,192,2626,1,0,0:0:0:0:
320,192,2705,1,0,0:0:0:0:
448,192,2784,1,0,0:0:0:0:
192,192,2863,1,0,0:0:0:0:
64,192,3021,1,0,0:0:0:0:
192,192,3139,1,0,0:0:0:0:
320,192,3178,1,0,0:0:0:0:
448,192,3257,1,0,0:0:0:0:
64,192,3336,1,0,0:0:0:0:
192,192,3415,1,0,0:0:0:0:
320,192,3415,1,0,0:0:0:0:
448,192,3415,128,0,3573:0:0:0:0:
192,192,3573,1,0,0:0:0:0:
320,192,3573,1,0,0:0:0:0:
192,192,3731,1,0,0:0:0:0:
64,192,3731,1,0,0:0:0:0:
448,192,3889,1,0,0:0:0:0:
192,192,3889,1,0,0:0:0:0:
448,192,4047,1,0,0:0:0:0:
320,192,4086,1,0,0:0:0:0:
192,192,4126,1,0,0:0:0:0:
64,192,4165,1,0,0:0:0:0:
192,192,4205,1,0,0:0:0:0:
192,192,4363,1,0,0:0:0:0:
320,192,4402,1,0,0:0:0:0:
448,192,4442,1,0,0:0:0:0:
320,192,4481,1,0,0:0:0:0:
192,192,4521,1,0,0:0:0:0:
64,192,4560,1,0,0:0:0:0:
192,192,4600,1,0,0:0:0:0:
320,192,4639,1,0,0:0:0:0:
448,192,4678,1,0,0:0:0:0:
320,192,4718,1,0,0:0:0:0:
192,192,4757,1,0,0:0:0:0:
64,192,4797,1,0,0:0:0:0:
192,192,4836,1,0,0:0:0:0:
64,192,4994,1,0,0:0:0:0:
192,192,4994,1,0,0:0:0:0:
448,192,5152,1,0,0:0:0:0:
320,192,5152,1,0,0:0:0:0:
64,192,5152,1,0,0:0:0:0:
192,192,5152,1,0,0:0:0:0:
192,192,5310,1,0,0:0:0:0:
448,192,5310,1,0,0:0:0:0:
64,192,5468,1,0,0:0:0:0:
192,192,5468,1,0,0:0:0:0:
64,192,5626,1,0,0:0:0:0:
192,192,5705,1,0,0:0:0:0:
320,192,5784,1,0,0:0:0:0:
192,192,5863,1,0,0:0:0:0:
448,192,5942,1,0,0:0:0:0:
192,192,6021,1,0,0:0:0:0:
320,192,6100,1,0,0:0:0:0:
64,192,6178,1,0,0:0:0:0:
320,192,6257,1,0,0:0:0:0:
448,192,6336,1,0,0:0:0:0:
192,192,6415,1,0,0:0:0:0:
64,192,6494,1,0,0:0:0:0:
320,192,6573,1,0,0:0:0:0:
448,192,6652,1,0,0:0:0:0:
320,192,6731,1,0,0:0:0:0:
192,192,6810,1,0,0:0:0:0:
64,192,6889,1,0,0:0:0:0:
192,192,6928,1,0,0:0:0:0:
320,192,6968,1,0,0:0:0:0:
448,192,7007,1,0,0:0:0:0:
320,192,7047,1,0,0:0:0:0:
192,192,7086,1,0,0:0:0:0:
64,192,7126,1,0,0:0:0:0:
192,192,7165,1,0,0:0:0:0:
320,192,7205,1,0,0:0:0:0:
192,192,7284,1,0,0:0:0:0:
320,192,7363,1,0,0:0:0:0:
448,192,7402,1,0,0:0:0:0:
64,192,7442,1,0,0:0:0:0:
192,192,7481,1,0,0:0:0:0:
320,192,7521,1,0,0:0:0:0:
448,192,7560,1,0,0:0:0:0:
64,192,7600,1,0,0:0:0:0:
192,192,7639,1,0,0:0:0:0:
320,192,7678,1,0,0:0:0:0:
192,192,7757,1,0,0:0:0:0:
64,192,7836,1,0,0:0:0:0:
320,192,7915,1,0,0:0:0:0:
192,192,7994,1,0,0:0:0:0:
448,192,8073,1,0,0:0:0:0:
320,192,8152,1,0,0:0:0:0:
192,192,8231,1,0,0:0:0:0:
448,192,8310,1,0,0:0:0:0:
64,192,8389,1,0,0:0:0:0:
320,192,8468,1,0,0:0:0:0:
192,192,8547,1,0,0:0:0:0:
64,192,8626,1,0,0:0:0:0:
448,192,8705,1,0,0:0:0:0:
320,192,8784,1,0,0:0:0:0:
64,192,8863,1,0,0:0:0:0:
192,192,8902,1,0,0:0:0:0:
320,192,8942,1,0,0:0:0:0:
448,192,8981,1,0,0:0:0:0:
64,192,9021,1,0,0:0:0:0:
192,192,9060,1,0,0:0:0:0:
320,192,9100,1,0,0:0:0:0:
448,192,9178,1,0,0:0:0:0:
64,192,9218,1,0,0:0:0:0:
192,192,9257,1,0,0:0:0:0:
320,192,9297,1,0,0:0:0:0:
448,192,9336,1,0,0:0:0:0:
64,192,9376,1,0,0:0:0:0:
192,192,9415,1,0,0:0:0:0:
320,192,9494,1,0,0:0:0:0:
64,192,9573,1,0,0:0:0:0:
192,192,9652,1,0,0:0:0:0:
320,192,9731,1,0,0:0:0:0:
448,192,9810,1,0,0:0:0:0:
320,192,9889,1,0,0:0:0:0:
192,192,9968,1,0,0:0:0:0:
64,192,10047,1,0,0:0:0:0:
192,192,10126,1,0,0:0:0:0:
320,192,10205,1,0,0:0:0:0:
448,192,10205,128,0,11468:0:0:0:0:
64,192,10363,1,0,0:0:0:0:
192,192,10363,1,0,0:0:0:0:
320,192,10521,1,0,0:0:0:0:
192,192,10521,1,0,0:0:0:0:
64,192,10678,1,0,0:0:0:0:
320,192,10678,1,0,0:0:0:0:
192,192,10836,128,0,11468:0:0:0:0:
64,192,10836,1,0,0:0:0:0:
320,192,10994,1,0,0:0:0:0:
64,192,11152,1,0,0:0:0:0:
320,192,11310,1,0,0:0:0:0:
64,192,11468,128,0,12100:0:0:0:0:
448,192,11626,1,0,0:0:0:0:
192,192,11626,1,0,0:0:0:0:
192,192,11784,1,0,0:0:0:0:
320,192,11784,1,0,0:0:0:0:
448,192,11942,1,0,0:0:0:0:
320,192,11942,1,0,0:0:0:0:
192,192,12100,1,0,0:0:0:0:
448,192,12100,1,0,0:0:0:0:
320,192,12257,1,0,0:0:0:0:
192,192,12336,1,0,0:0:0:0:
64,192,12415,1,0,0:0:0:0:
320,192,12415,1,0,0:0:0:0:
320,192,12573,1,0,0:0:0:0:
448,192,12652,1,0,0:0:0:0:
192,192,12731,1,0,0:0:0:0:
64,192,12731,1,0,0:0:0:0:
64,192,12889,1,0,0:0:0:0:
192,192,12968,1,0,0:0:0:0:
320,192,13047,1,0,0:0:0:0:
64,192,13047,1,0,0:0:0:0:
448,192,13205,1,0,0:0:0:0:
192,192,13284,1,0,0:0:0:0:
320,192,13363,1,0,0:0:0:0:
448,192,13363,1,0,0:0:0:0:
192,192,13521,1,0,0:0:0:0:
320,192,13600,1,0,0:0:0:0:
64,192,13678,1,0,0:0:0:0:
448,192,13678,1,0,0:0:0:0:
320,192,13836,1,0,0:0:0:0:
192,192,13915,1,0,0:0:0:0:
320,192,13994,1,0,0:0:0:0:
448,192,13994,1,0,0:0:0:0:
64,192,14152,1,0,0:0:0:0:
192,192,14231,1,0,0:0:0:0:
320,192,14310,1,0,0:0:0:0:
64,192,14310,1,0,0:0:0:0:
448,192,14468,1,0,0:0:0:0:
192,192,14547,1,0,0:0:0:0:
320,192,14626,1,0,0:0:0:0:
448,192,14626,1,0,0:0:0:0:
64,192,14784,1,0,0:0:0:0:
192,192,14863,1,0,0:0:0:0:
320,192,14942,1,0,0:0:0:0:
64,192,14942,1,0,0:0:0:0:
448,192,15100,1,0,0:0:0:0:
320,192,15178,1,0,0:0:0:0:
192,192,15257,128,0,16521:0:0:0:0:
448,192,15257,1,0,0:0:0:0:
64,192,15257,1,0,0:0:0:0:
448,192,15415,1,0,0:0:0:0:
320,192,15415,1,0,0:0:0:0:
320,192,15573,1,0,0:0:0:0:
64,192,15573,1,0,0:0:0:0:
448,192,15731,1,0,0:0:0:0:
64,192,15731,1,0,0:0:0:0:
448,192,15889,128,0,16521:0:0:0:0:
320,192,15889,1,0,0:0:0:0:
64,192,16047,1,0,0:0:0:0:
320,192,16205,1,0,0:0:0:0:
64,192,16363,1,0,0:0:0:0:
64,192,16521,128,0,17152:0:0:0:0:
320,192,16678,1,0,0:0:0:0:
448,192,16678,1,0,0:0:0:0:
192,192,16836,1,0,0:0:0:0:
320,192,16836,1,0,0:0:0:0:
448,192,16994,1,0,0:0:0:0:
192,192,16994,1,0,0:0:0:0:
320,192,17152,1,0,0:0:0:0:
448,192,17152,1,0,0:0:0:0:
192,192,17310,1,0,0:0:0:0:
448,192,17310,1,0,0:0:0:0:
64,192,17468,1,0,0:0:0:0:
320,192,17468,1,0,0:0:0:0:
448,192,17626,1,0,0:0:0:0:
64,192,17626,1,0,0:0:0:0:
192,192,17784,1,0,0:0:0:0:
320,192,17784,1,0,0:0:0:0:
64,192,17784,1,0,0:0:0:0:
320,192,18100,1,0,0:0:0:0:
192,192,18100,1,0,0:0:0:0:
448,192,18100,1,0,0:0:0:0:
192,192,18415,1,0,0:0:0:0:
64,192,18415,1,0,0:0:0:0:
448,192,18415,1,0,0:0:0:0:
64,192,18731,1,0,0:0:0:0:
448,192,18731,1,0,0:0:0:0:
320,192,18731,1,0,0:0:0:0:
64,192,19047,1,0,0:0:0:0:
448,192,19047,1,0,0:0:0:0:
192,192,19047,1,0,0:0:0:0:
64,192,19205,1,0,0:0:0:0:
320,192,19205,1,0,0:0:0:0:
448,192,19205,1,0,0:0:0:0:
64,192,19363,1,0,0:0:0:0:
192,192,19363,1,0,0:0:0:0:
448,192,19363,1,0,0:0:0:0:
320,192,19521,1,0,0:0:0:0:
192,192,19600,1,0,0:0:0:0:
64,192,19678,1,0,0:0:0:0:
448,192,19757,1,0,0:0:0:0:
192,192,19836,1,0,0:0:0:0:
64,192,19915,1,0,0:0:0:0:
448,192,19994,1,0,0:0:0:0:
192,192,19994,1,0,0:0:0:0:
320,192,19994,1,0,0:0:0:0:
320,192,20310,1,0,0:0:0:0:
64,192,20310,1,0,0:0:0:0:
448,192,20310,1,0,0:0:0:0:
192,192,20350,1,0,0:0:0:0:
64,192,20389,1,0,0:0:0:0:
192,192,20428,1,0,0:0:0:0:
320,192,20468,1,0,0:0:0:0:
448,192,20547,1,0,0:0:0:0:
64,192,20626,1,0,0:0:0:0:
192,192,20626,1,0,0:0:0:0:
320,192,20626,1,0,0:0:0:0:
192,192,20784,1,0,0:0:0:0:
448,192,20784,1,0,0:0:0:0:
64,192,20863,1,0,0:0:0:0:
320,192,20942,1,0,0:0:0:0:
448,192,20942,1,0,0:0:0:0:
64,192,21021,1,0,0:0:0:0:
448,192,21100,1,0,0:0:0:0:
192,192,21100,1,0,0:0:0:0:
192,192,21257,1,0,0:0:0:0:
320,192,21257,1,0,0:0:0:0:
448,192,21257,1,0,0:0:0:0:
64,192,21415,1,0,0:0:0:0:
192,192,21415,1,0,0:0:0:0:
64,192,21573,1,0,0:0:0:0:
320,192,21573,1,0,0:0:0:0:
448,192,21613,1,0,0:0:0:0:
320,192,21652,1,0,0:0:0:0:
192,192,21692,1,0,0:0:0:0:
64,192,21731,1,0,0:0:0:0:
320,192,21810,1,0,0:0:0:0:
192,192,21889,1,0,0:0:0:0:
448,192,21889,1,0,0:0:0:0:
64,192,21889,1,0,0:0:0:0:
64,192,22047,1,0,0:0:0:0:
320,192,22047,1,0,0:0:0:0:
192,192,22126,1,0,0:0:0:0:
448,192,22205,1,0,0:0:0:0:
320,192,22205,1,0,0:0:0:0:
192,192,22284,1,0,0:0:0:0:
64,192,22363,1,0,0:0:0:0:
320,192,22363,1,0,0:0:0:0:
192,192,22521,1,0,0:0:0:0:
320,192,22521,1,0,0:0:0:0:
64,192,22521,1,0,0:0:0:0:
192,192,22678,1,0,0:0:0:0:
448,192,22678,1,0,0:0:0:0:
320,192,22836,1,0,0:0:0:0:
64,192,22836,1,0,0:0:0:0:
448,192,22876,1,0,0:0:0:0:
320,192,22915,1,0,0:0:0:0:
192,192,22955,1,0,0:0:0:0:
64,192,22994,1,0,0:0:0:0:
448,192,23034,1,0,0:0:0:0:
64,192,23152,1,0,0:0:0:0:
320,192,23152,1,0,0:0:0:0:
192,192,23152,1,0,0:0:0:0:
448,192,23310,1,0,0:0:0:0:
192,192,23310,1,0,0:0:0:0:
320,192,23389,1,0,0:0:0:0:
192,192,23468,1,0,0:0:0:0:
64,192,23468,1,0,0:0:0:0:
320,192,23547,1,0,0:0:0:0:
448,192,23626,1,0,0:0:0:0:
192,192,23626,1,0,0:0:0:0:
64,192,23784,1,0,0:0:0:0:
320,192,23784,1,0,0:0:0:0:
192,192,23784,1,0,0:0:0:0:
448,192,23942,1,0,0:0:0:0:
192,192,23942,1,0,0:0:0:0:
64,192,24100,1,0,0:0:0:0:
320,192,24100,1,0,0:0:0:0:
448,192,24415,1,0,0:0:0:0:
64,192,24415,1,0,0:0:0:0:
192,192,24415,1,0,0:0:0:0:
192,192,24573,1,0,0:0:0:0:
320,192,24573,1,0,0:0:0:0:
448,192,24652,1,0,0:0:0:0:
64,192,24731,1,0,0:0:0:0:
192,192,24731,1,0,0:0:0:0:
448,192,24810,1,0,0:0:0:0:
192,192,24889,1,0,0:0:0:0:
320,192,24889,1,0,0:0:0:0:
448,192,25047,128,0,25363:0:0:0:0:
64,192,25047,1,0,0:0:0:0:
192,192,25047,1,0,0:0:0:0:
320,192,25047,1,0,0:0:0:0:
320,192,25363,1,0,0:0:0:0:
192,192,25363,1,0,0:0:0:0:
64,192,25442,1,0,0:0:0:0:
192,192,25521,1,0,0:0:0:0:
320,192,25600,1,0,0:0:0:0:
64,192,25678,1,0,0:0:0:0:
192,192,25678,1,0,0:0:0:0:
448,192,25678,1,0,0:0:0:0:
320,192,25836,1,0,0:0:0:0:
192,192,25836,1,0,0:0:0:0:
64,192,25915,1,0,0:0:0:0:
192,192,25994,1,0,0:0:0:0:
320,192,25994,1,0,0:0:0:0:
448,192,26073,1,0,0:0:0:0:
192,192,26152,1,0,0:0:0:0:
320,192,26152,1,0,0:0:0:0:
448,192,26310,1,0,0:0:0:0:
320,192,26310,1,0,0:0:0:0:
64,192,26310,1,0,0:0:0:0:
192,192,26468,1,0,0:0:0:0:
320,192,26468,1,0,0:0:0:0:
64,192,26626,1,0,0:0:0:0:
448,192,26626,1,0,0:0:0:0:
320,192,26705,1,0,0:0:0:0:
192,192,26784,1,0,0:0:0:0:
320,192,26863,1,0,0:0:0:0:
64,192,26942,1,0,0:0:0:0:
192,192,26942,1,0,0:0:0:0:
448,192,26942,1,0,0:0:0:0:
448,192,27100,1,0,0:0:0:0:
64,192,27100,1,0,0:0:0:0:
192,192,27178,1,0,0:0:0:0:
320,192,27257,1,0,0:0:0:0:
448,192,27257,1,0,0:0:0:0:
192,192,27336,1,0,0:0:0:0:
64,192,27415,1,0,0:0:0:0:
448,192,27415,1,0,0:0:0:0:
64,192,27573,1,0,0:0:0:0:
192,192,27573,1,0,0:0:0:0:
320,192,27573,1,0,0:0:0:0:
448,192,27731,1,0,0:0:0:0:
192,192,27731,1,0,0:0:0:0:
192,192,27889,1,0,0:0:0:0:
448,192,27889,1,0,0:0:0:0:
320,192,27968,1,0,0:0:0:0:
192,192,28047,1,0,0:0:0:0:
320,192,28126,1,0,0:0:0:0:
64,192,28205,1,0,0:0:0:0:
192,192,28205,1,0,0:0:0:0:
448,192,28205,1,0,0:0:0:0:
320,192,28363,1,0,0:0:0:0:
64,192,28363,1,0,0:0:0:0:
448,192,28442,1,0,0:0:0:0:
192,192,28521,1,0,0:0:0:0:
64,192,28521,1,0,0:0:0:0:
448,192,28600,1,0,0:0:0:0:
64,192,28678,1,0,0:0:0:0:
320,192,28678,1,0,0:0:0:0:
192,192,28836,1,0,0:0:0:0:
448,192,28836,1,0,0:0:0:0:
320,192,28836,1,0,0:0:0:0:
64,192,28994,1,0,0:0:0:0:
448,192,28994,1,0,0:0:0:0:
192,192,29152,128,0,29626:0:0:0:0:
320,192,29152,1,0,0:0:0:0:
448,192,29152,1,0,0:0:0:0:
64,192,29231,1,0,0:0:0:0:
320,192,29310,1,0,0:0:0:0:
64,192,29468,1,0,0:0:0:0:
320,192,29468,1,0,0:0:0:0:
448,192,29468,1,0,0:0:0:0:
448,192,29626,128,0,30100:0:0:0:0:
64,192,29626,1,0,0:0:0:0:
64,192,29942,1,0,0:0:0:0:
192,192,29942,1,0,0:0:0:0:
64,192,30100,128,0,30415:0:0:0:0:
192,192,30100,1,0,0:0:0:0:
192,192,30415,1,0,0:0:0:0:
320,192,30415,1,0,0:0:0:0:
448,192,30494,1,0,0:0:0:0:
192,192,30573,1,0,0:0:0:0:
64,192,30652,1,0,0:0:0:0:
192,192,30731,1,0,0:0:0:0:
448,192,30731,1,0,0:0:0:0:
320,192,30731,1,0,0:0:0:0:
192,192,30889,1,0,0:0:0:0:
320,192,30889,1,0,0:0:0:0:
448,192,30968,1,0,0:0:0:0:
192,192,31047,1,0,0:0:0:0:
64,192,31047,1,0,0:0:0:0:
448,192,31126,1,0,0:0:0:0:
192,192,31205,1,0,0:0:0:0:
320,192,31205,1,0,0:0:0:0:
320,192,31363,1,0,0:0:0:0:
192,192,31363,1,0,0:0:0:0:
448,192,31363,1,0,0:0:0:0:
64,192,31521,1,0,0:0:0:0:
192,192,31521,1,0,0:0:0:0:
448,192,31678,1,0,0:0:0:0:
320,192,31678,1,0,0:0:0:0:
192,192,31757,1,0,0:0:0:0:
448,192,31836,1,0,0:0:0:0:
320,192,31915,1,0,0:0:0:0:
448,192,31994,1,0,0:0:0:0:
64,192,31994,1,0,0:0:0:0:
192,192,31994,1,0,0:0:0:0:
320,192,32152,1,0,0:0:0:0:
448,192,32152,1,0,0:0:0:0:
192,192,32231,1,0,0:0:0:0:
64,192,32310,1,0,0:0:0:0:
448,192,32310,1,0,0:0:0:0:
192,192,32389,1,0,0:0:0:0:
320,192,32468,1,0,0:0:0:0:
448,192,32468,1,0,0:0:0:0:
320,192,32626,1,0,0:0:0:0:
448,192,32626,1,0,0:0:0:0:
64,192,32626,1,0,0:0:0:0:
192,192,32784,1,0,0:0:0:0:
320,192,32784,1,0,0:0:0:0:
192,192,32942,1,0,0:0:0:0:
448,192,32942,1,0,0:0:0:0:
64,192,33021,1,0,0:0:0:0:
192,192,33100,1,0,0:0:0:0:
448,192,33178,1,0,0:0:0:0:
64,192,33257,1,0,0:0:0:0:
192,192,33257,1,0,0:0:0:0:
320,192,33257,1,0,0:0:0:0:
448,192,33415,1,0,0:0:0:0:
64,192,33415,1,0,0:0:0:0:
320,192,33494,1,0,0:0:0:0:
192,192,33573,1,0,0:0:0:0:
64,192,33573,1,0,0:0:0:0:
320,192,33652,1,0,0:0:0:0:
448,192,33731,1,0,0:0:0:0:
64,192,33731,1,0,0:0:0:0:
320,192,33889,1,0,0:0:0:0:
448,192,33889,1,0,0:0:0:0:
64,192,33889,1,0,0:0:0:0:
192,192,34047,1,0,0:0:0:0:
448,192,34047,1,0,0:0:0:0:
64,192,34205,1,0,0:0:0:0:
192,192,34205,1,0,0:0:0:0:
320,192,34205,1,0,0:0:0:0:
448,192,34284,1,0,0:0:0:0:
192,192,34363,1,0,0:0:0:0:
64,192,34442,1,0,0:0:0:0:
320,192,34521,1,0,0:0:0:0:
448,192,34521,1,0,0:0:0:0:
192,192,34521,1,0,0:0:0:0:
320,192,34678,1,0,0:0:0:0:
64,192,34678,1,0,0:0:0:0:
192,192,34678,1,0,0:0:0:0:
448,192,34757,1,0,0:0:0:0:
320,192,34836,1,0,0:0:0:0:
192,192,34915,1,0,0:0:0:0:
320,192,34994,1,0,0:0:0:0:
448,192,34994,1,0,0:0:0:0:
64,192,34994,1,0,0:0:0:0:
192,192,35152,1,0,0:0:0:0:
320,192,35152,1,0,0:0:0:0:
448,192,35152,1,0,0:0:0:0:
64,192,35310,1,0,0:0:0:0:
192,192,35310,1,0,0:0:0:0:
448,192,35468,1,0,0:0:0:0:
320,192,35468,1,0,0:0:0:0:
192,192,35468,1,0,0:0:0:0:
64,192,35547,1,0,0:0:0:0:
192,192,35626,1,0,0:0:0:0:
320,192,35705,1,0,0:0:0:0:
192,192,35784,1,0,0:0:0:0:
448,192,35784,1,0,0:0:0:0:
64,192,35863,1,0,0:0:0:0:
448,192,35942,1,0,0:0:0:0:
320,192,36021,1,0,0:0:0:0:
192,192,36100,1,0,0:0:0:0:
448,192,36178,1,0,0:0:0:0:
64,192,36257,1,0,0:0:0:0:
192,192,36336,1,0,0:0:0:0:
448,192,36415,1,0,0:0:0:0:
64,192,36415,1,0,0:0:0:0:
320,192,36494,1,0,0:0:0:0:
64,192,36573,1,0,0:0:0:0:
192,192,36652,1,0,0:0:0:0:
448,192,36731,1,0,0:0:0:0:
320,192,36810,1,0,0:0:0:0:
64,192,36889,1,0,0:0:0:0:
192,192,36968,1,0,0:0:0:0:
320,192,37047,1,0,0:0:0:0:
64,192,37047,1,0,0:0:0:0:
448,192,37126,1,0,0:0:0:0:
192,192,37205,1,0,0:0:0:0:
320,192,37284,1,0,0:0:0:0:
64,192,37363,1,0,0:0:0:0:
192,192,37442,1,0,0:0:0:0:
448,192,37521,1,0,0:0:0:0:
192,192,37600,1,0,0:0:0:0:
320,192,37678,1,0,0:0:0:0:
64,192,37678,1,0,0:0:0:0:
448,192,37757,1,0,0:0:0:0:
192,192,37836,1,0,0:0:0:0:
64,192,37915,1,0,0:0:0:0:
192,192,37994,1,0,0:0:0:0:
320,192,38073,1,0,0:0:0:0:
448,192,38152,1,0,0:0:0:0:
64,192,38231,1,0,0:0:0:0:
192,192,38310,1,0,0:0:0:0:
320,192,38310,1,0,0:0:0:0:
448,192,38389,1,0,0:0:0:0:
192,192,38468,1,0,0:0:0:0:
320,192,38547,1,0,0:0:0:0:
64,192,38626,1,0,0:0:0:0:
192,192,38705,1,0,0:0:0:0:
320,192,38784,1,0,0:0:0:0:
448,192,38863,1,0,0:0:0:0:
192,192,38942,1,0,0:0:0:0:
320,192,38942,1,0,0:0:0:0:
64,192,39021,1,0,0:0:0:0:
192,192,39100,1,0,0:0:0:0:
64,192,39178,1,0,0:0:0:0:
192,192,39257,1,0,0:0:0:0:
320,192,39257,1,0,0:0:0:0:
448,192,39336,1,0,0:0:0:0:
64,192,39336,1,0,0:0:0:0:
192,192,39415,1,0,0:0:0:0:
320,192,39415,1,0,0:0:0:0:
64,192,39494,1,0,0:0:0:0:
448,192,39494,1,0,0:0:0:0:
192,192,39573,1,0,0:0:0:0:
320,192,39573,1,0,0:0:0:0:
448,192,39652,1,0,0:0:0:0:
64,192,39652,1,0,0:0:0:0:
192,192,39731,1,0,0:0:0:0:
320,192,39731,1,0,0:0:0:0:
64,192,39810,1,0,0:0:0:0:
448,192,39810,1,0,0:0:0:0:
192,192,39889,1,0,0:0:0:0:
320,192,39889,1,0,0:0:0:0:
64,192,40205,1,0,0:0:0:0:
448,192,40205,1,0,0:0:0:0:
192,192,40363,1,0,0:0:0:0:
320,192,40363,1,0,0:0:0:0:
192,192,40521,1,0,0:0:0:0:
448,192,40521,1,0,0:0:0:0:
320,192,40521,1,0,0:0:0:0:
64,192,40560,1,0,0:0:0:0:
192,192,40600,1,0,0:0:0:0:
320,192,40639,1,0,0:0:0:0:
448,192,40678,1,0,0:0:0:0:
320,192,40757,1,0,0:0:0:0:
64,192,40836,1,0,0:0:0:0:
192,192,40836,1,0,0:0:0:0:
448,192,40836,1,0,0:0:0:0:
320,192,40994,1,0,0:0:0:0:
448,192,40994,1,0,0:0:0:0:
192,192,41073,1,0,0:0:0:0:
64,192,41152,1,0,0:0:0:0:
448,192,41152,1,0,0:0:0:0:
320,192,41231,1,0,0:0:0:0:
448,192,41310,1,0,0:0:0:0:
192,192,41310,1,0,0:0:0:0:
64,192,41310,1,0,0:0:0:0:
192,192,41468,1,0,0:0:0:0:
320,192,41468,1,0,0:0:0:0:
448,192,41468,1,0,0:0:0:0:
64,192,41626,1,0,0:0:0:0:
192,192,41626,1,0,0:0:0:0:
320,192,41626,1,0,0:0:0:0:
448,192,41784,1,0,0:0:0:0:
192,192,41784,1,0,0:0:0:0:
320,192,41823,1,0,0:0:0:0:
448,192,41863,1,0,0:0:0:0:
320,192,41902,1,0,0:0:0:0:
192,192,41942,1,0,0:0:0:0:
64,192,42021,1,0,0:0:0:0:
192,192,42100,1,0,0:0:0:0:
320,192,42100,1,0,0:0:0:0:
448,192,42100,1,0,0:0:0:0:
64,192,42257,1,0,0:0:0:0:
192,192,42257,1,0,0:0:0:0:
448,192,42257,1,0,0:0:0:0:
320,192,42336,1,0,0:0:0:0:
192,192,42415,1,0,0:0:0:0:
448,192,42415,1,0,0:0:0:0:
64,192,42494,1,0,0:0:0:0:
320,192,42573,1,0,0:0:0:0:
192,192,42573,1,0,0:0:0:0:
448,192,42573,1,0,0:0:0:0:
64,192,42731,1,0,0:0:0:0:
192,192,42731,1,0,0:0:0:0:
320,192,42731,1,0,0:0:0:0:
448,192,42889,1,0,0:0:0:0:
320,192,42889,1,0,0:0:0:0:
64,192,43047,1,0,0:0:0:0:
192,192,43047,1,0,0:0:0:0:
448,192,43047,1,0,0:0:0:0:
320,192,43086,1,0,0:0:0:0:
192,192,43126,1,0,0:0:0:0:
64,192,43165,1,0,0:0:0:0:
192,192,43205,1,0,0:0:0:0:
448,192,43284,1,0,0:0:0:0:
64,192,43363,1,0,0:0:0:0:
192,192,43363,1,0,0:0:0:0:
320,192,43363,1,0,0:0:0:0:
448,192,43521,1,0,0:0:0:0:
192,192,43521,1,0,0:0:0:0:
320,192,43600,1,0,0:0:0:0:
448,192,43678,1,0,0:0:0:0:
64,192,43678,1,0,0:0:0:0:
320,192,43757,1,0,0:0:0:0:
448,192,43836,1,0,0:0:0:0:
192,192,43836,1,0,0:0:0:0:
64,192,43994,1,0,0:0:0:0:
192,192,43994,1,0,0:0:0:0:
320,192,43994,1,0,0:0:0:0:
448,192,44152,1,0,0:0:0:0:
320,192,44152,1,0,0:0:0:0:
192,192,44310,1,0,0:0:0:0:
320,192,44310,1,0,0:0:0:0:
448,192,44310,1,0,0:0:0:0:
64,192,44350,1,0,0:0:0:0:
192,192,44389,1,0,0:0:0:0:
320,192,44428,1,0,0:0:0:0:
448,192,44468,1,0,0:0:0:0:
320,192,44547,1,0,0:0:0:0:
448,192,44626,1,0,0:0:0:0:
192,192,44626,1,0,0:0:0:0:
64,192,44626,1,0,0:0:0:0:
192,192,44784,1,0,0:0:0:0:
320,192,44784,1,0,0:0:0:0:
448,192,44784,1,0,0:0:0:0:
64,192,44863,1,0,0:0:0:0:
192,192,44942,1,0,0:0:0:0:
448,192,44942,1,0,0:0:0:0:
320,192,45021,1,0,0:0:0:0:
448,192,45100,1,0,0:0:0:0:
192,192,45100,1,0,0:0:0:0:
64,192,45257,1,0,0:0:0:0:
192,192,45257,1,0,0:0:0:0:
320,192,45257,1,0,0:0:0:0:
448,192,45415,1,0,0:0:0:0:
320,192,45415,1,0,0:0:0:0:
320,192,45573,1,0,0:0:0:0:
448,192,45573,1,0,0:0:0:0:
64,192,45573,1,0,0:0:0:0:
192,192,45613,1,0,0:0:0:0:
320,192,45652,1,0,0:0:0:0:
448,192,45692,1,0,0:0:0:0:
320,192,45731,1,0,0:0:0:0:
448,192,45810,1,0,0:0:0:0:
64,192,45889,1,0,0:0:0:0:
192,192,45889,1,0,0:0:0:0:
320,192,45889,1,0,0:0:0:0:
448,192,46047,1,0,0:0:0:0:
192,192,46047,1,0,0:0:0:0:
320,192,46126,1,0,0:0:0:0:
192,192,46205,1,0,0:0:0:0:
64,192,46205,1,0,0:0:0:0:
320,192,46284,1,0,0:0:0:0:
448,192,46363,1,0,0:0:0:0:
192,192,46363,1,0,0:0:0:0:
64,192,46363,1,0,0:0:0:0:
192,192,46521,1,0,0:0:0:0:
320,192,46521,1,0,0:0:0:0:
448,192,46521,1,0,0:0:0:0:
64,192,46678,1,0,0:0:0:0:
192,192,46678,1,0,0:0:0:0:
320,192,46678,1,0,0:0:0:0:
448,192,46836,1,0,0:0:0:0:
64,192,46876,1,0,0:0:0:0:
192,192,46915,1,0,0:0:0:0:
320,192,46955,1,0,0:0:0:0:
448,192,46994,1,0,0:0:0:0:
64,192,46994,1,0,0:0:0:0:
192,192,46994,1,0,0:0:0:0:
320,192,47073,1,0,0:0:0:0:
192,192,47152,1,0,0:0:0:0:
448,192,47152,1,0,0:0:0:0:
64,192,47152,1,0,0:0:0:0:
64,192,47310,1,0,0:0:0:0:
320,192,47310,1,0,0:0:0:0:
448,192,47310,1,0,0:0:0:0:
192,192,47389,1,0,0:0:0:0:
320,192,47468,1,0,0:0:0:0:
64,192,47468,1,0,0:0:0:0:
448,192,47547,1,0,0:0:0:0:
320,192,47626,1,0,0:0:0:0:
192,192,47626,1,0,0:0:0:0:
64,192,47626,1,0,0:0:0:0:
448,192,47784,1,0,0:0:0:0:
320,192,47784,1,0,0:0:0:0:
192,192,47784,1,0,0:0:0:0:
64,192,47942,1,0,0:0:0:0:
320,192,47942,1,0,0:0:0:0:
192,192,48100,1,0,0:0:0:0:
64,192,48100,1,0,0:0:0:0:
448,192,48100,1,0,0:0:0:0:
320,192,48139,1,0,0:0:0:0:
192,192,48178,1,0,0:0:0:0:
64,192,48218,1,0,0:0:0:0:
192,192,48257,1,0,0:0:0:0:
320,192,48336,1,0,0:0:0:0:
64,192,48415,1,0,0:0:0:0:
192,192,48415,1,0,0:0:0:0:
448,192,48415,1,0,0:0:0:0:
192,192,48573,1,0,0:0:0:0:
320,192,48573,1,0,0:0:0:0:
64,192,48573,1,0,0:0:0:0:
448,192,48652,1,0,0:0:0:0:
192,192,48731,1,0,0:0:0:0:
64,192,48731,1,0,0:0:0:0:
448,192,48810,1,0,0:0:0:0:
64,192,48889,1,0,0:0:0:0:
192,192,48889,1,0,0:0:0:0:
64,192,49047,1,0,0:0:0:0:
192,192,49047,1,0,0:0:0:0:
320,192,49047,1,0,0:0:0:0:
192,192,49205,1,0,0:0:0:0:
448,192,49205,1,0,0:0:0:0:
320,192,49363,1,0,0:0:0:0:
448,192,49363,1,0,0:0:0:0:
192,192,49363,1,0,0:0:0:0:
448,192,49678,1,0,0:0:0:0:
320,192,49678,1,0,0:0:0:0:
64,192,49678,1,0,0:0:0:0:
64,192,49836,1,0,0:0:0:0:
192,192,49836,1,0,0:0:0:0:
320,192,49915,1,0,0:0:0:0:
448,192,49994,1,0,0:0:0:0:
192,192,49994,1,0,0:0:0:0:
320,192,50073,1,0,0:0:0:0:
192,192,50152,1,0,0:0:0:0:
64,192,50152,1,0,0:0:0:0:
448,192,50310,1,0,0:0:0:0:
192,192,50310,1,0,0:0:0:0:
64,192,50310,1,0,0:0:0:0:
64,192,50468,1,0,0:0:0:0:
320,192,50468,1,0,0:0:0:0:
192,192,50626,1,0,0:0:0:0:
320,192,50626,1,0,0:0:0:0:
448,192,50626,1,0,0:0:0:0:
64,192,50665,1,0,0:0:0:0:
192,192,50705,1,0,0:0:0:0:
320,192,50744,1,0,0:0:0:0:
448,192,50784,1,0,0:0:0:0:
320,192,50863,1,0,0:0:0:0:
192,192,50942,1,0,0:0:0:0:
64,192,50942,1,0,0:0:0:0:
448,192,50942,1,0,0:0:0:0:
320,192,51100,1,0,0:0:0:0:
192,192,51100,1,0,0:0:0:0:
448,192,51178,1,0,0:0:0:0:
64,192,51257,1,0,0:0:0:0:
192,192,51257,1,0,0:0:0:0:
320,192,51336,1,0,0:0:0:0:
192,192,51415,1,0,0:0:0:0:
448,192,51415,1,0,0:0:0:0:
64,192,51415,1,0,0:0:0:0:
192,192,51573,1,0,0:0:0:0:
64,192,51573,1,0,0:0:0:0:
320,192,51573,1,0,0:0:0:0:
448,192,51731,1,0,0:0:0:0:
320,192,51731,1,0,0:0:0:0:
192,192,51731,1,0,0:0:0:0:
192,192,51889,1,0,0:0:0:0:
64,192,51889,1,0,0:0:0:0:
320,192,51928,1,0,0:0:0:0:
448,192,51968,1,0,0:0:0:0:
320,192,52007,1,0,0:0:0:0:
192,192,52047,1,0,0:0:0:0:
448,192,52126,1,0,0:0:0:0:
64,192,52205,1,0,0:0:0:0:
192,192,52205,1,0,0:0:0:0:
320,192,52205,1,0,0:0:0:0:
448,192,52363,1,0,0:0:0:0:
192,192,52363,1,0,0:0:0:0:
320,192,52442,1,0,0:0:0:0:
192,192,52521,1,0,0:0:0:0:
448,192,52521,1,0,0:0:0:0:
64,192,52600,1,0,0:0:0:0:
192,192,52678,1,0,0:0:0:0:
320,192,52678,1,0,0:0:0:0:
448,192,52678,1,0,0:0:0:0:
64,192,52836,1,0,0:0:0:0:
320,192,52836,1,0,0:0:0:0:
448,192,52836,1,0,0:0:0:0:
192,192,52994,1,0,0:0:0:0:
320,192,52994,1,0,0:0:0:0:
64,192,53152,1,0,0:0:0:0:
192,192,53152,1,0,0:0:0:0:
320,192,53152,1,0,0:0:0:0:
448,192,53192,1,0,0:0:0:0:
320,192,53231,1,0,0:0:0:0:
192,192,53271,1,0,0:0:0:0:
64,192,53310,1,0,0:0:0:0:
192,192,53389,1,0,0:0:0:0:
64,192,53468,1,0,0:0:0:0:
320,192,53468,1,0,0:0:0:0:
448,192,53468,1,0,0:0:0:0:
192,192,53626,1,0,0:0:0:0:
448,192,53626,1,0,0:0:0:0:
320,192,53705,1,0,0:0:0:0:
64,192,53784,1,0,0:0:0:0:
192,192,53784,1,0,0:0:0:0:
448,192,53863,1,0,0:0:0:0:
320,192,53942,1,0,0:0:0:0:
192,192,53942,1,0,0:0:0:0:
192,192,54100,1,0,0:0:0:0:
448,192,54100,1,0,0:0:0:0:
64,192,54100,1,0,0:0:0:0:
320,192,54257,1,0,0:0:0:0:
192,192,54257,1,0,0:0:0:0:
448,192,54415,1,0,0:0:0:0:
320,192,54415,1,0,0:0:0:0:
192,192,54415,1,0,0:0:0:0:
64,192,54455,1,0,0:0:0:0:
192,192,54494,1,0,0:0:0:0:
320,192,54534,1,0,0:0:0:0:
448,192,54573,1,0,0:0:0:0:
320,192,54652,1,0,0:0:0:0:
448,192,54731,1,0,0:0:0:0:
192,192,54731,1,0,0:0:0:0:
64,192,54731,1,0,0:0:0:0:
192,192,54889,1,0,0:0:0:0:
320,192,54889,1,0,0:0:0:0:
448,192,54889,1,0,0:0:0:0:
64,192,54968,1,0,0:0:0:0:
448,192,55047,1,0,0:0:0:0:
320,192,55047,1,0,0:0:0:0:
192,192,55126,1,0,0:0:0:0:
320,192,55205,1,0,0:0:0:0:
64,192,55205,1,0,0:0:0:0:
192,192,55363,1,0,0:0:0:0:
64,192,55363,1,0,0:0:0:0:
448,192,55363,1,0,0:0:0:0:
320,192,55521,1,0,0:0:0:0:
448,192,55521,1,0,0:0:0:0:
192,192,55678,1,0,0:0:0:0:
320,192,55678,1,0,0:0:0:0:
448,192,55678,1,0,0:0:0:0:
64,192,55757,1,0,0:0:0:0:
192,192,55836,1,0,0:0:0:0:
320,192,55915,1,0,0:0:0:0:
448,192,55994,1,0,0:0:0:0:
192,192,55994,1,0,0:0:0:0:
64,192,55994,1,0,0:0:0:0:
320,192,56073,1,0,0:0:0:0:
192,192,56152,1,0,0:0:0:0:
64,192,56231,1,0,0:0:0:0:
192,192,56310,1,0,0:0:0:0:
320,192,56389,1,0,0:0:0:0:
448,192,56468,1,0,0:0:0:0:
192,192,56468,1,0,0:0:0:0:
64,192,56468,1,0,0:0:0:0:
192,192,56626,1,0,0:0:0:0:
320,192,56626,1,0,0:0:0:0:
448,192,56626,1,0,0:0:0:0:
64,192,56784,1,0,0:0:0:0:
192,192,56784,1,0,0:0:0:0:
320,192,56784,1,0,0:0:0:0:
192,192,56942,1,0,0:0:0:0:
448,192,56942,1,0,0:0:0:0:
64,192,57021,1,0,0:0:0:0:
448,192,57100,1,0,0:0:0:0:
320,192,57100,1,0,0:0:0:0:
64,192,57178,1,0,0:0:0:0:
192,192,57257,1,0,0:0:0:0:
320,192,57257,1,0,0:0:0:0:
448,192,57336,1,0,0:0:0:0:
192,192,57415,1,0,0:0:0:0:
64,192,57415,1,0,0:0:0:0:
448,192,57494,1,0,0:0:0:0:
320,192,57573,1,0,0:0:0:0:
64,192,57573,1,0,0:0:0:0:
448,192,57652,1,0,0:0:0:0:
320,192,57731,1,0,0:0:0:0:
192,192,57731,1,0,0:0:0:0:
448,192,57810,1,0,0:0:0:0:
64,192,57889,1,0,0:0:0:0:
192,192,57889,1,0,0:0:0:0:
320,192,57968,1,0,0:0:0:0:
448,192,58047,1,0,0:0:0:0:
192,192,58047,1,0,0:0:0:0:
64,192,58126,1,0,0:0:0:0:
320,192,58205,128,0,58678:0:0:0:0:
448,192,58205,1,0,0:0:0:0:
192,192,58205,1,0,0:0:0:0:
64,192,58284,1,0,0:0:0:0:
448,192,58363,1,0,0:0:0:0:
192,192,58442,1,0,0:0:0:0:
64,192,58521,1,0,0:0:0:0:
192,192,58600,1,0,0:0:0:0:
448,192,58678,128,0,60731:0:0:0:0:
64,192,58678,1,0,0:0:0:0:
192,192,58757,1,0,0:0:0:0:
320,192,58836,1,0,0:0:0:0:
192,192,58915,1,0,0:0:0:0:
64,192,58994,1,0,0:0:0:0:
320,192,59073,1,0,0:0:0:0:
192,192,59152,1,0,0:0:0:0:
64,192,59231,1,0,0:0:0:0:
320,192,59310,1,0,0:0:0:0:
192,192,59389,1,0,0:0:0:0:
64,192,59468,1,0,0:0:0:0:
320,192,59547,1,0,0:0:0:0:
192,192,59626,1,0,0:0:0:0:
64,192,59705,1,0,0:0:0:0:
320,192,59784,1,0,0:0:0:0:
192,192,59863,1,0,0:0:0:0:
64,192,59942,1,0,0:0:0:0:
320,192,60021,1,0,0:0:0:0:
192,192,60100,1,0,0:0:0:0:
64,192,60100,128,0,60415:0:0:0:0:
320,192,60415,1,0,0:0:0:0:
64,192,60731,1,0,0:0:0:0:
192,192,60731,1,0,0:0:0:0:
320,192,60731,1,0,0:0:0:0:
192,192,60889,1,0,0:0:0:0:
320,192,60889,1,0,0:0:0:0:
64,192,61047,1,0,0:0:0:0:
320,192,61047,1,0,0:0:0:0:
448,192,61047,1,0,0:0:0:0:
192,192,61205,1,0,0:0:0:0:
448,192,61205,1,0,0:0:0:0:
64,192,61363,1,0,0:0:0:0:
192,192,61363,1,0,0:0:0:0:
448,192,61521,1,0,0:0:0:0:
192,192,61521,1,0,0:0:0:0:
64,192,61678,1,0,0:0:0:0:
320,192,61678,1,0,0:0:0:0:
448,192,61678,1,0,0:0:0:0:
192,192,61836,1,0,0:0:0:0:
320,192,61836,1,0,0:0:0:0:
64,192,61994,1,0,0:0:0:0:
320,192,61994,1,0,0:0:0:0:
448,192,62034,1,0,0:0:0:0:
320,192,62073,1,0,0:0:0:0:
192,192,62113,1,0,0:0:0:0:
64,192,62152,1,0,0:0:0:0:
192,192,62231,1,0,0:0:0:0:
448,192,62310,1,0,0:0:0:0:
64,192,62310,1,0,0:0:0:0:
320,192,62310,1,0,0:0:0:0:
64,192,62468,1,0,0:0:0:0:
192,192,62468,1,0,0:0:0:0:
320,192,62547,1,0,0:0:0:0:
448,192,62626,1,0,0:0:0:0:
192,192,62626,1,0,0:0:0:0:
320,192,62705,1,0,0:0:0:0:
192,192,62784,1,0,0:0:0:0:
64,192,62784,1,0,0:0:0:0:
192,192,62942,1,0,0:0:0:0:
320,192,62942,1,0,0:0:0:0:
448,192,62942,1,0,0:0:0:0:
64,192,63100,1,0,0:0:0:0:
192,192,63100,1,0,0:0:0:0:
320,192,63257,1,0,0:0:0:0:
448,192,63257,1,0,0:0:0:0:
192,192,63297,1,0,0:0:0:0:
320,192,63336,1,0,0:0:0:0:
448,192,63376,1,0,0:0:0:0:
320,192,63415,1,0,0:0:0:0:
192,192,63494,1,0,0:0:0:0:
448,192,63573,1,0,0:0:0:0:
320,192,63573,1,0,0:0:0:0:
64,192,63573,1,0,0:0:0:0:
320,192,63731,1,0,0:0:0:0:
192,192,63731,1,0,0:0:0:0:
448,192,63810,1,0,0:0:0:0:
192,192,63889,1,0,0:0:0:0:
320,192,63889,1,0,0:0:0:0:
64,192,63968,1,0,0:0:0:0:
192,192,64047,1,0,0:0:0:0:
320,192,64047,1,0,0:0:0:0:
320,192,64205,1,0,0:0:0:0:
448,192,64205,1,0,0:0:0:0:
64,192,64205,1,0,0:0:0:0:
192,192,64363,1,0,0:0:0:0:
320,192,64363,1,0,0:0:0:0:
448,192,64363,1,0,0:0:0:0:
64,192,64521,1,0,0:0:0:0:
192,192,64521,1,0,0:0:0:0:
320,192,64521,1,0,0:0:0:0:
448,192,64560,1,0,0:0:0:0:
320,192,64600,1,0,0:0:0:0:
192,192,64639,1,0,0:0:0:0:
64,192,64678,1,0,0:0:0:0:
192,192,64757,1,0,0:0:0:0:
448,192,64836,1,0,0:0:0:0:
320,192,64836,1,0,0:0:0:0:
64,192,64836,1,0,0:0:0:0:
64,192,64994,1,0,0:0:0:0:
192,192,64994,1,0,0:0:0:0:
320,192,65073,1,0,0:0:0:0:
448,192,65152,1,0,0:0:0:0:
192,192,65152,1,0,0:0:0:0:
320,192,65231,1,0,0:0:0:0:
192,192,65310,1,0,0:0:0:0:
64,192,65310,1,0,0:0:0:0:
192,192,65468,1,0,0:0:0:0:
320,192,65468,1,0,0:0:0:0:
448,192,65468,1,0,0:0:0:0:
64,192,65626,1,0,0:0:0:0:
192,192,65626,1,0,0:0:0:0:
192,192,65784,1,0,0:0:0:0:
320,192,65784,1,0,0:0:0:0:
448,192,65784,1,0,0:0:0:0:
64,192,65942,1,0,0:0:0:0:
192,192,65942,1,0,0:0:0:0:
448,192,65942,1,0,0:0:0:0:
192,192,66100,1,0,0:0:0:0:
64,192,66100,1,0,0:0:0:0:
320,192,66100,1,0,0:0:0:0:
448,192,66257,1,0,0:0:0:0:
320,192,66257,1,0,0:0:0:0:
192,192,66257,1,0,0:0:0:0:
64,192,66415,1,0,0:0:0:0:
192,192,66415,1,0,0:0:0:0:
448,192,66415,1,0,0:0:0:0:
448,192,66573,1,0,0:0:0:0:
320,192,66573,1,0,0:0:0:0:
64,192,66573,1,0,0:0:0:0:
64,192,66731,1,0,0:0:0:0:
192,192,66731,1,0,0:0:0:0:
320,192,66731,1,0,0:0:0:0:
64,192,66889,1,0,0:0:0:0:
448,192,66889,1,0,0:0:0:0:
192,192,66889,1,0,0:0:0:0:
192,192,67047,1,0,0:0:0:0:
320,192,67047,1,0,0:0:0:0:
448,192,67047,1,0,0:0:0:0:
64,192,67086,1,0,0:0:0:0:
192,192,67126,1,0,0:0:0:0:
320,192,67165,1,0,0:0:0:0:
448,192,67205,1,0,0:0:0:0:
320,192,67284,1,0,0:0:0:0:
448,192,67363,1,0,0:0:0:0:
192,192,67363,1,0,0:0:0:0:
64,192,67363,1,0,0:0:0:0:
320,192,67521,1,0,0:0:0:0:
448,192,67521,1,0,0:0:0:0:
192,192,67600,1,0,0:0:0:0:
320,192,67678,1,0,0:0:0:0:
448,192,67678,1,0,0:0:0:0:
192,192,67757,1,0,0:0:0:0:
320,192,67836,1,0,0:0:0:0:
448,192,67836,1,0,0:0:0:0:
64,192,67994,1,0,0:0:0:0:
192,192,67994,1,0,0:0:0:0:
320,192,67994,1,0,0:0:0:0:
320,192,68152,1,0,0:0:0:0:
448,192,68152,1,0,0:0:0:0:
64,192,68310,1,0,0:0:0:0:
192,192,68310,1,0,0:0:0:0:
320,192,68350,1,0,0:0:0:0:
192,192,68389,1,0,0:0:0:0:
64,192,68428,1,0,0:0:0:0:
192,192,68468,1,0,0:0:0:0:
448,192,68547,1,0,0:0:0:0:
64,192,68626,1,0,0:0:0:0:
192,192,68626,1,0,0:0:0:0:
320,192,68626,1,0,0:0:0:0:
320,192,68784,1,0,0:0:0:0:
448,192,68784,1,0,0:0:0:0:
64,192,68863,1,0,0:0:0:0:
320,192,68942,1,0,0:0:0:0:
448,192,68942,1,0,0:0:0:0:
64,192,69021,1,0,0:0:0:0:
320,192,69100,1,0,0:0:0:0:
448,192,69100,1,0,0:0:0:0:
448,192,69257,1,0,0:0:0:0:
320,192,69257,1,0,0:0:0:0:
192,192,69257,1,0,0:0:0:0:
64,192,69415,1,0,0:0:0:0:
192,192,69415,1,0,0:0:0:0:
448,192,69573,1,0,0:0:0:0:
320,192,69573,1,0,0:0:0:0:
192,192,69613,1,0,0:0:0:0:
64,192,69652,1,0,0:0:0:0:
448,192,69692,1,0,0:0:0:0:
64,192,69731,1,0,0:0:0:0:
320,192,69731,1,0,0:0:0:0:
448,192,69889,1,0,0:0:0:0:
320,192,69889,1,0,0:0:0:0:
192,192,69889,1,0,0:0:0:0:
64,192,70047,1,0,0:0:0:0:
192,192,70047,1,0,0:0:0:0:
448,192,70126,1,0,0:0:0:0:
64,192,70205,1,0,0:0:0:0:
192,192,70205,1,0,0:0:0:0:
320,192,70205,1,0,0:0:0:0:
448,192,70284,1,0,0:0:0:0:
64,192,70363,1,0,0:0:0:0:
192,192,70363,1,0,0:0:0:0:
64,192,70521,1,0,0:0:0:0:
192,192,70521,1,0,0:0:0:0:
320,192,70521,1,0,0:0:0:0:
448,192,70678,1,0,0:0:0:0:
320,192,70678,1,0,0:0:0:0:
64,192,70836,1,0,0:0:0:0:
192,192,70836,1,0,0:0:0:0:
320,192,70876,1,0,0:0:0:0:
448,192,70915,1,0,0:0:0:0:
320,192,70955,1,0,0:0:0:0:
192,192,70994,1,0,0:0:0:0:
320,192,71073,1,0,0:0:0:0:
64,192,71152,1,0,0:0:0:0:
192,192,71152,1,0,0:0:0:0:
448,192,71152,1,0,0:0:0:0:
320,192,71310,1,0,0:0:0:0:
192,192,71310,1,0,0:0:0:0:
448,192,71389,1,0,0:0:0:0:
192,192,71468,1,0,0:0:0:0:
64,192,71468,1,0,0:0:0:0:
448,192,71547,1,0,0:0:0:0:
320,192,71626,1,0,0:0:0:0:
192,192,71626,1,0,0:0:0:0:
192,192,71784,1,0,0:0:0:0:
64,192,71784,1,0,0:0:0:0:
448,192,71784,1,0,0:0:0:0:
192,192,71942,1,0,0:0:0:0:
320,192,71942,1,0,0:0:0:0:
64,192,72100,1,0,0:0:0:0:
448,192,72100,1,0,0:0:0:0:
192,192,72139,1,0,0:0:0:0:
320,192,72178,1,0,0:0:0:0:
448,192,72218,1,0,0:0:0:0:
64,192,72257,1,0,0:0:0:0:
192,192,72336,1,0,0:0:0:0:
64,192,72415,1,0,0:0:0:0:
448,192,72415,1,0,0:0:0:0:
320,192,72415,1,0,0:0:0:0:
64,192,72573,1,0,0:0:0:0:
192,192,72573,1,0,0:0:0:0:
320,192,72652,1,0,0:0:0:0:
192,192,72731,1,0,0:0:0:0:
64,192,72731,1,0,0:0:0:0:
320,192,72810,1,0,0:0:0:0:
64,192,72889,1,0,0:0:0:0:
192,192,72889,1,0,0:0:0:0:
448,192,73047,1,0,0:0:0:0:
320,192,73047,1,0,0:0:0:0:
192,192,73047,1,0,0:0:0:0:
64,192,73205,1,0,0:0:0:0:
192,192,73205,1,0,0:0:0:0:
320,192,73363,1,0,0:0:0:0:
448,192,73363,1,0,0:0:0:0:
192,192,73402,1,0,0:0:0:0:
64,192,73442,1,0,0:0:0:0:
192,192,73481,1,0,0:0:0:0:
320,192,73521,1,0,0:0:0:0:
448,192,73600,1,0,0:0:0:0:
64,192,73678,1,0,0:0:0:0:
192,192,73678,1,0,0:0:0:0:
320,192,73678,1,0,0:0:0:0:
448,192,73836,1,0,0:0:0:0:
64,192,73836,1,0,0:0:0:0:
320,192,73915,1,0,0:0:0:0:
192,192,73994,1,0,0:0:0:0:
448,192,73994,1,0,0:0:0:0:
320,192,74073,1,0,0:0:0:0:
448,192,74152,1,0,0:0:0:0:
64,192,74152,1,0,0:0:0:0:
64,192,74310,1,0,0:0:0:0:
192,192,74310,1,0,0:0:0:0:
320,192,74310,1,0,0:0:0:0:
320,192,74468,1,0,0:0:0:0:
448,192,74468,1,0,0:0:0:0:
64,192,74626,1,0,0:0:0:0:
192,192,74626,1,0,0:0:0:0:
320,192,74665,1,0,0:0:0:0:
448,192,74705,1,0,0:0:0:0:
320,192,74744,1,0,0:0:0:0:
192,192,74784,1,0,0:0:0:0:
64,192,74863,1,0,0:0:0:0:
448,192,74942,1,0,0:0:0:0:
320,192,74942,1,0,0:0:0:0:
192,192,74942,1,0,0:0:0:0:
64,192,75100,1,0,0:0:0:0:
448,192,75100,1,0,0:0:0:0:
192,192,75178,1,0,0:0:0:0:
64,192,75257,1,0,0:0:0:0:
320,192,75257,1,0,0:0:0:0:
192,192,75336,1,0,0:0:0:0:
448,192,75415,1,0,0:0:0:0:
64,192,75415,1,0,0:0:0:0:
192,192,75573,1,0,0:0:0:0:
320,192,75573,1,0,0:0:0:0:
448,192,75573,1,0,0:0:0:0:
64,192,75731,1,0,0:0:0:0:
192,192,75731,1,0,0:0:0:0:
64,192,75889,1,0,0:0:0:0:
192,192,75889,1,0,0:0:0:0:
320,192,75889,1,0,0:0:0:0:
448,192,76047,1,0,0:0:0:0:
320,192,76047,1,0,0:0:0:0:
192,192,76047,1,0,0:0:0:0:
64,192,76205,1,0,0:0:0:0:
192,192,76205,1,0,0:0:0:0:
448,192,76205,1,0,0:0:0:0:
448,192,76363,1,0,0:0:0:0:
320,192,76363,1,0,0:0:0:0:
64,192,76363,1,0,0:0:0:0:
64,192,76521,1,0,0:0:0:0:
192,192,76521,1,0,0:0:0:0:
448,192,76521,1,0,0:0:0:0:
448,192,76678,1,0,0:0:0:0:
320,192,76678,1,0,0:0:0:0:
192,192,76678,1,0,0:0:0:0:
64,192,76836,1,0,0:0:0:0:
192,192,76836,1,0,0:0:0:0:
320,192,76836,1,0,0:0:0:0:
448,192,76994,1,0,0:0:0:0:
192,192,76994,1,0,0:0:0:0:
320,192,76994,1,0,0:0:0:0:
64,192,77152,1,0,0:0:0:0:
192,192,77152,1,0,0:0:0:0:
320,192,77231,1,0,0:0:0:0:
448,192,77310,1,0,0:0:0:0:
320,192,77389,1,0,0:0:0:0:
448,192,77468,1,0,0:0:0:0:
192,192,77468,1,0,0:0:0:0:
320,192,77547,1,0,0:0:0:0:
64,192,77626,1,0,0:0:0:0:
192,192,77626,1,0,0:0:0:0:
320,192,77705,1,0,0:0:0:0:
448,192,77784,1,0,0:0:0:0:
320,192,77863,1,0,0:0:0:0:
64,192,77942,1,0,0:0:0:0:
192,192,77942,1,0,0:0:0:0:
320,192,78021,1,0,0:0:0:0:
448,192,78100,1,0,0:0:0:0:
192,192,78100,1,0,0:0:0:0:
320,192,78178,1,0,0:0:0:0:
192,192,78257,1,0,0:0:0:0:
448,192,78336,1,0,0:0:0:0:
64,192,78415,1,0,0:0:0:0:
192,192,78415,1,0,0:0:0:0:
320,192,78415,1,0,0:0:0:0:
448,192,78494,1,0,0:0:0:0:
320,192,78573,1,0,0:0:0:0:
64,192,78652,1,0,0:0:0:0:
192,192,78731,1,0,0:0:0:0:
64,192,78810,1,0,0:0:0:0:
192,192,78889,1,0,0:0:0:0:
320,192,78889,1,0,0:0:0:0:
448,192,78889,1,0,0:0:0:0:
64,192,78968,1,0,0:0:0:0:
192,192,79047,1,0,0:0:0:0:
320,192,79047,1,0,0:0:0:0:
448,192,79126,1,0,0:0:0:0:
64,192,79205,1,0,0:0:0:0:
192,192,79205,1,0,0:0:0:0:
320,192,79205,1,0,0:0:0:0:
448,192,79284,1,0,0:0:0:0:
320,192,79363,1,0,0:0:0:0:
64,192,79442,1,0,0:0:0:0:
192,192,79521,1,0,0:0:0:0:
64,192,79600,1,0,0:0:0:0:
448,192,79678,1,0,0:0:0:0:
320,192,79678,1,0,0:0:0:0:
192,192,79678,1,0,0:0:0:0:
64,192,79757,1,0,0:0:0:0:
192,192,79836,1,0,0:0:0:0:
320,192,79915,1,0,0:0:0:0:
448,192,79994,1,0,0:0:0:0:
320,192,80073,1,0,0:0:0:0:
448,192,80152,1,0,0:0:0:0:
192,192,80152,1,0,0:0:0:0:
64,192,80152,1,0,0:0:0:0:
320,192,80231,1,0,0:0:0:0:
64,192,80310,1,0,0:0:0:0:
192,192,80310,1,0,0:0:0:0:
448,192,80310,1,0,0:0:0:0:
320,192,80389,1,0,0:0:0:0:
64,192,80468,1,0,0:0:0:0:
192,192,80468,1,0,0:0:0:0:
448,192,80468,1,0,0:0:0:0:
64,192,80626,1,0,0:0:0:0:
192,192,80705,1,0,0:0:0:0:
320,192,80784,1,0,0:0:0:0:
64,192,80942,1,0,0:0:0:0:
192,192,80942,1,0,0:0:0:0:
320,192,80942,1,0,0:0:0:0:
448,192,80942,1,0,0:0:0:0:
64,192,81415,1,0,0:0:0:0:
192,192,81415,1,0,0:0:0:0:
320,192,81415,1,0,0:0:0:0:
448,192,81494,1,0,0:0:0:0:
64,192,81573,1,0,0:0:0:0:
192,192,81573,1,0,0:0:0:0:
320,192,81573,1,0,0:0:0:0:
448,192,81652,1,0,0:0:0:0:
64,192,81731,1,0,0:0:0:0:
192,192,81731,1,0,0:0:0:0:
320,192,81731,1,0,0:0:0:0:
64,192,82205,1,0,0:0:0:0:
192,192,82205,1,0,0:0:0:0:
320,192,82205,1,0,0:0:0:0:
448,192,82205,1,0,0:0:0:0:
192,192,82363,1,0,0:0:0:0:
320,192,82363,1,0,0:0:0:0:
192,192,82678,1,0,0:0:0:0:
320,192,82678,1,0,0:0:0:0:
64,192,82836,1,0,0:0:0:0:
192,192,82836,1,0,0:0:0:0:
320,192,82836,1,0,0:0:0:0:
448,192,82836,1,0,0:0:0:0:
192,192,82994,1,0,0:0:0:0:
320,192,82994,1,0,0:0:0:0:
192,192,83152,1,0,0:0:0:0:
320,192,83231,1,0,0:0:0:0:
192,192,83310,1,0,0:0:0:0:
64,192,83468,1,0,0:0:0:0:
320,192,83468,1,0,0:0:0:0:
448,192,83468,1,0,0:0:0:0:
192,192,83626,1,0,0:0:0:0:
320,192,83942,1,0,0:0:0:0:
448,192,84100,1,0,0:0:0:0:
320,192,84415,1,0,0:0:0:0:
192,192,84573,1,0,0:0:0:0:
64,192,84731,1,0,0:0:0:0:
192,192,84889,1,0,0:0:0:0:
448,192,85205,1,0,0:0:0:0:
320,192,85363,1,0,0:0:0:0:
64,192,85678,1,0,0:0:0:0:
192,192,85836,1,0,0:0:0:0:
320,192,85994,1,0,0:0:0:0:
448,192,86152,1,0,0:0:0:0:
320,192,86468,1,0,0:0:0:0:
192,192,86626,1,0,0:0:0:0:
448,192,86942,1,0,0:0:0:0:
64,192,87100,1,0,0:0:0:0:
320,192,87257,1,0,0:0:0:0:
448,192,87257,1,0,0:0:0:0:
192,192,87415,1,0,0:0:0:0:
64,192,87415,1,0,0:0:0:0:
320,192,87573,1,0,0:0:0:0:
448,192,87573,1,0,0:0:0:0:
64,192,87731,1,0,0:0:0:0:
448,192,87731,1,0,0:0:0:0:
192,192,87889,1,0,0:0:0:0:
320,192,87889,1,0,0:0:0:0:
64,192,88047,1,0,0:0:0:0:
192,192,88047,1,0,0:0:0:0:
448,192,88205,1,0,0:0:0:0:
192,192,88205,1,0,0:0:0:0:
64,192,88363,1,0,0:0:0:0:
320,192,88363,1,0,0:0:0:0:
448,192,88521,1,0,0:0:0:0:
64,192,88521,1,0,0:0:0:0:
320,192,88678,1,0,0:0:0:0:
448,192,88678,1,0,0:0:0:0:
192,192,88836,1,0,0:0:0:0:
320,192,88836,1,0,0:0:0:0:
192,192,88994,1,0,0:0:0:0:
64,192,88994,1,0,0:0:0:0:
320,192,89152,1,0,0:0:0:0:
448,192,89152,1,0,0:0:0:0:
64,192,89310,1,0,0:0:0:0:
448,192,89310,1,0,0:0:0:0:
64,192,89468,1,0,0:0:0:0:
320,192,89468,1,0,0:0:0:0:
448,192,89626,1,0,0:0:0:0:
320,192,89626,1,0,0:0:0:0:
64,192,89784,1,0,0:0:0:0:
192,192,89784,1,0,0:0:0:0:
320,192,89784,1,0,0:0:0:0:
448,192,89942,1,0,0:0:0:0:
320,192,89942,1,0,0:0:0:0:
192,192,89942,1,0,0:0:0:0:
192,192,90100,1,0,0:0:0:0:
64,192,90100,1,0,0:0:0:0:
448,192,90100,1,0,0:0:0:0:
448,192,90257,1,0,0:0:0:0:
320,192,90257,1,0,0:0:0:0:
64,192,90257,1,0,0:0:0:0:
192,192,90415,1,0,0:0:0:0:
320,192,90415,1,0,0:0:0:0:
64,192,90415,1,0,0:0:0:0:
448,192,90573,1,0,0:0:0:0:
192,192,90573,1,0,0:0:0:0:
64,192,90573,1,0,0:0:0:0:
448,192,90731,1,0,0:0:0:0:
320,192,90731,1,0,0:0:0:0:
192,192,90731,1,0,0:0:0:0:
64,192,90889,1,0,0:0:0:0:
448,192,90889,1,0,0:0:0:0:
320,192,90889,1,0,0:0:0:0:
64,192,91047,1,0,0:0:0:0:
192,192,91047,1,0,0:0:0:0:
320,192,91047,1,0,0:0:0:0:
448,192,91205,1,0,0:0:0:0:
192,192,91205,1,0,0:0:0:0:
64,192,91205,1,0,0:0:0:0:
448,192,91363,1,0,0:0:0:0:
320,192,91363,1,0,0:0:0:0:
192,192,91363,1,0,0:0:0:0:
64,192,91521,1,0,0:0:0:0:
320,192,91521,1,0,0:0:0:0:
448,192,91521,1,0,0:0:0:0:
64,192,91678,1,0,0:0:0:0:
192,192,91678,1,0,0:0:0:0:
320,192,91678,1,0,0:0:0:0:
448,192,91836,1,0,0:0:0:0:
192,192,91836,1,0,0:0:0:0:
64,192,91836,1,0,0:0:0:0:
448,192,91994,1,0,0:0:0:0:
320,192,91994,1,0,0:0:0:0:
192,192,91994,1,0,0:0:0:0:
64,192,92152,1,0,0:0:0:0:
320,192,92152,1,0,0:0:0:0:
448,192,92152,1,0,0:0:0:0:
64,192,92310,1,0,0:0:0:0:
192,192,92310,1,0,0:0:0:0:
320,192,92310,1,0,0:0:0:0:
64,192,92468,1,0,0:0:0:0:
192,192,92468,1,0,0:0:0:0:
320,192,92468,1,0,0:0:0:0:
64,192,92626,1,0,0:0:0:0:
192,192,92626,1,0,0:0:0:0:
320,192,92626,1,0,0:0:0:0:
64,192,92784,1,0,0:0:0:0:
192,192,92784,1,0,0:0:0:0:
320,192,92784,1,0,0:0:0:0:
64,192,92942,1,0,0:0:0:0:
192,192,92942,1,0,0:0:0:0:
320,192,92942,1,0,0:0:0:0:
320,192,93100,1,0,0:0:0:0:
448,192,93178,1,0,0:0:0:0:
64,192,93257,1,0,0:0:0:0:
192,192,93257,1,0,0:0:0:0:
320,192,93257,1,0,0:0:0:0:
320,192,93573,128,0,94836:0:0:0:0:
64,192,93573,1,0,0:0:0:0:
192,192,93573,1,0,0:0:0:0:
448,192,93573,1,0,0:0:0:0:
192,192,93731,1,0,0:0:0:0:
448,192,93731,1,0,0:0:0:0:
64,192,93889,1,0,0:0:0:0:
192,192,93889,1,0,0:0:0:0:
192,192,94047,1,0,0:0:0:0:
64,192,94126,1,0,0:0:0:0:
192,192,94205,128,0,94521:0:0:0:0:
448,192,94205,1,0,0:0:0:0:
64,192,94284,1,0,0:0:0:0:
448,192,94363,1,0,0:0:0:0:
64,192,94521,1,0,0:0:0:0:
448,192,94678,1,0,0:0:0:0:
64,192,94678,1,0,0:0:0:0:
192,192,94836,128,0,96100:0:0:0:0:
64,192,94836,1,0,0:0:0:0:
448,192,94994,1,0,0:0:0:0:
320,192,94994,1,0,0:0:0:0:
64,192,95152,1,0,0:0:0:0:
320,192,95152,1,0,0:0:0:0:
320,192,95310,1,0,0:0:0:0:
64,192,95389,1,0,0:0:0:0:
448,192,95468,128,0,95784:0:0:0:0:
320,192,95468,1,0,0:0:0:0:
64,192,95547,1,0,0:0:0:0:
320,192,95626,1,0,0:0:0:0:
64,192,95784,1,0,0:0:0:0:
320,192,95942,1,0,0:0:0:0:
448,192,95942,1,0,0:0:0:0:
448,192,96100,128,0,97363:0:0:0:0:
64,192,96100,1,0,0:0:0:0:
320,192,96257,1,0,0:0:0:0:
192,192,96257,1,0,0:0:0:0:
64,192,96415,1,0,0:0:0:0:
192,192,96415,1,0,0:0:0:0:
320,192,96573,1,0,0:0:0:0:
192,192,96652,1,0,0:0:0:0:
320,192,96731,128,0,97047:0:0:0:0:
64,192,96731,1,0,0:0:0:0:
192,192,96810,1,0,0:0:0:0:
64,192,96889,1,0,0:0:0:0:
64,192,97047,1,0,0:0:0:0:
192,192,97205,1,0,0:0:0:0:
320,192,97205,1,0,0:0:0:0:
320,192,97363,128,0,98626:0:0:0:0:
64,192,97363,1,0,0:0:0:0:
192,192,97521,1,0,0:0:0:0:
448,192,97521,1,0,0:0:0:0:
64,192,97678,1,0,0:0:0:0:
448,192,97678,1,0,0:0:0:0:
192,192,97836,1,0,0:0:0:0:
448,192,97915,1,0,0:0:0:0:
64,192,97994,128,0,98310:0:0:0:0:
192,192,97994,1,0,0:0:0:0:
448,192,98073,1,0,0:0:0:0:
192,192,98152,1,0,0:0:0:0:
448,192,98310,1,0,0:0:0:0:
192,192,98468,1,0,0:0:0:0:
64,192,98468,1,0,0:0:0:0:
64,192,98626,128,0,99889:0:0:0:0:
448,192,98626,1,0,0:0:0:0:
192,192,98784,1,0,0:0:0:0:
320,192,98784,1,0,0:0:0:0:
448,192,98942,1,0,0:0:0:0:
320,192,98942,1,0,0:0:0:0:
192,192,99100,1,0,0:0:0:0:
320,192,99178,1,0,0:0:0:0:
448,192,99257,128,0,99573:0:0:0:0:
192,192,99257,1,0,0:0:0:0:
320,192,99336,1,0,0:0:0:0:
192,192,99415,1,0,0:0:0:0:
320,192,99573,1,0,0:0:0:0:
192,192,99731,1,0,0:0:0:0:
448,192,99731,1,0,0:0:0:0:
448,192,99889,128,0,101152:0:0:0:0:
320,192,99889,1,0,0:0:0:0:
192,192,100047,1,0,0:0:0:0:
64,192,100047,1,0,0:0:0:0:
320,192,100205,1,0,0:0:0:0:
192,192,100205,1,0,0:0:0:0:
64,192,100363,1,0,0:0:0:0:
320,192,100442,1,0,0:0:0:0:
192,192,100521,128,0,100836:0:0:0:0:
64,192,100521,1,0,0:0:0:0:
320,192,100600,1,0,0:0:0:0:
64,192,100678,1,0,0:0:0:0:
320,192,100836,1,0,0:0:0:0:
64,192,100994,1,0,0:0:0:0:
192,192,100994,1,0,0:0:0:0:
192,192,101152,128,0,102415:0:0:0:0:
320,192,101152,1,0,0:0:0:0:
64,192,101310,1,0,0:0:0:0:
448,192,101310,1,0,0:0:0:0:
320,192,101468,1,0,0:0:0:0:
64,192,101468,1,0,0:0:0:0:
64,192,101626,1,0,0:0:0:0:
448,192,101705,1,0,0:0:0:0:
320,192,101784,128,0,102100:0:0:0:0:
64,192,101784,1,0,0:0:0:0:
448,192,101863,1,0,0:0:0:0:
64,192,101942,1,0,0:0:0:0:
448,192,102100,1,0,0:0:0:0:
64,192,102257,1,0,0:0:0:0:
320,192,102257,1,0,0:0:0:0:
320,192,102415,128,0,103678:0:0:0:0:
448,192,102415,1,0,0:0:0:0:
64,192,102573,1,0,0:0:0:0:
192,192,102573,1,0,0:0:0:0:
448,192,102731,1,0,0:0:0:0:
64,192,102731,1,0,0:0:0:0:
192,192,102889,1,0,0:0:0:0:
448,192,102968,1,0,0:0:0:0:
64,192,103047,128,0,103363:0:0:0:0:
192,192,103047,1,0,0:0:0:0:
448,192,103126,1,0,0:0:0:0:
192,192,103205,1,0,0:0:0:0:
448,192,103363,1,0,0:0:0:0:
192,192,103521,1,0,0:0:0:0:
64,192,103521,1,0,0:0:0:0:
64,192,103678,128,0,104942:0:0:0:0:
448,192,103678,1,0,0:0:0:0:
192,192,103836,1,0,0:0:0:0:
448,192,103836,1,0,0:0:0:0:
320,192,103994,1,0,0:0:0:0:
192,192,103994,1,0,0:0:0:0:
448,192,104152,1,0,0:0:0:0:
320,192,104231,1,0,0:0:0:0:
448,192,104310,128,0,104626:0:0:0:0:
192,192,104310,1,0,0:0:0:0:
320,192,104389,1,0,0:0:0:0:
192,192,104468,1,0,0:0:0:0:
320,192,104626,1,0,0:0:0:0:
448,192,104784,1,0,0:0:0:0:
320,192,104784,1,0,0:0:0:0:
448,192,104942,128,0,106205:0:0:0:0:
192,192,104942,1,0,0:0:0:0:
320,192,105100,1,0,0:0:0:0:
64,192,105100,1,0,0:0:0:0:
192,192,105257,1,0,0:0:0:0:
64,192,105257,1,0,0:0:0:0:
192,192,105415,1,0,0:0:0:0:
320,192,105494,1,0,0:0:0:0:
192,192,105573,128,0,105889:0:0:0:0:
64,192,105573,1,0,0:0:0:0:
320,192,105652,1,0,0:0:0:0:
64,192,105731,1,0,0:0:0:0:
320,192,105889,1,0,0:0:0:0:
192,192,106047,1,0,0:0:0:0:
64,192,106047,1,0,0:0:0:0:
192,192,106205,128,0,107468:0:0:0:0:
320,192,106205,1,0,0:0:0:0:
64,192,106363,1,0,0:0:0:0:
448,192,106363,1,0,0:0:0:0:
320,192,106521,1,0,0:0:0:0:
64,192,106521,1,0,0:0:0:0:
64,192,106678,1,0,0:0:0:0:
448,192,106757,1,0,0:0:0:0:
320,192,106836,128,0,107152:0:0:0:0:
64,192,106836,1,0,0:0:0:0:
448,192,106915,1,0,0:0:0:0:
64,192,106994,1,0,0:0:0:0:
448,192,107152,1,0,0:0:0:0:
64,192,107310,1,0,0:0:0:0:
320,192,107310,1,0,0:0:0:0:
320,192,107468,128,0,108731:0:0:0:0:
64,192,107468,1,0,0:0:0:0:
192,192,107626,1,0,0:0:0:0:
448,192,107626,1,0,0:0:0:0:
64,192,107784,1,0,0:0:0:0:
448,192,107784,1,0,0:0:0:0:
64,192,107942,1,0,0:0:0:0:
448,192,108021,1,0,0:0:0:0:
64,192,108100,128,0,108415:0:0:0:0:
192,192,108100,1,0,0:0:0:0:
448,192,108178,1,0,0:0:0:0:
192,192,108257,1,0,0:0:0:0:
448,192,108415,1,0,0:0:0:0:
64,192,108573,1,0,0:0:0:0:
192,192,108573,1,0,0:0:0:0:
192,192,108731,1,0,0:0:0:0:
64,192,108731,1,0,0:0:0:0:
448,192,108810,1,0,0:0:0:0:
320,192,108889,1,0,0:0:0:0:
192,192,108968,1,0,0:0:0:0:
64,192,109047,1,0,0:0:0:0:
320,192,109047,1,0,0:0:0:0:
192,192,109126,1,0,0:0:0:0:
320,192,109205,1,0,0:0:0:0:
448,192,109284,1,0,0:0:0:0:
320,192,109363,1,0,0:0:0:0:
192,192,109442,1,0,0:0:0:0:
448,192,109521,1,0,0:0:0:0:
320,192,109600,1,0,0:0:0:0:
64,192,109678,1,0,0:0:0:0:
448,192,109678,1,0,0:0:0:0:
192,192,109757,1,0,0:0:0:0:
64,192,109836,1,0,0:0:0:0:
320,192,109915,1,0,0:0:0:0:
192,192,109994,1,0,0:0:0:0:
448,192,110073,1,0,0:0:0:0:
320,192,110152,1,0,0:0:0:0:
64,192,110231,1,0,0:0:0:0:
192,192,110310,1,0,0:0:0:0:
448,192,110310,1,0,0:0:0:0:
320,192,110389,1,0,0:0:0:0:
64,192,110468,1,0,0:0:0:0:
192,192,110547,1,0,0:0:0:0:
448,192,110626,1,0,0:0:0:0:
192,192,110705,1,0,0:0:0:0:
64,192,110784,1,0,0:0:0:0:
192,192,110863,1,0,0:0:0:0:
320,192,110942,1,0,0:0:0:0:
448,192,110942,1,0,0:0:0:0:
64,192,111021,1,0,0:0:0:0:
448,192,111100,1,0,0:0:0:0:
192,192,111178,1,0,0:0:0:0:
320,192,111257,1,0,0:0:0:0:
448,192,111257,1,0,0:0:0:0:
64,192,111257,1,0,0:0:0:0:
192,192,111336,1,0,0:0:0:0:
320,192,111415,1,0,0:0:0:0:
448,192,111494,1,0,0:0:0:0:
320,192,111573,1,0,0:0:0:0:
64,192,111573,1,0,0:0:0:0:
192,192,111652,1,0,0:0:0:0:
448,192,111731,1,0,0:0:0:0:
64,192,111810,1,0,0:0:0:0:
192,192,111889,1,0,0:0:0:0:
448,192,111968,1,0,0:0:0:0:
320,192,112047,1,0,0:0:0:0:
448,192,112126,1,0,0:0:0:0:
192,192,112205,1,0,0:0:0:0:
64,192,112205,1,0,0:0:0:0:
320,192,112284,1,0,0:0:0:0:
448,192,112363,1,0,0:0:0:0:
192,192,112442,1,0,0:0:0:0:
64,192,112521,1,0,0:0:0:0:
320,192,112521,1,0,0:0:0:0:
448,192,112521,1,0,0:0:0:0:
192,192,112678,1,0,0:0:0:0:
320,192,112678,1,0,0:0:0:0:
448,192,112678,1,0,0:0:0:0:
64,192,112836,1,0,0:0:0:0:
192,192,112836,1,0,0:0:0:0:
320,192,112836,1,0,0:0:0:0:
448,192,112994,1,0,0:0:0:0:
320,192,112994,1,0,0:0:0:0:
192,192,112994,1,0,0:0:0:0:
64,192,113152,1,0,0:0:0:0:
192,192,113152,1,0,0:0:0:0:
320,192,113152,1,0,0:0:0:0:
448,192,113310,1,0,0:0:0:0:
320,192,113310,1,0,0:0:0:0:
192,192,113310,1,0,0:0:0:0:
64,192,113468,1,0,0:0:0:0:
192,192,113468,1,0,0:0:0:0:
448,192,113468,1,0,0:0:0:0:
448,192,113626,1,0,0:0:0:0:
320,192,113626,1,0,0:0:0:0:
64,192,113626,1,0,0:0:0:0:
64,192,113784,128,0,114573:0:0:0:0:
192,192,113784,1,0,0:0:0:0:
448,192,113784,1,0,0:0:0:0:
320,192,113942,1,0,0:0:0:0:
192,192,113942,1,0,0:0:0:0:
448,192,114100,128,0,114257:0:0:0:0:
320,192,114100,1,0,0:0:0:0:
192,192,114100,1,0,0:0:0:0:
192,192,114257,1,0,0:0:0:0:
320,192,114336,1,0,0:0:0:0:
448,192,114415,1,0,0:0:0:0:
320,192,114494,1,0,0:0:0:0:
192,192,114573,128,0,114889:0:0:0:0:
448,192,114573,1,0,0:0:0:0:
64,192,114731,1,0,0:0:0:0:
448,192,114731,1,0,0:0:0:0:
448,192,114889,128,0,115521:0:0:0:0:
320,192,114889,1,0,0:0:0:0:
64,192,115047,1,0,0:0:0:0:
320,192,115047,1,0,0:0:0:0:
192,192,115205,128,0,115363:0:0:0:0:
320,192,115205,1,0,0:0:0:0:
64,192,115205,1,0,0:0:0:0:
64,192,115363,1,0,0:0:0:0:
320,192,115363,1,0,0:0:0:0:
64,192,115521,128,0,115836:0:0:0:0:
192,192,115521,1,0,0:0:0:0:
320,192,115600,1,0,0:0:0:0:
192,192,115678,1,0,0:0:0:0:
320,192,115757,1,0,0:0:0:0:
192,192,115836,128,0,116310:0:0:0:0:
448,192,115836,1,0,0:0:0:0:
64,192,115994,1,0,0:0:0:0:
448,192,115994,1,0,0:0:0:0:
448,192,116152,128,0,116310:0:0:0:0:
64,192,116152,1,0,0:0:0:0:
320,192,116152,1,0,0:0:0:0:
320,192,116310,128,0,117573:0:0:0:0:
64,192,116468,1,0,0:0:0:0:
192,192,116468,1,0,0:0:0:0:
192,192,116626,1,0,0:0:0:0:
448,192,116626,1,0,0:0:0:0:
192,192,116784,1,0,0:0:0:0:
448,192,116863,1,0,0:0:0:0:
64,192,116942,128,0,117100:0:0:0:0:
192,192,116942,1,0,0:0:0:0:
448,192,117021,1,0,0:0:0:0:
192,192,117100,1,0,0:0:0:0:
448,192,117257,1,0,0:0:0:0:
64,192,117257,1,0,0:0:0:0:
192,192,117415,1,0,0:0:0:0:
448,192,117415,1,0,0:0:0:0:
192,192,117573,128,0,118047:0:0:0:0:
64,192,117573,1,0,0:0:0:0:
320,192,117731,1,0,0:0:0:0:
448,192,117731,1,0,0:0:0:0:
448,192,117889,1,0,0:0:0:0:
64,192,117889,1,0,0:0:0:0:
448,192,118047,128,0,118363:0:0:0:0:
320,192,118047,1,0,0:0:0:0:
64,192,118126,1,0,0:0:0:0:
320,192,118205,128,0,118363:0:0:0:0:
192,192,118205,1,0,0:0:0:0:
64,192,118284,1,0,0:0:0:0:
192,192,118363,1,0,0:0:0:0:
192,192,118521,1,0,0:0:0:0:
320,192,118521,1,0,0:0:0:0:
448,192,118521,1,0,0:0:0:0:
64,192,118678,1,0,0:0:0:0:
192,192,118678,1,0,0:0:0:0:
320,192,118678,1,0,0:0:0:0:
448,192,118836,128,0,119626:0:0:0:0:
64,192,118836,1,0,0:0:0:0:
192,192,118836,1,0,0:0:0:0:
320,192,118994,1,0,0:0:0:0:
192,192,118994,1,0,0:0:0:0:
192,192,119152,128,0,119310:0:0:0:0:
64,192,119152,1,0,0:0:0:0:
320,192,119152,1,0,0:0:0:0:
64,192,119310,1,0,0:0:0:0:
320,192,119389,1,0,0:0:0:0:
192,192,119468,1,0,0:0:0:0:
320,192,119547,1,0,0:0:0:0:
64,192,119626,128,0,119942:0:0:0:0:
192,192,119626,1,0,0:0:0:0:
320,192,119784,1,0,0:0:0:0:
448,192,119784,1,0,0:0:0:0:
192,192,119784,128,0,119942:0:0:0:0:
320,192,119942,128,0,120257:0:0:0:0:
64,192,120100,1,0,0:0:0:0:
448,192,120100,1,0,0:0:0:0:
192,192,120257,128,0,120573:0:0:0:0:
448,192,120415,1,0,0:0:0:0:
64,192,120415,1,0,0:0:0:0:
320,192,120573,128,0,120889:0:0:0:0:
448,192,120573,1,0,0:0:0:0:
64,192,120652,1,0,0:0:0:0:
192,192,120731,1,0,0:0:0:0:
64,192,120810,1,0,0:0:0:0:
448,192,120889,128,0,121363:0:0:0:0:
192,192,120889,1,0,0:0:0:0:
192,192,121047,1,0,0:0:0:0:
320,192,121047,1,0,0:0:0:0:
320,192,121205,1,0,0:0:0:0:
64,192,121205,1,0,0:0:0:0:
320,192,121363,128,0,121836:0:0:0:0:
64,192,121363,1,0,0:0:0:0:
64,192,121521,1,0,0:0:0:0:
192,192,121521,1,0,0:0:0:0:
64,192,121678,1,0,0:0:0:0:
448,192,121678,1,0,0:0:0:0:
448,192,121836,128,0,123889:0:0:0:0:
192,192,121836,1,0,0:0:0:0:
64,192,121915,1,0,0:0:0:0:
192,192,121994,1,0,0:0:0:0:
320,192,122073,1,0,0:0:0:0:
64,192,122152,1,0,0:0:0:0:
64,192,122310,1,0,0:0:0:0:
192,192,122310,1,0,0:0:0:0:
320,192,122468,1,0,0:0:0:0:
192,192,122468,1,0,0:0:0:0:
320,192,122626,1,0,0:0:0:0:
64,192,122626,1,0,0:0:0:0:
64,192,122784,1,0,0:0:0:0:
192,192,122784,1,0,0:0:0:0:
320,192,122942,1,0,0:0:0:0:
192,192,122942,1,0,0:0:0:0:
64,192,123100,1,0,0:0:0:0:
192,192,123178,1,0,0:0:0:0:
320,192,123257,1,0,0:0:0:0:
192,192,123336,1,0,0:0:0:0:
64,192,123415,1,0,0:0:0:0:
320,192,123573,1,0,0:0:0:0:
64,192,123573,1,0,0:0:0:0:
320,192,123731,1,0,0:0:0:0:
192,192,123731,1,0,0:0:0:0:
64,192,123889,128,0,124678:0:0:0:0:
192,192,123889,1,0,0:0:0:0:
320,192,124047,1,0,0:0:0:0:
448,192,124047,1,0,0:0:0:0:
192,192,124205,128,0,124363:0:0:0:0:
320,192,124205,1,0,0:0:0:0:
448,192,124205,1,0,0:0:0:0:
448,192,124363,1,0,0:0:0:0:
320,192,124442,1,0,0:0:0:0:
192,192,124521,1,0,0:0:0:0:
448,192,124600,1,0,0:0:0:0:
320,192,124678,128,0,124994:0:0:0:0:
192,192,124678,1,0,0:0:0:0:
64,192,124836,1,0,0:0:0:0:
192,192,124836,1,0,0:0:0:0:
192,192,124994,128,0,125626:0:0:0:0:
448,192,124994,1,0,0:0:0:0:
320,192,125152,1,0,0:0:0:0:
448,192,125152,1,0,0:0:0:0:
320,192,125310,1,0,0:0:0:0:
64,192,125310,1,0,0:0:0:0:
448,192,125468,1,0,0:0:0:0:
64,192,125468,1,0,0:0:0:0:
320,192,125626,128,0,125942:0:0:0:0:
448,192,125626,1,0,0:0:0:0:
64,192,125705,1,0,0:0:0:0:
192,192,125784,1,0,0:0:0:0:
64,192,125863,1,0,0:0:0:0:
192,192,125942,128,0,126415:0:0:0:0:
448,192,125942,1,0,0:0:0:0:
448,192,126100,1,0,0:0:0:0:
64,192,126100,1,0,0:0:0:0:
320,192,126257,1,0,0:0:0:0:
448,192,126257,1,0,0:0:0:0:
64,192,126415,128,0,127678:0:0:0:0:
320,192,126415,1,0,0:0:0:0:
448,192,126573,1,0,0:0:0:0:
320,192,126573,1,0,0:0:0:0:
192,192,126731,1,0,0:0:0:0:
448,192,126731,1,0,0:0:0:0:
320,192,126889,1,0,0:0:0:0:
192,192,126968,1,0,0:0:0:0:
320,192,127047,128,0,127205:0:0:0:0:
448,192,127047,1,0,0:0:0:0:
192,192,127126,1,0,0:0:0:0:
448,192,127205,1,0,0:0:0:0:
192,192,127363,1,0,0:0:0:0:
320,192,127363,1,0,0:0:0:0:
448,192,127521,1,0,0:0:0:0:
320,192,127521,1,0,0:0:0:0:
448,192,127678,128,0,128152:0:0:0:0:
320,192,127678,1,0,0:0:0:0:
64,192,127836,1,0,0:0:0:0:
320,192,127836,1,0,0:0:0:0:
64,192,127994,1,0,0:0:0:0:
192,192,127994,1,0,0:0:0:0:
320,192,128152,128,0,128626:0:0:0:0:
64,192,128152,1,0,0:0:0:0:
192,192,128231,1,0,0:0:0:0:
64,192,128310,128,0,128468:0:0:0:0:
448,192,128310,1,0,0:0:0:0:
192,192,128389,1,0,0:0:0:0:
448,192,128468,1,0,0:0:0:0:
192,192,128626,1,0,0:0:0:0:
320,192,128784,1,0,0:0:0:0:
192,192,128784,1,0,0:0:0:0:
192,192,128942,128,0,129731:0:0:0:0:
320,192,128942,1,0,0:0:0:0:
448,192,129100,1,0,0:0:0:0:
64,192,129100,1,0,0:0:0:0:
320,192,129257,128,0,129415:0:0:0:0:
64,192,129257,1,0,0:0:0:0:
448,192,129257,1,0,0:0:0:0:
448,192,129415,1,0,0:0:0:0:
64,192,129494,1,0,0:0:0:0:
320,192,129573,1,0,0:0:0:0:
64,192,129652,1,0,0:0:0:0:
448,192,129731,128,0,130047:0:0:0:0:
320,192,129731,1,0,0:0:0:0:
64,192,129889,1,0,0:0:0:0:
320,192,129889,1,0,0:0:0:0:
192,192,130047,128,0,130363:0:0:0:0:
64,192,130047,1,0,0:0:0:0:
320,192,130205,1,0,0:0:0:0:
448,192,130205,1,0,0:0:0:0:
448,192,130363,128,0,130678:0:0:0:0:
64,192,130363,1,0,0:0:0:0:
64,192,130521,1,0,0:0:0:0:
192,192,130521,1,0,0:0:0:0:
320,192,130678,128,0,130994:0:0:0:0:
64,192,130678,1,0,0:0:0:0:
192,192,130757,1,0,0:0:0:0:
448,192,130836,1,0,0:0:0:0:
64,192,130915,1,0,0:0:0:0:
192,192,130994,128,0,131468:0:0:0:0:
448,192,130994,1,0,0:0:0:0:
64,192,131152,1,0,0:0:0:0:
320,192,131152,1,0,0:0:0:0:
448,192,131310,1,0,0:0:0:0:
320,192,131310,1,0,0:0:0:0:
64,192,131468,1,0,0:0:0:0:
320,192,131468,1,0,0:0:0:0:
448,192,131678,1,0,0:0:0:0:
320,192,131678,1,0,0:0:0:0:
192,192,131678,1,0,0:0:0:0:
64,192,131889,1,0,0:0:0:0:
192,192,131889,1,0,0:0:0:0:
320,192,131889,1,0,0:0:0:0:
448,192,132100,1,0,0:0:0:0:
320,192,132100,1,0,0:0:0:0:
192,192,132100,1,0,0:0:0:0:
64,192,132310,1,0,0:0:0:0:
192,192,132310,1,0,0:0:0:0:
320,192,132310,1,0,0:0:0:0:
448,192,132521,1,0,0:0:0:0:
320,192,132521,1,0,0:0:0:0:
192,192,132521,1,0,0:0:0:0:
64,192,132731,1,0,0:0:0:0:
192,192,132731,1,0,0:0:0:0:
320,192,132731,1,0,0:0:0:0:
448,192,132889,1,0,0:0:0:0:
192,192,132889,1,0,0:0:0:0:
64,192,132889,1,0,0:0:0:0:
192,192,133047,1,0,0:0:0:0:
320,192,133047,1,0,0:0:0:0:
448,192,133047,1,0,0:0:0:0:
64,192,133126,1,0,0:0:0:0:
448,192,133205,1,0,0:0:0:0:
320,192,133284,1,0,0:0:0:0:
64,192,133363,1,0,0:0:0:0:
192,192,133402,1,0,0:0:0:0:
64,192,133442,1,0,0:0:0:0:
192,192,133481,1,0,0:0:0:0:
64,192,133521,1,0,0:0:0:0:
192,192,133560,1,0,0:0:0:0:
64,192,133600,1,0,0:0:0:0:
192,192,133639,1,0,0:0:0:0:
64,192,133678,1,0,0:0:0:0:
192,192,133718,1,0,0:0:0:0:
64,192,133757,1,0,0:0:0:0:
192,192,133797,1,0,0:0:0:0:
64,192,133836,1,0,0:0:0:0:
192,192,133876,1,0,0:0:0:0:
64,192,133915,1,0,0:0:0:0:
192,192,133955,1,0,0:0:0:0:
64,192,133994,1,0,0:0:0:0:
448,192,133994,128,0,134468:0:0:0:0:
320,192,134152,128,0,134468:0:0:0:0:
192,192,134310,128,0,134626:0:0:0:0:
64,192,134468,128,0,134626:0:0:0:0:
320,192,134626,128,0,135100:0:0:0:0:
448,192,134784,128,0,135257:0:0:0:0:
192,192,134942,128,0,135257:0:0:0:0:
64,192,135100,128,0,135257:0:0:0:0:
320,192,135257,128,0,135731:0:0:0:0:
64,192,135415,128,0,135731:0:0:0:0:
192,192,135573,128,0,136047:0:0:0:0:
448,192,135731,128,0,136047:0:0:0:0:
320,192,135889,128,0,136205:0:0:0:0:
64,192,136047,128,0,136521:0:0:0:0:
192,192,136205,128,0,136521:0:0:0:0:
448,192,136363,128,0,136521:0:0:0:0:
320,192,136521,128,0,136836:0:0:0:0:
192,192,136678,128,0,136994:0:0:0:0:
448,192,136836,128,0,137310:0:0:0:0:
320,192,136994,128,0,137310:0:0:0:0:
64,192,137152,128,0,137468:0:0:0:0:
192,192,137310,128,0,137784:0:0:0:0:
320,192,137468,128,0,137784:0:0:0:0:
64,192,137626,128,0,137784:0:0:0:0:
448,192,137784,128,0,138257:0:0:0:0:
192,192,137942,128,0,138257:0:0:0:0:
320,192,138100,128,0,138257:0:0:0:0:
64,192,138257,128,0,138731:0:0:0:0:
448,192,138415,128,0,138731:0:0:0:0:
192,192,138573,128,0,138731:0:0:0:0:
320,192,138731,128,0,139047:0:0:0:0:
192,192,138889,128,0,139047:0:0:0:0:
448,192,138889,128,0,139047:0:0:0:0:
64,192,139047,128,0,139363:0:0:0:0:
192,192,139205,128,0,139521:0:0:0:0:
320,192,139363,128,0,139836:0:0:0:0:
448,192,139521,128,0,139836:0:0:0:0:
64,192,139678,128,0,139836:0:0:0:0:
192,192,139836,128,0,140152:0:0:0:0:
448,192,139994,128,0,140152:0:0:0:0:
320,192,140152,128,0,140468:0:0:0:0:
64,192,140310,128,0,140468:0:0:0:0:
192,192,140468,128,0,141100:0:0:0:0:
320,192,140626,128,0,141100:0:0:0:0:
448,192,140784,128,0,141100:0:0:0:0:
64,192,141100,128,0,141573:0:0:0:0:
192,192,141257,128,0,141415:0:0:0:0:
320,192,141415,128,0,141573:0:0:0:0:
448,192,141573,128,0,142047:0:0:0:0:
320,192,141731,128,0,142047:0:0:0:0:
192,192,141889,128,0,142047:0:0:0:0:
64,192,142047,128,0,142836:0:0:0:0:
192,192,142205,128,0,142678:0:0:0:0:
320,192,142363,128,0,142836:0:0:0:0:
448,192,142521,128,0,142678:0:0:0:0:
448,192,142836,128,0,143152:0:0:0:0:
192,192,142994,128,0,143152:0:0:0:0:
320,192,143152,128,0,143468:0:0:0:0:
64,192,143310,128,0,143626:0:0:0:0:
448,192,143468,128,0,143784:0:0:0:0:
192,192,143626,128,0,143942:0:0:0:0:
64,192,143784,128,0,144100:0:0:0:0:
320,192,143942,128,0,144100:0:0:0:0:
448,192,144100,1,0,0:0:0:0:
192,192,144100,1,0,0:0:0:0:
64,192,144257,1,0,0:0:0:0:
192,192,144257,1,0,0:0:0:0:
320,192,144257,1,0,0:0:0:0:
448,192,144415,1,0,0:0:0:0:
320,192,144415,1,0,0:0:0:0:
192,192,144415,1,0,0:0:0:0:
64,192,144573,1,0,0:0:0:0:
192,192,144573,1,0,0:0:0:0:
320,192,144573,1,0,0:0:0:0:
448,192,144731,1,0,0:0:0:0:
320,192,144731,1,0,0:0:0:0:
64,192,144731,1,0,0:0:0:0:
64,192,144889,1,0,0:0:0:0:
192,192,144889,1,0,0:0:0:0:
448,192,144889,1,0,0:0:0:0:
448,192,145047,1,0,0:0:0:0:
320,192,145047,1,0,0:0:0:0:
64,192,145047,1,0,0:0:0:0:
64,192,145205,1,0,0:0:0:0:
192,192,145205,1,0,0:0:0:0:
448,192,145205,1,0,0:0:0:0:
448,192,145363,1,0,0:0:0:0:
320,192,145363,1,0,0:0:0:0:
192,192,145363,1,0,0:0:0:0:
64,192,145363,1,0,0:0:0:0:
64,192,145521,1,0,0:0:0:0:
192,192,145521,1,0,0:0:0:0:
320,192,145521,1,0,0:0:0:0:
448,192,145678,1,0,0:0:0:0:
320,192,145678,1,0,0:0:0:0:
192,192,145678,1,0,0:0:0:0:
64,192,145836,1,0,0:0:0:0:
192,192,145836,1,0,0:0:0:0:
320,192,145836,1,0,0:0:0:0:
448,192,145994,1,0,0:0:0:0:
320,192,145994,1,0,0:0:0:0:
192,192,145994,1,0,0:0:0:0:
64,192,146152,1,0,0:0:0:0:
192,192,146152,1,0,0:0:0:0:
448,192,146152,1,0,0:0:0:0:
448,192,146310,1,0,0:0:0:0:
320,192,146310,1,0,0:0:0:0:
64,192,146310,1,0,0:0:0:0:
64,192,146468,1,0,0:0:0:0:
192,192,146468,1,0,0:0:0:0:
448,192,146468,1,0,0:0:0:0:
448,192,146626,1,0,0:0:0:0:
320,192,146626,1,0,0:0:0:0:
192,192,146626,1,0,0:0:0:0:
64,192,146626,1,0,0:0:0:0:
64,192,146784,1,0,0:0:0:0:
192,192,146784,1,0,0:0:0:0:
320,192,146784,1,0,0:0:0:0:
448,192,146942,1,0,0:0:0:0:
320,192,146942,1,0,0:0:0:0:
192,192,146942,1,0,0:0:0:0:
64,192,147100,1,0,0:0:0:0:
192,192,147100,1,0,0:0:0:0:
320,192,147100,1,0,0:0:0:0:
448,192,147257,1,0,0:0:0:0:
320,192,147257,1,0,0:0:0:0:
192,192,147257,1,0,0:0:0:0:
64,192,147415,1,0,0:0:0:0:
192,192,147415,1,0,0:0:0:0:
448,192,147415,1,0,0:0:0:0:
448,192,147573,1,0,0:0:0:0:
320,192,147573,1,0,0:0:0:0:
64,192,147573,1,0,0:0:0:0:
64,192,147731,1,0,0:0:0:0:
192,192,147731,1,0,0:0:0:0:
448,192,147731,1,0,0:0:0:0:
448,192,147889,1,0,0:0:0:0:
320,192,147889,1,0,0:0:0:0:
192,192,147889,1,0,0:0:0:0:
64,192,147889,1,0,0:0:0:0:
448,192,148047,1,0,0:0:0:0:
320,192,148047,1,0,0:0:0:0:
192,192,148047,1,0,0:0:0:0:
64,192,148205,1,0,0:0:0:0:
192,192,148205,1,0,0:0:0:0:
320,192,148205,1,0,0:0:0:0:
448,192,148363,1,0,0:0:0:0:
320,192,148363,1,0,0:0:0:0:
192,192,148363,1,0,0:0:0:0:
64,192,148521,1,0,0:0:0:0:
192,192,148521,1,0,0:0:0:0:
320,192,148521,1,0,0:0:0:0:
448,192,148678,1,0,0:0:0:0:
320,192,148678,1,0,0:0:0:0:
64,192,148678,1,0,0:0:0:0:
64,192,148836,1,0,0:0:0:0:
192,192,148836,1,0,0:0:0:0:
448,192,148836,1,0,0:0:0:0:
448,192,148994,1,0,0:0:0:0:
320,192,148994,1,0,0:0:0:0:
64,192,148994,1,0,0:0:0:0:
64,192,149152,128,0,150415:0:0:0:0:
448,192,149152,128,0,150415:0:0:0:0:
192,192,149626,128,0,150415:0:0:0:0:
320,192,149626,128,0,150415:0:0:0:0:
