osu file format v9

[General]
AudioFilename: 296234_Awake___Supernova.mp3
AudioLeadIn: 0
PreviewTime: 93494
Countdown: 0
SampleSet: Normal
StackLeniency: 0.7
Mode: 0
LetterboxInBreaks: 1

[Editor]
DistanceSpacing: 0.9
BeatDivisor: 2
GridSize: 8

[Metadata]
Title:Supernova
Artist:Awake
Creator:DoKoLP
Version:Normal
Source:Newgrounds
Tags:audio portal Rawrthaas Kite

[Difficulty]
HPDrainRate:3
CircleSize:3
OverallDifficulty:4
ApproachRate:5
SliderMultiplier:0.999999999999999
SliderTickRate:1

[Events]
//Background and Video events
0,0,"Advent_SuperNova_Wallpaper_by_jbeave.jpg"
//Break Periods
2,83668,91110
//Storyboard Layer 0 (Background)
//Storyboard Layer 1 (Fail)
//Storyboard Layer 2 (Pass)
//Storyboard Layer 3 (Foreground)
//Storyboard Sound Samples
//Background Colour Transformations
3,100,163,162,255

[TimingPoints]
100,315.789473684211,4,2,0,45,1,0
19047,-100,4,2,0,70,0,0
20310,-100,4,1,1,70,0,0
36731,-100,4,1,1,75,0,0
39257,-100,4,1,1,80,0,0
40521,-100,4,1,1,70,0,0
56942,-100,4,1,1,60,0,0
58205,-100,4,1,1,70,0,0
59468,-100,4,1,1,80,0,0
60100,-100,4,1,0,70,0,0
61047,-100,4,1,1,70,0,0
77152,-100,4,1,1,60,0,0
78415,-100,4,1,1,70,0,0
79678,-100,4,1,1,80,0,0
80626,-100,4,1,1,95,0,0
80942,-100,4,1,1,80,0,0
82205,-100,4,1,0,80,0,0
83468,-100,4,1,1,80,0,0
92310,-100,4,1,1,60,0,0
93573,-100,4,1,1,80,0,1
108731,-100,4,1,1,45,0,0
113784,-100,4,1,1,80,0,1
133994,-100,4,2,1,80,0,0

[Colours]
Combo1 : 104,190,215
Combo2 : 197,197,197
Combo3 : 127,127,127
Combo4 : 24,100,190

[HitObjects]
176,80,17784,2,0,B|112:152|112:152|112:256,1,200,2|0
112,336,18731,1,0
184,296,19047,2,0,B|280:352|376:296,2,200,2|2|4
56,192,20942,5,0
80,112,21257,1,0
144,64,21573,1,4
256,176,22205,1,0
336,176,22521,1,0
416,176,22836,1,4
328,312,23468,5,0
256,352,23784,1,0
176,360,24100,2,0,B|56:360|32:248,1,200,4|0
16,168,25047,1,0
16,168,25363,1,4
160,128,25994,6,0,B|160:24,2,99.9999999999999,0|0|4
256,256,27257,2,0,B|256:360,2,99.9999999999999,0|0|4
352,128,28521,2,0,B|352:24,2,99.9999999999999,0|0|4
352,208,29468,5,0
312,280,29784,1,0
240,320,30100,1,0
240,320,30415,5,4
144,192,31047,2,0,B|112:152|112:152|64:152,1,99.9999999999999
72,232,31678,1,4
168,352,32310,2,0,B|272:352,1,99.9999999999999
352,352,32942,1,4
368,192,33573,2,0,B|368:136|336:96,1,99.9999999999999
288,32,34205,6,0,B|208:32|208:32|176:56|176:96,2,150,4|0|0
368,32,35468,1,4
336,192,36100,1,0
400,136,36415,1,0
464,184,36731,6,0,B|464:264|464:264|464:344|392:344|392:344|296:344,1,300,4|0
216,344,37994,2,0,B|118:344|118:344|46:344|46:264|46:264|46:184,1,300,4|0
128,184,39257,2,0,B|256:104|256:104|384:184,1,300,4|0
448,232,40521,5,4
448,232,40836,2,0,B|360:352,1,150
280,352,41626,1,0
240,352,41784,1,4
240,272,42100,2,0,B|144:152,1,150
64,152,42889,1,0
32,192,43047,1,4
40,272,43363,2,0,B|128:368|224:288,1,200
264,360,44310,6,0,B|352:336|368:256,2,150,4|0|0
216,296,45573,1,4
264,232,45889,2,0,B|176:176|72:232,1,200
16,176,46836,2,0,B|16:24,2,150,4|0|0
96,192,48100,2,0,B|304:192,1,200,4|0
376,184,49047,1,0
456,192,49363,5,2
456,192,49678,2,0,B|456:88,1,99.9999999999999,2|0
376,88,50310,1,0
328,152,50626,6,0,B|416:280,2,150,4|0|0
256,208,51889,2,0,B|256:358,2,150,4|0|0
184,152,53152,2,0,B|96:280,2,150,4|0|0
184,72,54415,2,0,B|256:32|328:72,2,150
208,152,55678,5,4
240,224,55994,1,0
392,184,56626,1,0
392,184,56942,6,0,B|480:96|408:16|408:16|296:16,1,300,4|0
216,16,58205,2,0,B|105:16|105:16|33:96|121:184,1,300,4|0
176,240,59468,2,0,B|216:280|216:328,1,99.9999999999999,2|2
296,329,60100,2,0,B|296:280|336:240,1,99.9999999999999,0|0
392,184,60731,5,4
392,104,61047,2,0,B|288:104,1,99.9999999999999,0|4
256,176,61678,2,0,B|152:176,1,99.9999999999999,0|4
72,176,62310,1,0
112,248,62626,1,4
112,328,62942,1,0
184,288,63257,6,4,B|253:226|317:290|317:290|384:360|453:290,1,300,4|4
480,216,64521,2,0,B|480:80|480:80|480:48|440:16|400:48|400:80|400:80|400:120,1,300,4|4
400,200,65784,6,0,B|368:240|368:240|344:216|344:216|320:240|320:240|280:152|320:64,1,300,4|4
192,64,67047,2,0,B|232:152|192:240|192:240|168:216|168:216|144:240|144:240|112:200,1,300,4|4
112,119,68310,6,0,B|112:80|112:80|112:48|72:16|32:48|32:80|32:80|32:216,1,300,4|4
61,292,69573,2,0,B|128:360|194:290|194:290|258:226|328:288,1,300,4|4
392,336,70836,5,4
400,256,71152,2,0,B|464:168,1,99.9999999999999,0|4
488,96,71784,1,0
432,40,72100,2,0,B|336:16|336:16|232:16,1,200,4|0
152,16,73047,1,0
192,88,73363,6,0,B|192:192|144:280,1,200,4|0
88,336,74310,1,0
32,280,74626,2,0,B|0:224|0:224|0:88,1,200,4|0
48,24,75573,1,0
96,88,75889,6,0,B|184:152|288:120,1,200,4|0
352,72,76836,1,0
360,152,77152,2,0,B|472:152,2,99.9999999999999,4|0|0
352,232,78100,1,0
256,192,78415,12,4,82205
256,192,83468,5,4
208,192,92310,6,8,B|104:192,2,99.9999999999999
288,192,93257,1,8
368,192,93573,6,0,B|416:176|448:136,2,99.9999999999999,4|0|0
328,264,94521,1,8
256,232,94836,2,0,B|256:128,2,99.9999999999999,4|0|0
256,312,95784,1,8
184,272,96100,2,0,B|136:272|96:320,2,99.9999999999999,4|0|0
184,192,97047,1,8
184,112,97363,2,0,B|208:16|208:16|256:48|304:16|304:16|328:112,1,300,4|8
344,192,98626,6,0,B|336:296,1,99.9999999999999,4|0
256,312,99257,1,0
256,232,99573,1,8
168,192,99889,2,0,B|176:296,2,99.9999999999999,4|0|0
160,112,100836,1,8
96,160,101152,6,0,B|48:176|32:232,1,99.9999999999999,4|0
32,312,101784,1,0
32,312,102100,1,8
104,272,102415,2,0,B|200:328|296:328|392:272,1,300,4|8
456,224,103678,5,4
392,176,103994,1,0
328,128,104310,1,0
264,176,104626,1,8
200,224,104942,2,0,B|200:328,2,99.9999999999999,4|0|0
120,224,105889,1,8
160,152,106205,6,0,B|160:88|160:88|216:32|280:32,2,200,4|0|4
160,232,107784,1,0
160,312,108100,2,0,B|248:368,1,99.9999999999999,0|8
328,368,108731,5,4
496,192,109678,1,8
496,192,109994,1,4
496,192,110310,1,0
336,192,110942,5,8
336,192,111258,1,4
336,192,111574,1,0
176,192,112205,5,8
176,192,112521,1,4
176,192,112836,1,0
96,192,113152,1,0
16,192,113468,5,8
16,192,113784,2,0,B|16:88|96:16|224:24,1,300,4|8
216,104,115047,2,0,B|136:184|256:280|376:184|296:104,1,300,4|8
292,23,116310,2,0,B|416:16|496:88|496:192,1,300,4|8
496,272,117573,2,0,B|472:328|472:328|336:368,1,200,4|0
256,376,118521,1,8
173,367,118836,6,0,B|40:328|40:328|16:272,1,200,4|0
0,192,119784,1,8
48,128,120100,2,0,B|112:48|112:48|168:72|208:48,1,200,4|0
256,112,121047,1,8
306,49,121363,2,0,B|344:72|400:48|400:48|464:128,1,200,4|0
400,176,122310,1,8
336,224,122626,6,0,B|296:232|296:232|288:272|304:328|304:328|256:368|256:368|208:328|208:328|224:272|216:232|216:232|176:224,1,400,4|4
96,216,124205,2,0,B|96:64,1,150
208,32,125152,1,0
280,72,125468,2,0,B|392:72|392:72|472:120,1,200
464,208,126415,6,0,B|511:279|447:415|303:367,1,300,4|0
209,366,127678,6,0,B|65:415|1:279|48:208,1,300,4|0
80,128,128942,5,4
128,200,129257,2,0,B|208:264,2,99.9999999999999
168,128,130205,1,4
168,128,130521,2,0,B|216:128|216:128|264:104,2,99.9999999999999
168,208,131468,6,0,B|184:264|184:264|256:320|256:320|328:264|328:264|344:208,1,300,4|0
360,128,132731,1,4
296,72,133047,1,8
256,144,133363,1,8
216,72,133678,1,8
152,128,133994,1,4
