osu file format v12

[General]
AudioFilename: Avril Lavigne Marilyn Manson - Bad Girl.mp3
AudioLeadIn: 0
PreviewTime: -1
Countdown: 1
SampleSet: Normal
StackLeniency: 0.7
Mode: 0
LetterboxInBreaks: 1
WidescreenStoryboard: 0

[Editor]
DistanceSpacing: 1.3
BeatDivisor: 4
GridSize: 8

[Metadata]
Title:Bad Girl
TitleUnicode:Bad Girl
Artist:Avril Lavigne ft. Marilyn Manson
ArtistUnicode:Avril Lavigne ft. Marilyn Manson
Creator:LeafeonRock
Version:Good Girl
Source:
Tags:
BeatmapID:368397
BeatmapSetID:149075

[Difficulty]
HPDrainRate:5
CircleSize:4
OverallDifficulty:5
ApproachRate:5
SliderMultiplier:1.4
SliderTickRate:1

[Events]
//Background and Video events
0,0,"Avril And Marilyn.png",0,0
//Break Periods
2,25450,26175
2,62450,66550
2,76950,82175
2,177325,178675
//Storyboard Layer 0 (Background)
//Storyboard Layer 1 (Fail)
//Storyboard Layer 2 (Pass)
//Storyboard Layer 3 (Foreground)
//Storyboard Sound Samples
//Background Colour Transformations
3,100,163,162,255

[TimingPoints]
0,500,4,1,0,100,1,0

[Colours]
Combo1 : 3,3,3
Combo2 : 255,255,255
Combo3 : 192,192,192
Combo4 : 128,128,128
Combo5 : 91,91,91

[HitObjects]
120,112,16875,5,0,0:0:0:0:
248,112,17625,1,0,0:0:0:0:
112,200,18375,1,0,0:0:0:0:
288,208,19250,1,0,0:0:0:0:
144,128,20000,1,0,0:0:0:0:
304,144,20750,1,0,0:0:0:0:
160,256,21500,1,0,0:0:0:0:
72,40,22250,2,0,L|72:328,3,280
152,48,27375,6,0,L|152:312,3,245
104,168,31125,1,0,0:0:0:0:
208,184,31875,1,0,0:0:0:0:
176,304,32625,1,0,0:0:0:0:
280,304,33500,1,0,0:0:0:0:
240,160,34375,1,0,0:0:0:0:
168,24,34750,2,0,P|80:192|296:56,2,665
208,64,40500,2,0,P|136:256|248:56,2,805
104,128,46875,5,0,0:0:0:0:
232,128,47250,1,0,0:0:0:0:
104,200,47625,1,0,0:0:0:0:
256,208,48000,1,0,0:0:0:0:
136,160,48500,1,0,0:0:0:0:
216,160,48875,1,0,0:0:0:0:
128,224,49250,1,0,0:0:0:0:
208,232,49625,1,0,0:0:0:0:
376,32,50000,6,0,L|376:336,1,280
280,32,51375,2,0,L|280:320,1,280
176,16,52625,2,0,L|176:312,1,280
264,24,54000,2,0,L|264:320,1,280
304,40,56250,2,0,L|304:296,1,245
160,32,57500,2,0,L|160:192,2,140
256,192,59625,12,0,62250,0:0:0:0:
128,24,67750,6,0,L|120:144,3,105
328,48,69375,2,0,L|176:272,1,245
320,88,71000,2,0,L|320:224,2,105
160,144,72750,1,0,0:0:0:0:
272,144,73125,1,0,0:0:0:0:
160,224,73500,1,0,0:0:0:0:
280,224,73875,1,0,0:0:0:0:
256,192,74375,12,0,76750,0:0:0:0:
80,120,83375,5,0,0:0:0:0:
208,128,84125,1,0,0:0:0:0:
80,208,84875,1,0,0:0:0:0:
208,208,85625,1,0,0:0:0:0:
112,160,86500,1,0,0:0:0:0:
72,232,87250,1,0,0:0:0:0:
208,248,87875,1,0,0:0:0:0:
136,192,88625,1,0,0:0:0:0:
232,128,89375,1,0,0:0:0:0:
152,264,90250,1,0,0:0:0:0:
280,40,92250,6,0,L|104:296,5,280
112,160,98625,1,0,0:0:0:0:
232,160,99375,1,0,0:0:0:0:
104,240,100125,1,0,0:0:0:0:
272,240,100875,1,0,0:0:0:0:
112,144,101625,1,0,0:0:0:0:
240,152,102375,1,0,0:0:0:0:
128,232,103125,1,0,0:0:0:0:
256,248,103875,1,0,0:0:0:0:
96,136,104500,5,0,0:0:0:0:
152,128,104875,1,0,0:0:0:0:
80,232,105250,1,0,0:0:0:0:
176,224,105625,1,0,0:0:0:0:
408,88,106625,2,0,L|272:200|272:200,1,175
336,88,109250,6,0,L|104:296,1,280
96,120,111125,1,0,0:0:0:0:
264,152,111875,1,0,0:0:0:0:
104,256,112625,1,0,0:0:0:0:
280,264,113250,1,0,0:0:0:0:
128,160,114125,1,0,0:0:0:0:
272,128,114875,1,0,0:0:0:0:
112,256,115625,1,0,0:0:0:0:
256,256,116250,1,0,0:0:0:0:
216,112,118000,5,0,0:0:0:0:
288,208,118750,1,0,0:0:0:0:
128,256,119500,1,0,0:0:0:0:
280,128,120250,1,0,0:0:0:0:
128,176,121000,1,0,0:0:0:0:
240,280,121750,1,0,0:0:0:0:
296,104,122375,1,0,0:0:0:0:
272,72,125250,6,0,L|56:344,3,315
128,32,131625,2,0,L|120:336,1,280
136,136,133250,1,0,0:0:0:0:
208,184,133625,1,0,0:0:0:0:
112,272,134000,1,0,0:0:0:0:
224,288,134375,1,0,0:0:0:0:
88,136,135750,1,0,0:0:0:0:
352,160,137250,1,0,0:0:0:0:
80,280,138750,5,0,0:0:0:0:
256,192,140250,12,0,147250,0:0:0:0:
120,128,149500,5,0,0:0:0:0:
344,128,151000,1,0,0:0:0:0:
104,280,152500,5,0,0:0:0:0:
256,192,153625,12,0,159250,0:0:0:0:
72,104,159750,5,0,0:0:0:0:
248,104,160500,1,0,0:0:0:0:
56,216,161250,1,0,0:0:0:0:
280,240,161875,1,0,0:0:0:0:
128,184,162750,1,0,0:0:0:0:
72,264,163500,1,0,0:0:0:0:
264,288,164250,1,0,0:0:0:0:
136,224,165000,1,0,0:0:0:0:
336,40,165375,6,0,L|240:216,1,175
128,317,166500,2,0,P|248:80|176:336,1,770
104,104,171875,5,0,0:0:0:0:
376,120,172625,1,0,0:0:0:0:
104,240,173375,1,0,0:0:0:0:
400,264,174125,1,0,0:0:0:0:
176,176,175000,1,0,0:0:0:0:
64,288,175625,1,0,0:0:0:0:
336,296,176375,1,0,0:0:0:0:
144,176,177125,1,0,0:0:0:0:
96,144,179875,5,0,0:0:0:0:
208,136,180500,1,0,0:0:0:0:
64,232,181375,1,0,0:0:0:0:
184,136,182125,5,0,0:0:0:0:
288,128,182500,1,0,0:0:0:0:
160,216,182875,1,0,0:0:0:0:
288,216,183250,1,0,0:0:0:0:
