osu file format v9

[General]
AudioFilename: Avril Lavigne- Wish You Were Here.mp3
AudioLeadIn: 0
PreviewTime: 52253
Countdown: 0
SampleSet: Soft
StackLeniency: 0.4
Mode: 0
LetterboxInBreaks: 1

[Editor]
Bookmarks: 133892,124520
DistanceSpacing: 1
BeatDivisor: 8
GridSize: 4

[Metadata]
Title:Wish You Were Here
Artist:Avril Lavigne
Creator:-Baby Strawberry-
Version:Damn Soso
Source:
Tags:Softrock Pop Goodbye Lullaby

[Difficulty]
HPDrainRate:3
CircleSize:3
OverallDifficulty:3
ApproachRate:4
SliderMultiplier:2.1
SliderTickRate:2

[Events]
//Background and Video events
0,0,"BG2.jpg"
//Break Periods
2,75585,84909
2,144983,155752
2,168115,170210
//Storyboard Layer 0 (Background)
//Storyboard Layer 1 (Fail)
//Storyboard Layer 2 (Pass)
//Storyboard Layer 3 (Foreground)
//Storyboard Sound Samples
//Background Colour Transformations
3,100,0,0,0

[TimingPoints]
205,722.89156626506,4,2,1,35,1,0
29120,-100,4,2,1,45,0,1
29211,-100,4,2,1,45,0,0
40686,-100,4,2,1,45,0,1
40777,-100,4,2,1,45,0,0
52253,-100,4,1,1,40,0,1
75385,-100,4,2,1,20,0,0
86229,-100,4,2,1,45,0,0
95445,-83.3333333333333,4,2,1,45,0,0
96349,-66.6666666666667,4,2,2,45,0,0
96439,-66.6666666666667,4,2,1,45,0,0
98518,-100,4,2,1,50,0,1
98608,-100,4,2,1,50,0,0
106470,-100,4,1,2,34,0,0
106560,-100,4,2,1,50,0,0
110084,-100,4,2,1,50,0,1
110174,-100,4,2,1,50,0,0
121650,-100,4,1,1,40,0,1
144783,-100,4,2,1,60,0,0
165747,-100,4,2,1,50,0,0
166470,-100,4,2,1,40,0,0
167192,-100,4,2,1,30,0,0
167915,-100,4,2,1,20,0,0
171530,-100,4,2,1,60,0,0
173698,-100,4,1,1,40,0,1
197915,-100,4,1,2,40,0,1
198006,-100,4,1,1,40,0,1
203337,-100,4,1,2,40,0,1
203427,-100,4,1,1,40,0,1
217795,-100,4,2,2,60,0,0

[Colours]
Combo1 : 100,221,109
Combo2 : 201,132,255
Combo3 : 248,97,157
SliderBorder : 0,0,0

[HitObjects]
144,72,4903,5,0
64,140,5265,1,0
64,244,5626,1,0
144,312,5988,2,0,B|204:300|236:244,1,105,2|0
332,224,6711,2,0,B|329:166|271:128|206:153,2,157.5,2|2|0
352,320,8156,5,0
448,288,8518,1,0
484,192,8879,2,0,B|423:169|380:226,1,105,2|0
408,112,9602,2,0,B|348:128|304:172|296:240,1,157.5,2|2
188,36,10867,5,0
188,140,11229,1,0
92,96,11590,2,0,B|92:168,1,52.5,0|2
192,336,12494,2,0,B|100:316|96:204,1,157.5,2|2
344,144,13939,5,2
396,52,14301,1,0
472,124,14662,2,0,B|492:188|432:228,1,105
504,304,15385,2,0,B|420:347|345:264,1,157.5,2|2
285,94,16831,5,0
204,28,17192,1,0
128,104,17554,2,0,B|124:172|192:192,1,105,2|0
180,188,18277,1,2
180,188,18819,1,2
444,196,19723,5,0
380,112,20084,1,0
316,196,20445,2,0,B|312:260|256:272,1,105,2|0
256,272,21168,1,2
256,272,21711,1,2
104,64,22614,5,0
36,144,22976,1,0
108,220,23337,2,0,B|160:176|220:228,2,105,2|0|2
108,220,24602,1,2
260,276,25144,5,0
356,232,25506,2,0,B|428:216|444:136,1,105,2|0
336,136,26229,2,0,B|374:73|329:5,1,105
256,88,26951,2,0,B|244:28|164:16|128:59,1,157.5,2|2
104,212,28036,5,0
200,184,28397,1,2
108,136,28759,1,2
196,80,29120,6,0,B|248:28|328:68,1,105,4|0
392,72,29843,1,8
456,156,30204,1,0
444,260,30566,1,2
368,332,30927,2,8,B|320:372|272:336,1,105,0|8
380,160,32012,5,2
312,80,32373,1,0
208,80,32735,2,0,B|151:61|116:114,1,104.999996870756,8|0
192,188,33458,2,0,B|157:240|101:221,1,104.999996870756,2|0
60,124,34180,1,8
256,196,34903,5,2
204,288,35265,1,0
308,288,35626,1,8
356,140,36168,6,0,B|442:140,1,52.5,0|2
456,236,36711,1,0
396,320,37072,1,8
188,328,37795,6,8,B|84:274,1,104.999996870756,2|0
192,240,38518,2,8,B|302:180,1,104.999996870756,8|0
188,152,39241,2,0,B|88:96,1,104.999996870756,2|0
192,60,39964,1,8
400,60,40686,5,4
304,100,41048,1,0
400,140,41409,1,8
304,180,41771,1,0
404,216,42132,1,2
308,260,42494,2,8,B|312:348,2,52.5,0|0|8
112,336,43578,6,0,B|27:337,2,52.5
176,252,44301,2,0,B|215:220,2,52.5,8|0|0
68,240,45024,2,8,B|48:92|229:108,1,210,0|8
408,92,46470,6,0,B|350:53|299:101,1,105,2|0
360,184,47192,1,8
260,148,47554,1,0
260,252,47915,5,2
160,288,48277,2,8,B|102:327|49:277,1,105,0|8
112,196,49000,1,0
256,192,49361,12,0,51530
168,76,52253,6,0,B|109:200|224:285,1,209.999993741512,8|0
308,264,53337,2,0,B|397:186|347:70,1,210,8|0
256,96,54421,2,0,B|256:242,2,105,8|0|0
456,192,55867,5,8
364,244,56229,1,0
308,332,56590,2,0,B|196:332,1,105
164,240,57313,1,8
68,192,57674,1,0
64,88,58036,6,0,B|64:24|144:24,1,104.999996870756,0|0
164,124,58759,1,8
240,196,59120,2,0,B|240:260|328:260,1,104.999996870756,0|0
332,156,59843,1,8
420,100,60205,2,0,B|420:67|374:67,2,52.4999984353781
332,156,60927,1,4
256,192,61650,12,0,63096
52,260,63819,6,8,B|128:352|264:296,1,209.999993741512,8|0
192,212,64903,2,8,B|203:85|361:73,1,209.999993741512,8|0
428,36,65988,2,0,B|463:80|427:143,2,105,8|0|4
428,248,67433,5,8
325,225,67795,1,0
256,145,68156,1,0
184,222,68518,1,0
82,249,68879,1,8
184,271,69241,1,0
256,348,69602,6,0,B|356:280,1,105
384,192,70325,1,8
340,96,70686,2,0,B|231:43,1,105
148,88,71409,1,8
120,188,71771,2,0,B|128:308,2,105,0|0|4
256,192,73217,12,4,75385
344,48,86229,5,0
256,104,86590,1,0
172,164,86951,2,8,B|172:284,2,105,2|0|2
172,164,88036,1,0
120,80,88397,21,0
120,81,88759,1,0
232,80,89120,1,2
231,79,89482,1,0
332,52,89843,6,8,B|382:19|432:52,1,104.999996870756,0|0
380,144,90566,2,0,B|380:253,2,104.999996870756
424,344,92012,5,0
320,344,92373,1,0
216,344,92735,1,0
44,224,93458,2,0,B|12:176|48:104|120:112,1,157.5,2|2
256,192,94542,6,0,B|296:184|304:148,1,52.5
256,192,94903,2,2,B|216:184|208:148,1,52.5
200,300,95445,22,0,B|132:276|64:128|56:88|116:40|152:8|216:24|256:80|256:80|324:-4|389:26|440:68|444:120|428:156|400:205|372:248|336:288|256:348,1,945.000022530556,0|2
392,348,98518,6,8,B|368:292|272:268,1,104.999996870756,4|0
208,276,99241,2,8,B|248:212|328:196,1,104.999996870756,8|0
388,188,99964,2,8,B|356:132|268:132,1,104.999996870756,2|0
220,72,100686,2,0,B|220:129,2,52.4999984353781,8|0|0
116,68,101409,6,8,B|47:92|36:188,1,104.999996870756,2|0
148,172,102132,2,8,B|218:185|228:292,1,104.999996870756,8|0
216,348,102855,2,8,B|274:353|310:302,1,104.999996870756,2|0
412,320,103578,2,8,B|431:266|369:230,1,104.999996870756,8|0
336,136,104301,5,2
256,68,104662,1,0
176,136,105024,1,8
256,68,105385,1,0
308,160,105747,2,0,B|356:236|256:284|256:284|152:236|204:156,1,315,2|0
256,192,107192,12,0,109361
280,224,110084,6,8,B|384:152,1,104.999996870756,4|0
276,112,110807,2,0,B|172:40,1,104.999996870756,8|0
188,156,111530,2,0,B|188:284,1,104.999996870756,2|0
184,312,112072,2,0,B|112:312|104:240,1,105,0|0
92,100,112976,6,0,B|20:100,2,52.4999984353781,2|0|0
196,100,113698,2,0,B|268:100,2,52.4999984353781,8|0|0
140,188,114421,1,2
212,268,114783,1,0
284,344,115144,1,8
352,136,115867,6,0,B|290:82|218:82|161:133,1,210,2|8
340,244,117313,5,2
256,308,117674,1,0
172,244,118036,1,8
256,192,118759,12,0,120927
365,261,121650,6,0,B|405:150|308:76,1,210,0|8
204,76,122735,2,0,B|106:150|146:261,1,210,0|8
256,272,123819,2,0,B|256:376,2,105,0|0|4
112,120,125265,6,0,B|145:80|202:69,1,104.999996870756,8|0
308,72,125988,2,0,B|365:83|418:145,1,104.999996870756,0|0
344,212,126711,2,0,B|304:144|196:144|164:224,1,210,8|0
256,272,127795,1,8
360,88,128518,5,0
360,88,128879,1,8
148,88,129602,5,0
149,87,129964,1,8
148,88,130325,1,4
72,272,131048,6,0,B|76:384|252:376|256:284|256:284|260:376|448:384|436:260,1,525,0|0
340,224,133217,6,0,B|232:160|432:112|292:48,1,210,0|8
204,56,134301,2,0,B|77:113|277:161|169:225,1,210,0|8
152,324,135385,2,0,B|381:324,1,209.999993741512,0|4
411,142,136831,6,8,B|275:186,1,104.999996870756,8|0
200,174,137554,2,8,B|100:142,1,104.999996870756,0|0
160,240,138277,2,0,B|224:292|264:256|304:288|372:236,1,210,8|0
256,196,139361,1,8
152,32,140084,5,0
152,32,140445,1,8
364,32,141168,5,0
364,32,141530,1,8
364,32,141891,1,4
256,192,142614,12,4,144783
408,192,157072,5,0
256,48,157795,1,2
152,48,158156,1,0
92,136,158518,1,2
268,252,159241,1,4
60,276,159964,5,0
124,360,160325,1,0
228,360,160686,1,2
172,156,161409,5,2
276,156,161771,1,0
340,240,162132,1,4
448,60,162855,5,0
452,268,163578,1,2
384,348,163939,1,0
280,348,164301,1,0
256,140,165024,5,0
316,52,165385,1,0
420,52,165747,1,0
296,220,166470,5,0
251,319,166831,1,0
141,304,167192,1,0
120,196,167554,1,0
214,142,167915,1,4
256,192,171530,12,0,172976
192,268,173698,6,0,B|228:342|332:326|349:242,1,210,0|8
348,140,174783,2,0,B|330:55|215:34|176:142,1,210,0|8
120,184,175867,2,0,B|128:192|128:192|136:184|136:184|144:191|144:191|152:184|152:184|160:192|160:192|168:184|168:184|176:192|176:192|184:184|184:184|192:192|192:192|200:184|200:184|208:192|208:192,2,105
316,276,177313,6,0,B|276:335|204:343,1,104.999996870756,8|0
136,296,178036,2,0,B|104:231|133:165,1,104.999996870756,0|0
208,132,178759,2,0,B|279:137|322:195,1,104.999996870756,8|0
220,236,179482,5,0
220,236,179843,1,8
432,236,180566,5,0
432,236,180927,1,8
328,52,181650,5,0
327,51,182012,1,8
326,51,182373,1,4
120,20,183096,6,0,B|8:11|16:200|108:204|108:204|16:208|8:396|132:384,1,525,0|0
156,288,185265,6,0,B|256:236|358:293,1,210,8|0
416,208,186349,2,0,B|316:148|311:36,1,210,8|0
208,36,187433,2,0,B|203:148|102:208,1,210,8|4
284,316,188879,6,0,B|410:249,1,104.999996870756,8|0
404,164,189602,2,0,B|276:230,1,104.999996870756,0|0
212,172,190325,2,0,B|340:103,1,104.999996870756,8|0
400,76,191048,5,0
400,76,191409,1,8
256,228,192132,5,0
256,228,192494,1,8
112,76,193217,5,0
112,76,193578,1,8
112,76,193939,1,4
256,192,194662,12,4,196108
256,40,196831,6,8,B|344:56|384:136|396:164|380:264|356:304|312:344|244:352,1,420,8|0
184,276,198638,1,0
115,193,199000,1,8
184,116,199361,1,0
256,40,199723,1,4
396,192,200445,5,8
256,40,201168,1,0
296,244,201891,1,8
296,244,202253,1,0
248,340,202614,6,0,B|138:283|120:252|111:172|123:96|162:56|224:34|271:26,1,419.999987483025,0|0
328,120,204421,1,0
398,195,204783,1,8
398,195,205144,1,0
398,195,205506,1,4
259,352,206229,5,8
154,362,206590,1,0
114,264,206951,1,0
193,195,207313,1,0
280,256,207674,1,4
150,87,208397,6,0,B|220:51|280:105,1,104.999996870756,8|0
355,87,209120,1,0
349,189,209482,2,0,B|277:159|218:206,1,104.999996870756,8|0
169,258,210205,1,0
232,340,210566,2,0,B|160:380|72:336|64:248,1,210,8|4
236,144,212012,5,8
316,76,212373,1,0
334,179,212735,1,0
254,247,213096,1,0
156,211,213458,1,8
137,108,213819,1,0
220,44,214180,6,0,B|272:12|334:61,1,104.999996870756
264,140,214903,1,8
352,196,215265,2,0,B|408:248|326:318,1,104.999996870756
260,244,215988,1,0
188,320,216349,2,0,B|131:371|75:298,1,104.999996870756,8|0
144,228,217072,1,4
256,192,217795,12,4,219964
