osu file format v9

[General]
AudioFilename: Avril Lavigne- Wish You Were Here.mp3
AudioLeadIn: 0
PreviewTime: 52253
Countdown: 0
SampleSet: Soft
StackLeniency: 0.7
Mode: 0
LetterboxInBreaks: 1

[Editor]
Bookmarks: 133892
DistanceSpacing: 0.8
BeatDivisor: 8
GridSize: 4

[Metadata]
Title:Wish You Were Here
Artist:Avril Lavigne
Creator:-Baby Strawberry-
Version:Damn Easy
Source:
Tags:Softrock Pop Goodbye Lullaby

[Difficulty]
HPDrainRate:2
CircleSize:3
OverallDifficulty:2
ApproachRate:3
SliderMultiplier:1.5
SliderTickRate:2

[Events]
//Background and Video events
0,0,"BG1.jpg"
//Break Periods
2,75585,84789
2,144983,155632
2,168115,170090
//Storyboard Layer 0 (Background)
//Storyboard Layer 1 (Fail)
//Storyboard Layer 2 (Pass)
//Storyboard Layer 3 (Foreground)
//Storyboard Sound Samples
//Background Colour Transformations
3,100,0,0,0

[TimingPoints]
205,722.89156626506,4,2,1,35,1,0
6711,-100,4,2,2,15,0,0
6801,-100,4,2,1,35,0,0
9602,-100,4,2,2,15,0,0
9692,-100,4,2,1,35,0,0
11771,-100,4,2,2,25,0,0
11861,-100,4,2,1,35,0,0
12494,-100,4,2,2,22,0,0
12584,-100,4,2,1,35,0,0
15385,-100,4,2,2,17,0,0
15476,-100,4,2,1,35,0,0
15927,-100,4,2,2,35,0,0
16018,-100,4,2,1,35,0,0
26951,-100,4,2,2,18,0,0
27042,-100,4,2,1,35,0,0
29120,-100,4,2,1,45,0,1
29211,-100,4,2,1,45,0,0
40686,-100,4,2,1,45,0,1
40777,-100,4,2,1,45,0,0
52253,-100,4,1,1,40,0,1
75385,-100,4,2,1,45,0,0
98518,-100,4,2,1,50,0,1
98608,-100,4,2,1,50,0,0
110084,-100,4,2,1,50,0,1
110174,-100,4,2,1,50,0,0
121650,-100,4,1,1,40,0,1
144783,-100,4,2,1,60,0,0
158518,-100,4,2,2,40,0,0
158608,-100,4,2,1,60,0,0
164301,-100,4,2,2,40,0,0
164391,-100,4,2,1,60,0,0
173698,-100,4,1,1,60,0,1
217795,-100,4,1,1,60,0,0
219964,-100,4,2,2,60,0,0

[Colours]
Combo1 : 100,221,109
Combo2 : 201,132,255
Combo3 : 248,97,157
SliderBorder : 0,0,0

[HitObjects]
208,80,4903,2,0,B|166:98|152:44,2,75
264,64,5988,2,0,B|320:64|368:88|392:136|392:192|368:248|320:256,1,262.5,2|2
256,216,7795,6,0,B|299:203|275:152,2,75,0|2|0
200,200,8879,2,0,B|190:255|205:306|248:338|303:348|363:334|379:288,1,262.5,2|2
344,192,10867,6,0,B|368:232|368:232|400:248,1,75
408,184,11590,2,0,B|422:145|360:80|277:95|240:160|264:240|328:256,1,300,0|2
176,208,13939,6,0,B|152:168|152:168|120:152,1,75,2|0
104,208,14662,2,0,B|89:246|152:320|234:296|272:231|248:152|184:136,1,300,2|0
256,40,16831,5,2
256,160,17554,1,0
192,64,18277,2,0,B|264:8|328:64,1,150,2|0
376,176,19722,5,2
256,176,20445,1,0
152,112,21168,2,0,B|96:184|152:248,1,150,2|0
256,192,22614,5,2
256,312,23337,1,0
189,212,24060,2,0,B|261:156|325:212,1,150,2|0
256,312,25506,5,2
168,232,26229,2,0,B|108:176|160:118|256:64|256:64|344:118|412:172|328:248,1,450,0|0
456,256,29120,5,4
432,136,29843,1,8
328,72,30566,2,0,B|256:56|256:56|176:72,1,150,0|8
80,136,32012,5,0
56,256,32735,1,8
168,216,33458,1,0
256,136,34180,1,8
344,216,34903,6,0,B|336:288|336:288|256:304,1,150,0|8
176,216,36349,2,0,B|184:288|184:288|264:304,1,150,0|8
376,328,37795,5,0
256,352,38518,1,8
136,328,39241,1,0
256,296,39964,1,8
256,176,40686,6,0,B|184:160|184:160|128:96,1,150,0|8
256,88,42132,1,0
256,88,42855,1,8
378,102,43578,6,0,B|327:159|327:159|255:175,1,150,0|8
256,296,45024,1,0
256,176,45747,1,8
312,280,46470,6,0,B|367:212|311:140,1,150,0|8
198,143,47915,2,0,B|143:212|199:279,1,150,0|8
256,192,49361,12,0,51530
289,154,52253,6,0,B|351:173|371:223|352:284,1,150,4|8
323,320,53337,2,0,B|275:364|221:356|177:309,1,150,0|8
160,266,54421,2,0,B|145:202|179:159|241:145,1,150,0|4
344,136,55867,5,8
256,56,56590,1,0
168,136,57313,1,8
132,248,58036,6,0,B|192:292|192:292|268:248,1,150,0|8
196,224,59120,2,0,B|228:192|228:192|292:192|292:192|332:224,1,150,0|8
384,248,60204,2,0,B|320:292|320:292|248:248,1,150,0|4
144,216,61650,5,8
32,168,62373,1,0
80,56,63096,1,8
192,104,63819,6,0,B|256:176|320:104,1,150,4|8
380,136,64903,2,0,B|364:180|292:216|256:208,1,150,0|8
257,208,65988,2,0,B|224:216|152:180|136:136,1,150,0|4
256,88,67433,5,8
352,24,68156,1,0
456,88,68879,1,8
352,152,69602,6,0,B|352:232,1,75,0|8
256,304,70686,2,0,B|256:229,1,75,0|8
160,152,71771,2,0,B|160:232,1,75,0|8
256,192,73217,12,0,75385
160,352,86229,5,2
272,304,86951,1,0
224,192,87674,1,2
112,240,88397,6,0,B|55:235|21:179|63:129,1,150,0|2
176,104,89843,1,0
296,72,90566,2,0,B|256:8|256:8|216:72,1,150,2|0
336,104,92012,5,2
450,131,92735,1,0
450,131,93458,2,0,B|484:176|456:244|400:240,1,150,2|0
400,240,94903,5,2
256,192,95626,12,0,97795
168,192,98518,5,4
200,72,99241,1,8
312,72,99964,1,0
344,192,100686,1,8
256,272,101409,6,0,B|200:281|200:281|163:255|163:255|154:200,1,150,0|8
256,272,102855,2,0,B|311:281|311:281|348:255|348:255|357:200,1,150,0|8
328,88,104301,5,0
256,184,105024,1,8
184,88,105747,5,0
256,184,106470,1,8
316,288,107192,5,0
196,288,107915,1,8
316,288,108638,5,0
196,288,109361,1,8
256,192,110084,6,0,B|272:144|328:120|384:144,1,150,0|8
320,40,111530,1,0
200,40,112253,1,8
132,140,112976,6,0,B|147:187|203:211|264:188,1,150,0|8
256,312,114421,1,0
256,312,115144,1,8
291,196,115867,6,0,B|255:169|216:200,2,75,0|0|8
328,80,117313,2,0,B|256:48|176:80,1,150,0|8
256,192,118759,12,4,120927
208,48,121650,6,0,B|160:56|128:112|144:152|176:192,1,150,4|8
216,160,122735,2,0,B|200:88|304:88|288:160,1,150,0|8
344,168,123819,2,0,B|358:154|374:114|342:58|296:50,1,150,0|4
416,64,125265,5,8
440,184,125988,1,0
416,304,126711,1,8
304,336,127433,6,0,B|216:336|216:336|168:336|152:288,1,150,0|8
208,264,128518,2,0,B|296:264|296:264|344:264|360:216,1,150,0|8
304,192,129602,2,0,B|216:192|216:192|168:192|152:240,1,150,0|4
80,304,131048,5,8
32,192,131771,1,0
80,80,132494,1,8
184,136,133217,6,0,B|256:104|256:104|328:136,1,150,4|8
320,192,134302,2,0,B|254:163|254:163|180:192,1,150,0|8
184,256,135386,2,0,B|256:224|256:224|320:256,1,150,0|4
256,152,136832,5,8
316,256,137555,1,0
196,256,138278,1,8
136,152,139000,6,0,B|136:56,1,75,0|8
256,48,140085,2,0,B|256:123,1,75,0|8
376,152,141168,2,4,B|376:56,1,75,0|8
256,192,142615,12,4,144783
256,168,157072,5,4
144,128,157795,2,0,B|164:52|256:24|352:48|376:140,1,300,2|4
328,244,159964,6,0,B|256:288|172:240,1,150,2|0
188,368,161409,2,0,B|260:324|344:372,1,150,2|4
412,276,162855,5,0
368,164,163578,2,0,B|308:184|268:220|256:260|256:260|244:220|204:184|140:160,1,300,2|0
100,276,165747,1,0
150,163,166470,5,0
256,108,167192,1,0
361,163,167915,1,4
256,192,171530,12,0,172976
312,120,173698,6,0,B|344:168|284:216|324:272,1,150,0|8
260,264,174783,2,0,B|224:214|284:166|252:118,1,150,0|8
192,120,175867,2,0,B|224:168|164:216|204:272,1,150,0|4
80,276,177313,5,8
164,192,178036,1,0
80,108,178759,1,8
196,72,179482,6,0,B|264:36|344:72,1,150,0|8
376,120,180566,2,0,B|412:188|376:268,1,150,0|8
340,312,181650,2,0,B|272:348|192:312,1,150,0|4
268,220,183096,5,8
336,120,183819,1,0
264,24,184542,1,8
200,120,185265,6,0,B|168:168|228:216|188:272,1,150,0|8
252,264,186350,2,0,B|287:214|227:166|259:118,1,150,0|8
320,120,187434,2,0,B|288:168|348:216|308:272,1,150,0|4
432,276,188880,5,8
348,192,189603,1,0
432,108,190326,1,8
320,72,191049,6,0,B|252:108|172:72,1,150,0|8
136,120,192133,2,0,B|172:188|136:268,1,150,0|8
176,312,193217,2,0,B|244:276|324:312,1,150,0|4
356,196,194662,5,8
256,128,195385,1,0
156,196,196108,1,8
256,192,196831,12,0,199723
256,124,200445,5,8
196,228,201168,1,0
256,236,201530,1,0
316,228,201891,1,8
372,328,202614,5,0
372,328,202976,1,8
256,356,203698,5,0
256,356,204060,1,8
140,328,204783,5,0
140,328,205144,1,8
140,328,205506,1,4
124,208,206229,6,0,B|194:137|256:208|256:208|312:136|392:216,1,300,0|4
468,116,208397,6,0,B|469:65|403:27|357:51,1,150,8|0
300,84,209482,2,0,B|276:100|256:144|256:144|236:100|208:80,1,150,8|0
153,50,210566,2,0,B|109:27|43:65|44:116,1,150,8|4
144,196,212012,5,8
252,264,212735,1,0
364,320,213458,1,8
256,376,214180,6,0,B|216:360|208:312,1,75
196,264,214903,1,8
256,252,215265,6,0,B|296:236|304:188,1,75
312,136,215988,1,8
256,124,216349,6,0,B|216:108|208:60,1,75
256,32,217072,1,4
256,192,217795,12,4,219964
