osu file format v9

[General]
AudioFilename: Avril Lavigne- Wish You Were Here.mp3
AudioLeadIn: 0
PreviewTime: 52253
Countdown: 0
SampleSet: Soft
StackLeniency: 0.4
Mode: 0
LetterboxInBreaks: 1

[Editor]
Bookmarks: 18573,133892
DistanceSpacing: 1
BeatDivisor: 8
GridSize: 4

[Metadata]
Title:Wish You Were Here
Artist:Avril Lavigne
Creator:-Baby Strawberry-
Version:Damn Crazy
Source:
Tags:Softrock Pop Goodbye Lullaby

[Difficulty]
HPDrainRate:7
CircleSize:4
OverallDifficulty:7
ApproachRate:8
SliderMultiplier:3
SliderTickRate:4

[Events]
//Background and Video events
0,0,"BG4.jpg"
//Break Periods
2,75370,85298
2,144983,150539
//Storyboard Layer 0 (Background)
//Storyboard Layer 1 (Fail)
//Storyboard Layer 2 (Pass)
//Storyboard Layer 3 (Foreground)
//Storyboard Sound Samples
//Background Colour Transformations
3,100,0,0,0

[TimingPoints]
205,722.89156626506,4,2,1,40,1,0
29120,-100,4,2,1,50,0,1
29211,-100,4,2,1,50,0,0
40686,-100,4,2,1,50,0,1
40777,-100,4,2,1,50,0,0
52253,-66.6666666666667,4,1,1,40,0,1
75385,-100,4,2,1,45,0,0
98518,-100,4,2,1,45,0,1
98608,-100,4,2,1,45,0,0
110084,-100,4,2,1,45,0,1
110174,-100,4,2,1,45,0,0
118578,-66.6666666666667,4,2,1,45,0,0
121650,-66.6666666666667,4,1,1,40,0,1
144783,-100,4,2,1,45,0,0
157072,-100,4,2,1,40,0,0
167192,-100,4,2,1,35,0,0
168638,-100,4,2,1,30,0,0
170084,-100,4,2,1,25,0,0
171530,-100,4,2,1,20,0,0
173337,-100,4,2,1,45,0,0
173698,-66.6666666666667,4,1,1,40,0,1
217795,-100,4,2,1,50,0,0
219964,-100,4,2,2,60,0,0

[Colours]
Combo1 : 100,221,109
Combo2 : 201,132,255
Combo3 : 248,97,157
SliderBorder : 0,0,0

[HitObjects]
53,70,4903,1,0
127,70,5084,1,0
93,137,5265,1,0
168,136,5445,1,0
132,204,5626,1,0
212,329,5988,2,0,B|275:369|389:322|400:242,1,225,2|0
397,256,6711,1,2
397,151,7072,1,0
396,150,7253,1,2
179,24,7795,5,0
194,97,7976,1,0
120,81,8156,1,0
141,152,8337,1,0
67,138,8518,1,0
111,280,8879,1,2
166,331,9060,1,0
238,312,9241,1,0
306,178,9602,1,2
378,309,9964,1,0
378,309,10144,1,2
316,46,10867,6,0,B|216:20|151:86,1,150
173,68,11409,1,0
206,216,11771,1,2
206,216,11951,1,0
206,216,12132,1,0
120,336,12494,6,0,B|32:328|36:232,1,150,2|0
33,154,13036,2,0,B|32:56|120:48,1,150,2|0
116,48,13578,1,0
272,40,13939,5,0
328,88,14120,1,0
272,136,14301,1,0
144,216,14662,1,2
195,270,14843,1,0
247,324,15024,1,0
400,336,15385,6,0,B|488:328|484:216,1,150,2|0
484,153,15927,2,0,B|488:56|402:48,1,150,2|0
402,48,16470,1,0
189,52,16831,5,0
120,24,17012,1,0
72,80,17192,1,0
112,142,17373,1,0
185,127,17554,2,0,B|178:130|245:104|299:132|321:199,1,150,2|0
386,306,18277,2,0,B|393:303|331:332|273:312|250:234,1,150,2|0
260,257,18819,1,2
376,48,19361,5,0
376,48,19542,1,0
405,118,19723,1,2
384,192,19903,1,0
328,240,20084,2,0,B|288:312,1,75
216,302,20445,5,2
171,242,20626,1,0
113,193,20807,1,0
91,121,20988,1,0
113,49,21168,1,2
251,106,21530,2,0,B|295:181,1,75,0|2
78,89,22253,6,0,B|108:48|137:88,1,75,0|0
176,216,22795,1,0
273,87,23156,1,0
273,87,23337,2,0,B|369:127|329:255,1,150,2|0
282,346,24060,2,0,B|186:306|226:178,1,150,2|0
215,226,24602,1,2
367,193,24964,5,0
440,192,25144,1,0
367,193,25325,1,0
336,124,25506,1,2
366,192,25686,1,0
336,260,25867,1,2
256,192,26229,12,0,27674
160,96,28036,5,2
192,168,28217,1,0
258,208,28397,1,2
320,168,28578,1,0
352,96,28759,1,2
343,276,29120,5,4
396,327,29301,1,0
343,276,29482,1,0
192,272,29843,5,8
134,320,30024,1,0
192,272,30204,1,0
48,168,30566,5,2
88,100,30747,1,0
150,52,30927,2,0,B|190:20|244:19,2,75,0|0|8
236,176,31650,1,0
351,75,32012,6,0,B|400:80|424:136,1,75,2|0
393,184,32373,2,0,B|344:176|326:131,1,75,0|0
308,220,32735,6,0,B|332:248|380:252,1,75,8|0
376,328,33096,2,0,B|339:334|300:306,1,75,0|0
233,342,33458,6,0,B|171:332|151:267,1,75,2|0
211,242,33819,1,0
135,246,34000,1,0
86,302,34180,1,8
64,136,34542,5,0
110,78,34723,1,0
179,49,34903,1,2
254,46,35084,1,0
328,57,35265,1,0
471,100,35626,1,8
416,320,36168,5,0
368,254,36349,1,2
299,212,36530,1,0
226,179,36711,1,0
175,119,36891,1,0
169,37,37072,1,8
0,128,37614,5,0
0,128,37795,2,8,B|-12:224|37:341|187:355,1,300,2|8
205,291,38698,5,0
257,349,38879,1,0
310,290,39060,1,0
362,349,39241,6,8,B|475:341|524:224|509:126,1,300,2|8
376,128,40325,1,0
108,24,40686,5,6
48,68,40867,1,0
108,119,41048,2,0,B|23:186,1,75
112,208,41409,5,8
170,253,41590,1,0
112,302,41771,2,0,B|202:374,1,75
245,346,42132,2,0,B|327:295|278:217|278:217|232:140|315:82,1,300,2|8
382,219,43217,1,0
400,368,43578,5,2
340,321,43759,1,0
400,272,43939,2,0,B|310:193,1,75
400,176,44301,5,8
461,132,44482,1,0
403,85,44662,2,0,B|324:10,1,75
304,96,45024,2,0,B|240:24|172:85|172:85|104:144|32:72,1,300,2|8
54,220,46108,1,0
177,304,46470,5,2
256,304,46650,1,0
337,304,46831,1,0
327,154,47192,2,0,B|247:104|162:169,1,150,8|0
256,20,47915,5,2
200,120,48096,1,0
312,120,48277,1,0
256,216,48458,1,0
144,216,48638,5,8
368,216,49000,1,0
256,192,49361,12,6,51891
408,192,52253,5,8
360,296,52433,1,0
256,336,52614,1,0
152,296,52795,1,0
112,192,52976,1,0
408,192,53337,5,8
360,88,53518,1,0
256,48,53698,1,0
152,88,53879,1,0
112,192,54060,1,0
304,280,54421,6,0,B|320:276|320:276|344:180|344:180|256:111|256:111|168:180|168:180|194:278|194:278|234:284|234:284,1,449.999986588955,8|4
360,72,55867,6,0,B|239:-45|112:120,1,224.999993294478,8|0
103,187,56409,1,0
160,296,56590,6,0,B|255:387|359:291,1,224.999993294478,0|0
403,187,57132,1,0
356,73,57313,1,8
256,255,57674,1,0
134,74,58036,5,0
246,72,58217,1,0
134,74,58397,1,0
136,299,58759,5,8
360,298,59120,5,0
247,300,59301,1,0
360,298,59482,1,0
361,72,59843,5,8
169,190,60204,6,0,B|256:116|256:116|340:188,1,224.999993294478,0|8
170,191,60927,1,4
256,192,61650,12,0,63096
256,80,63819,5,8
368,64,64000,1,0
401,171,64180,1,0
339,264,64361,1,0
257,342,64542,1,0
256,80,64903,5,8
144,64,65084,1,0
108,171,65265,1,0
171,263,65445,1,0
256,343,65626,1,0
256,80,65988,6,0,B|272:62|204:138|204:138|328:192|328:192|212:252|212:252|258:343,1,449.999986588955,8|4
392,56,67433,5,8
392,328,67795,1,0
120,328,68156,1,0
120,56,68518,1,0
38,259,68879,6,8,B|54:75|182:11,1,224.999993294478,8|0
212,260,69602,1,0
300,56,69964,2,0,B|394:151|382:339,1,224.999993294478,0|8
136,260,70686,6,8,B|152:76|280:12,1,224.999993294478,0|0
308,264,71409,1,8
390,56,71771,2,8,B|480:156|473:326,1,224.999993294478,0|8
390,56,72494,5,4
256,192,73217,12,0,74662
336,80,86048,5,0
403,120,86229,1,0
295,234,86590,1,2
444,184,86951,1,0
296,152,87313,2,0,B|384:168|374:262,1,150,0|2
256,341,88036,1,0
256,341,88217,1,2
296,92,88759,5,0
260,18,88939,1,0
220,92,89120,1,2
259,165,89301,1,0
477,213,89843,2,0,B|420:328|285:315,1,224.999993294478
218,314,90566,2,0,B|92:327|35:212,1,224.999993294478,2|0
256,36,91831,5,0
189,72,92012,1,0
257,108,92192,1,0
257,184,92373,1,0
321,220,92554,1,0
257,260,92735,1,0
257,108,93277,6,2,B|281:60|249:28,1,75,0|2
257,184,93819,2,2,B|233:232|265:264,1,75,0|2
452,263,94542,5,0
402,324,94723,1,0
334,364,94903,1,0
258,384,95084,1,0
181,365,95265,1,0
109,332,95445,1,0
64,267,95626,1,2
256,192,95807,12,2,97795
448,328,98518,5,4
352,56,98879,1,0
256,328,99241,1,8
160,56,99602,1,0
64,328,99964,1,2
257,118,100325,1,0
255,260,100506,1,8
40,96,101229,5,0
40,96,101409,1,2
108,56,101590,1,0
178,90,101771,1,0
184,164,101951,1,0
152,232,102133,2,0,B|132:268|180:308,1,75,8|0
224,344,102494,5,0
300,344,102674,1,0
360,300,102855,1,2
380,228,103036,1,0
340,164,103217,1,0
328,92,103397,2,0,B|356:56|392:56,1,75,0|8
333,216,104120,5,0
286,274,104301,2,0,B|212:340|129:260,1,150,2|0
93,138,105024,1,8
314,183,105566,5,0
346,111,105747,1,2
296,50,105927,2,0,B|256:24|216:56,3,75,0|0|0|8
256,192,107012,5,0
292,276,107192,2,8,B|376:245|374:117|272:100,1,225,2|0
221,105,107915,2,8,B|144:124|135:245|219:276,1,225,8|0
256,192,108638,12,2,109723
178,74,110084,5,4
122,145,110265,1,0
168,221,110445,1,0
255,201,110626,1,0
266,111,110807,2,0,B|338:95|378:183|318:234,1,150,8|0
341,205,111349,1,0
255,201,111530,5,2
217,282,111711,1,0
285,340,111891,1,0
361,292,112072,1,0
340,204,112253,1,8
104,320,112795,5,0
44,252,112976,1,2
43,253,113156,1,0
43,162,113337,2,0,B|44:95|100:91,1,75,0|0
149,48,113698,1,8
238,41,113879,2,0,B|280:14|324:62,1,75,0|0
377,104,114241,1,0
378,104,114421,1,2
202,150,114783,1,0
202,150,114964,1,8
257,343,115686,5,0
343,318,115867,2,0,B|438:302|432:188,1,150,2|0
444,125,116409,1,0
390,52,116590,1,8
173,33,117132,5,0
96,72,117313,1,2
48,148,117494,2,0,B|19:184|38:240,1,75,0|0
63,303,117855,1,0
128,364,118036,1,8
256,192,118578,5,0
342,226,118759,2,8,B|320:304|202:312|171:228,1,224.999993294478,2|0
256,192,119301,1,0
168,157,119482,2,8,B|188:76|309:71|340:155,1,224.999993294478,8|0
256,192,120024,1,0
256,192,120204,12,4,121289
304,48,121650,5,8
408,88,121831,1,0
464,184,122012,1,0
408,280,122192,1,0
304,328,122373,1,0
208,48,122735,5,8
104,88,122915,1,0
48,184,123096,1,0
104,280,123277,1,0
208,328,123458,1,0
296,120,123819,5,8
192,156,124000,1,0
296,188,124180,1,0
192,224,124361,1,0
296,256,124542,1,4
400,40,125265,5,8
400,336,125626,1,0
104,336,125988,1,0
112,40,126349,1,0
144,328,126711,2,0,B|200:256|320:424|376:296,1,224.999993294478,8|0
256,72,127433,5,0
200,169,127614,1,0
144,72,127795,1,0
368,72,128156,5,8
256,320,128518,5,0
312,223,128698,1,0
370,321,128879,1,0
147,318,129241,5,8
257,122,129602,1,0
370,320,129964,1,8
257,123,130325,1,4
256,192,131048,12,0,132494
424,320,133217,5,8
320,256,133397,1,0
320,128,133578,1,0
424,64,133759,1,0
424,192,133939,1,0
88,64,134302,5,8
192,128,134482,1,0
192,256,134663,1,0
88,192,134844,1,0
88,320,135024,1,0
257,117,135385,5,8
257,275,135566,1,0
324,132,135747,1,0
256,276,135927,1,0
188,132,136108,1,4
392,112,136831,5,8
88,192,137192,1,0
384,296,137554,1,0
216,32,137915,1,0
200,344,138277,1,8
256,192,138638,1,0
224,240,139000,5,0
256,144,139180,1,0
288,240,139361,1,0
208,184,139542,1,0
304,184,139723,1,8
312,269,140084,5,0
255,96,140265,1,0
199,269,140446,1,0
347,162,140627,1,0
164,162,140807,1,8
347,221,141168,5,0
164,221,141349,1,0
312,114,141530,1,0
256,288,141711,1,0
199,114,141891,1,4
256,192,142614,5,0
120,192,142976,1,0
256,192,143337,5,0
392,192,143698,1,0
256,192,144060,5,0
256,192,144783,5,4
368,56,151289,5,2
468,145,151650,1,0
375,243,152012,1,2
324,197,152192,1,0
282,144,152373,1,0
223,110,152554,1,0
156,97,152735,1,2
92,119,152915,1,0
56,177,153096,1,0
56,311,153458,1,4
381,322,154180,5,2
302,230,154542,2,0,B|373:196|452:230,1,150,0|2
491,180,155084,1,2
449,126,155265,2,0,B|375:94|300:125,1,150,0|2
263,72,155807,1,2
304,18,155988,2,0,B|376:-10|448:21,1,150,0|4
88,56,157072,5,2
124,323,157795,1,2
151,261,157976,1,2
196,211,158156,1,0
259,186,158337,1,0
326,177,158518,1,2
391,190,158698,1,0
444,231,158879,1,0
392,356,159241,1,4
444,51,159964,5,2
443,118,160144,1,0
410,177,160325,1,0
357,219,160506,1,0
290,228,160686,1,2
230,196,160867,1,0
197,136,161048,1,0
142,96,161229,1,0
81,65,161409,2,8,B|48:76|-5:137|71:212,1,150,2|0
51,190,161951,1,0
51,191,162132,1,4
324,340,162855,5,2
259,322,163036,1,0
231,260,163217,1,0
278,211,163397,1,0
344,209,163578,1,2
408,184,163759,1,0
436,124,163939,1,0
396,68,164120,1,0
332,44,164301,2,0,B|256:16|180:48,1,150,2|0
196,193,165024,6,0,B|163:300|205:354,1,149.999995529652,0|0
256,136,165747,2,0,B|148:103|94:145,1,149.999995529652,2|0
314,191,166470,6,0,B|346:83|304:29,1,149.999995529652,0|0
258,249,167192,2,0,B|365:281|419:239,1,149.999995529652,2|0
289,54,167915,6,0,B|396:160,1,150,4|0
222,329,168638,2,0,B|116:224,1,150,2|0
393,224,169361,6,0,B|288:332,1,150,0|0
117,158,170084,2,0,B|224:52,1,150,2|0
356,200,170807,5,0
236,288,171168,1,0
144,168,171530,1,2
268,80,171891,1,0
256,192,172072,12,4,173337
272,88,173698,6,0,B|296:32|364:39,1,112.499996647239,12|0
420,72,174060,2,0,B|452:128|412:180,1,112.499996647239,0|0
356,204,174421,2,0,B|289:210|266:151,1,112.499996647239,0|0
213,206,174783,6,0,B|252:256|218:310,1,112.499996647239,8|0
166,349,175144,2,0,B|104:356|73:300,1,112.499996647239,0|0
66,237,175506,2,0,B|92:180|160:176,1,112.499996647239,0|0
68,80,175867,22,0,B|253:34|361:149|320:340,1,449.999986588955,8|4
456,32,177313,5,8
343,32,177494,1,0
346,143,177674,1,0
347,368,178036,5,0
346,255,178217,1,0
233,255,178397,1,0
229,29,178759,5,8
224,141,178939,1,0
111,143,179120,1,8
73,23,179482,6,8,B|1:23|1:23|-1:252,1,224.999993294478,0|0
0,256,180024,1,0
0,336,180205,1,8
141,253,180566,6,0,B|189:253|189:253|189:349|189:349|346:349,1,224.999993294478,0|0
304,280,181108,1,0
346,210,181289,1,8
408,352,181650,6,0,B|480:352|480:352|480:152|480:152,1,224.999993294478,0|0
478,120,182192,1,0
478,41,182373,1,4
172,272,183096,5,0
336,116,183458,1,0
255,304,183819,1,0
257,78,184180,1,0
59,189,184542,1,8
59,189,184723,1,8
59,189,184903,1,8
95,344,185265,6,0,B|240:344,1,112.499996647239,8|0
262,287,185626,1,0
308,223,185807,1,0
355,159,185988,1,0
472,264,186349,6,0,B|328:264,1,112.499996647239,8|0
298,213,186711,1,0
247,152,186891,1,0
197,90,187072,1,0
90,205,187433,6,0,B|232:205,1,112.499996647239,8|0
258,149,187795,1,0
307,87,187976,1,0
358,27,188156,1,4
38,33,188879,5,8
254,96,189241,1,0
38,169,189602,1,0
255,223,189964,1,0
470,287,190325,1,8
258,364,190686,1,0
19,300,191048,5,0
19,299,191229,1,0
20,300,191409,1,0
255,11,191771,5,8
493,300,192132,5,0
493,299,192313,1,0
492,300,192494,1,0
256,11,192855,5,8
204,340,193217,2,8,B|264:383|334:324,2,112.499996647239,0|0|0
257,190,193939,1,4
374,106,194662,6,0,B|318:74|266:87,1,112.499996647239,8|0
137,274,195024,2,0,B|192:305|244:292,1,112.499996647239
186,96,195385,2,0,B|140:141|140:195,1,112.499996647239
326,288,195747,2,0,B|371:242|371:188,1,112.499996647239,8|0
176,245,196108,5,8
256,96,196289,1,8
408,168,196470,1,8
324,312,196650,1,0
154,336,196831,5,8
117,265,197012,1,0
87,192,197192,1,0
56,119,197373,1,0
22,47,197554,1,0
308,46,197915,5,8
274,118,198096,1,0
243,191,198277,1,0
213,264,198458,1,0
176,335,198638,1,0
464,335,199000,5,8
427,264,199180,1,0
397,191,199361,1,0
366,118,199542,1,0
332,46,199723,1,4
162,352,200445,5,8
442,192,200807,1,0
163,30,201168,1,0
69,191,201530,5,0
348,353,201891,1,8
349,31,202253,1,0
264,286,202614,6,0,B|194:304|147:235,1,112.499996647239
141,200,202976,2,0,B|123:130|191:83,1,112.499996647239
227,74,203337,2,0,B|297:56|344:125,1,112.499996647239,8|0
347,157,203698,2,0,B|365:227|296:275,1,112.499996647239,0|0
417,343,204060,5,0
425,28,204421,1,0
109,28,204783,1,8
114,342,205144,1,0
256,192,205506,5,4
256,160,206229,6,0,B|208:112|256:56,1,112.499996647239,8|0
288,192,206590,2,0,B|336:144|392:192,1,112.499996647239,0|0
256,224,206951,2,0,B|304:272|256:336,1,112.499996647239,0|0
224,192,207313,2,0,B|176:240|120:192,1,112.499996647239,0|0
256,192,207674,5,8
256,192,207855,1,8
256,192,208036,1,12
256,192,208397,12,4,211289
53,185,212012,5,8
258,71,212373,1,0
258,296,212735,5,0
457,193,213096,1,0
257,297,213458,5,8
257,72,213819,1,0
174,281,214180,5,0
256,208,214361,1,0
253,318,214542,1,0
256,208,214723,1,0
337,280,214903,1,8
219,76,215265,5,0
242,184,215445,1,0
148,126,215626,1,0
242,184,215807,1,0
139,218,215988,1,8
374,218,216349,5,0
269,184,216530,1,0
366,131,216711,1,0
269,184,216891,1,0
291,77,217072,1,4
138,68,217795,5,2
414,217,218156,1,0
101,258,218518,1,0
336,49,218879,1,0
275,351,219241,1,2
256,192,219602,5,0
256,192,219783,1,0
256,192,219964,1,4
