osu file format v12

[General]
AudioFilename: i am so sorry .mp3
AudioLeadIn: 0
PreviewTime: 57942
Countdown: 0
SampleSet: Soft
StackLeniency: 0.7
Mode: 0
LetterboxInBreaks: 0
WidescreenStoryboard: 0

[Editor]
Bookmarks: 516,44460
DistanceSpacing: 1
BeatDivisor: 4
GridSize: 4

[Metadata]
Title:When You're Gone
TitleUnicode:When You're Gone
Artist:Avril Lavigne
ArtistUnicode:Avril Lavigne
Creator:-Bakari-
Version:Hard
Source:
Tags:The Best Damn Thing Dark_Ai Love ballad you are
BeatmapID:222274
BeatmapSetID:64702

[Difficulty]
HPDrainRate:6
CircleSize:4
OverallDifficulty:6
ApproachRate:7
SliderMultiplier:3
SliderTickRate:4

[Events]
//Background and Video events
0,0,"i miss you .jpg",0,0
//Break Periods
2,85868,97644
2,217054,219335
//Storyboard Layer 0 (Background)
//Storyboard Layer 1 (Fail)
//Storyboard Layer 2 (Pass)
//Storyboard Layer 3 (Foreground)
//Storyboard Sound Samples
//Background Colour Transformations
3,100,163,162,255

[TimingPoints]
3897,845.070422535211,4,2,0,25,1,0
14037,-100,4,2,0,5,0,0
17418,-100,4,2,2,35,0,0
44460,-100,4,2,2,45,0,0
56713,-100,4,2,2,30,0,0
57981,-83.3333333333333,4,2,1,65,0,1
78263,-83.3333333333333,4,2,1,45,0,1
79953,-83.3333333333333,4,2,1,30,0,1
81854,-100,4,2,1,25,0,0
98544,-100,4,2,1,44,0,0
125587,-100,4,2,1,55,0,0
139108,-76.9230769230769,4,2,1,55,0,1
152418,-76.9230769230769,4,2,1,85,0,1
152470,-76.9230769230769,4,2,1,55,0,1
152629,-76.9230769230769,4,2,1,75,0,1
152682,-76.9230769230769,4,2,1,55,0,1
166150,-100,4,2,1,45,0,0
179671,-100,4,2,1,65,0,1
179882,-100,4,2,1,65,0,0
183051,-100,4,2,1,65,0,1
183263,-100,4,2,1,65,0,0
186432,-100,4,2,1,65,0,1
186643,-100,4,2,1,65,0,0
193193,-71.4285714285714,4,2,1,65,0,1
213474,-71.4285714285714,4,2,1,65,0,0
220235,-100,4,2,0,25,0,0
230375,-100,4,2,0,5,0,0

[Colours]
Combo1 : 109,128,146
Combo2 : 160,154,107
Combo3 : 166,181,176
Combo4 : 109,108,82

[HitObjects]
256,372,3897,1,2,0:0:0:0:
256,296,4108,1,0,0:0:0:0:
256,220,4319,1,0,0:0:0:0:
384,144,4742,2,0,P|404:216|387:287,1,150,2|0,0:0|0:0,0:0:0:0:
256,220,5587,1,2,0:0:0:0:
256,372,6009,1,0,0:0:0:0:
124,287,6432,2,0,P|108:216|128:144,1,150,2|2,0:0|0:0,0:0:0:0:
316,48,7277,5,2,0:0:0:0:
256,112,7488,1,0,0:0:0:0:
196,48,7699,1,0,0:0:0:0:
116,188,8122,2,0,P|176:228|176:308,1,150,2|0,0:0|0:0,0:0:0:0:
332,300,8967,2,0,P|336:228|396:188,1,150,2|0,0:0|0:0,0:0:0:0:
476,60,9812,2,0,B|420:60|420:60|380:36|380:36|332:36,1,150,2|0,0:0|0:0,0:0:0:0:
180,36,10657,6,0,B|132:36|132:36|92:60|92:60|36:60,1,150,2|0,0:0|0:0,0:0:0:0:
44,212,11502,1,2,0:0:0:0:
104,260,11713,1,0,0:0:0:0:
136,328,11925,1,0,0:0:0:0:
192,192,12347,2,0,P|256:228|320:192,1,150,2|0,0:0|0:0,0:0:0:0:
468,212,13192,1,2,0:0:0:0:
408,260,13404,1,0,0:0:0:0:
376,328,13615,1,0,0:0:0:0:
256,192,14037,12,0,16573,0:0:0:0:
120,316,17418,6,0,P|128:256|68:188,1,150,4|0,0:0|0:0,0:0:0:0:
40,44,18263,2,0,P|92:64|188:44,1,150,8|0,0:0|0:0,0:0:0:0:
329,47,19108,2,0,P|420:64|472:44,1,150,0|0,0:0|0:0,0:0:0:0:
437,190,19953,2,0,P|384:256|392:316,2,150,8|0|0,0:0|0:0|3:0,0:0:0:0:
504,324,21220,5,0,0:0:0:0:
364,376,21643,1,8,0:0:0:0:
256,272,22066,1,0,0:0:0:0:
148,376,22488,1,2,0:0:0:0:
8,324,22911,1,0,0:0:0:0:
8,324,23333,5,10,0:0:0:0:
76,192,23756,1,0,0:0:0:0:
160,68,24178,1,0,0:0:0:0:
256,352,25023,1,8,0:0:0:0:
352,68,25868,1,2,0:0:0:0:
436,192,26291,1,0,0:0:0:0:
504,324,26713,1,8,0:0:0:0:
256,156,27558,5,0,0:0:0:0:
252,308,27981,1,0,0:0:0:0:
176,180,28404,2,0,P|256:76|336:180,2,300,8|0|8,0:0|0:0|0:0,0:0:0:0:
52,264,30516,5,0,0:0:0:0:
80,196,30727,1,0,0:0:0:0:
60,124,30939,1,0,0:0:0:0:
256,156,31361,1,0,0:0:0:0:
452,124,31784,2,0,P|432:192|460:264,2,150,8|0|0,0:0|0:0|0:0,0:0:0:0:
332,36,33051,1,0,0:0:0:0:
256,12,33263,1,0,0:0:0:0:
180,36,33474,1,8,0:0:0:0:
260,164,33896,1,0,0:0:0:0:
112,196,34319,6,0,B|136:236|112:260|84:292|112:340,1,150,0|0,0:0|0:0,0:0:0:0:
256,296,35164,1,10,0:0:0:0:
256,296,35587,1,0,0:0:0:0:
400,340,36009,2,0,B|428:292|400:260|376:236|400:196,1,150,0|0,0:0|0:0,0:0:0:0:
256,36,36854,2,0,B|176:116|256:180|336:244|256:324,2,300,8|0|8,0:0|0:0|0:0,0:0:0:0:
316,96,38756,5,0,0:0:0:0:
256,36,38967,1,0,0:0:0:0:
196,96,39178,1,0,0:0:0:0:
152,164,39389,2,0,L|132:316,1,150,0|0,0:0|0:0,0:0:0:0:
379,312,40235,2,0,L|360:164,1,150,8|0,0:0|0:0,0:0:0:0:
464,32,41080,6,0,B|432:112|464:176|464:176|496:240|464:336,1,300,0|8,0:0|0:0,0:0:0:0:
256,304,42347,1,0,0:0:0:0:
44,323,42770,2,8,B|16:240|48:176|48:176|80:112|48:32,1,300,0|8,0:0|0:0,0:0:0:0:
256,80,44037,1,0,0:0:0:0:
160,192,44460,6,0,P|192:256|176:336,1,150,2|0,3:0|0:0,0:0:0:0:
333,330,45305,2,0,P|320:256|352:192,2,150,8|0|0,0:0|0:0|0:0,0:0:0:0:
256,208,46573,1,0,0:0:0:0:
176,80,46995,1,8,0:0:0:0:
336,80,47418,1,0,0:0:0:0:
452,172,47840,6,0,L|464:344,1,150,2|0,3:0|0:0,0:0:0:0:
336,240,48685,1,8,0:0:0:0:
176,236,49108,1,0,0:0:0:0:
49,321,49530,2,0,L|60:172,2,150,0|0|8,0:3|0:0|0:0,0:0:0:0:
196,348,50798,5,0,0:0:0:0:
256,212,51220,1,0,0:0:0:0:
316,348,51643,1,0,0:0:0:0:
464,328,52066,2,0,P|468:264|404:216,1,150,8|0,0:0|0:0,0:0:0:0:
256,212,52911,1,0,0:0:0:0:
108,216,53333,2,0,P|44:264|48:328,2,150,0|8|0,0:0|0:0|0:0,0:0:0:0:
180,332,54601,5,4,0:0:0:0:
352,232,55023,1,2,0:0:0:0:
160,232,55446,1,8,0:0:0:0:
332,332,55868,1,0,0:0:0:0:
256,152,56291,1,4,0:0:0:0:
256,152,56502,1,0,0:0:0:0:
180,332,56713,6,0,L|100:332,1,75,0|0,0:0|0:0,0:0:0:0:
332,332,57136,2,0,L|412:332,1,75,4|0,0:0|0:0,0:0:0:0:
256,252,57558,1,8,0:0:0:0:
160,32,57981,6,0,P|256:156|352:32,1,359.999989013672,4|0,0:0|0:0,0:0:0:0:
352,212,59249,2,0,P|392:184|424:144,1,89.9999972534181,0|0,0:0|0:3,0:0:0:0:
160,212,59671,2,0,P|120:184|88:144,1,89.9999972534181,2|0,0:0|0:3,0:0:0:0:
316,300,60094,2,0,P|360:308|404:296,1,89.9999972534181,0|0,0:0|0:0,0:0:0:0:
196,300,60516,2,8,P|152:308|104:296,1,89.9999972534181,8|0,2:0|0:0,0:0:0:0:
256,364,60939,1,0,0:0:0:0:
256,264,61150,1,0,0:0:0:0:
176,200,61361,6,0,P|256:164|336:200,1,179.999994506836,2|0,0:0|0:0,0:0:0:0:
400,260,61995,1,0,0:0:0:0:
408,172,62206,2,8,B|384:136|340:108|340:108|352:68|328:20,1,179.999994506836,8|0,0:0|0:0,0:0:0:0:
256,80,62840,1,0,0:0:0:0:
181,24,63051,2,0,B|160:68|172:108|172:108|128:136|104:172,2,179.999994506836,0|0|8,0:0|0:0|0:0,0:0:0:0:
256,188,64319,1,0,0:0:0:0:
128,320,64742,6,0,B|160:256|160:256|256:344|352:256|352:256|384:320,1,359.999989013672,0|8,0:0|0:0,0:0:0:0:
376,140,66009,2,0,P|416:120|436:72,2,89.9999972534181,0|0|0,0:0|0:0|0:0,0:0:0:0:
320,212,66643,1,0,0:0:0:0:
256,152,66854,1,0,0:0:0:0:
192,212,67066,1,0,0:0:0:0:
136,140,67277,2,0,P|96:120|76:72,2,89.9999972534181,8|0|0,2:0|0:0|0:0,0:0:0:0:
40,292,68122,6,0,B|132:300|132:300|196:364,1,179.999994506836,2|0,0:0|0:0,0:0:0:0:
256,296,68756,1,0,0:0:0:0:
318,361,68967,2,0,B|380:300|380:300|472:292,2,179.999994506836,8|0|2,0:0|0:0|0:0,0:0:0:0:
132,192,70235,2,0,L|100:14,1,179.999994506836,0|8,0:0|0:0,0:0:0:0:
256,304,71080,1,0,0:0:0:0:
411,14,71502,6,0,L|380:192,1,179.999994506836,4|0,0:0|0:0,0:0:0:0:
420,272,72136,1,0,0:0:0:0:
328,272,72347,2,0,P|256:224|184:272,1,179.999994506836,8|0,0:0|0:0,0:0:0:0:
92,272,72981,1,0,0:0:0:0:
44,196,73192,2,0,P|48:128|0:28,1,179.999994506836,0|0,0:0|0:0,0:0:0:0:
160,108,74037,1,8,0:0:0:0:
352,108,74460,1,0,0:0:0:0:
511,28,74882,6,0,P|464:128|468:196,1,179.999994506836,2|0,0:0|0:0,0:0:0:0:
292,228,75727,1,8,0:0:0:0:
376,264,75939,1,0,0:0:0:0:
460,300,76150,1,0,0:0:0:0:
220,228,76573,2,0,L|44:304,1,179.999994506836,2|0,0:0|0:0,0:0:0:0:
172,164,77418,6,0,P|144:248|216:308,1,179.999994506836,8|0,0:0|0:0,0:0:0:0:
256,380,78051,1,0,0:0:0:0:
309,305,78263,2,0,P|368:248|340:164,2,179.999994506836,4|0|2,0:0|0:0|0:0,0:0:0:0:
214,169,79953,5,0,0:0:0:0:
184,84,80375,1,0,0:0:0:0:
256,30,80798,1,2,0:0:0:0:
328,84,81220,1,0,0:0:0:0:
300,168,81643,1,0,0:0:0:0:
256,192,81854,12,4,85023,0:0:0:0:
72,312,98544,6,0,B|124:308|124:308|168:272|168:272|208:268,1,150,4|0,0:0|0:0,0:0:0:0:
256,208,99178,1,0,0:0:0:0:
304,268,99389,2,0,B|344:272|344:272|388:308|388:308|440:312,1,150,8|0,0:0|0:0,0:0:0:0:
488,252,100023,1,0,0:0:0:0:
448,188,100235,2,0,P|384:176|356:92,1,150,2|0,0:0|0:0,0:0:0:0:
158,103,101080,2,0,P|128:176|64:188,1,150,8|0,0:0|0:0,0:0:0:0:
24,252,101713,1,0,0:0:0:0:
72,312,101925,6,0,B|124:308|124:308|168:272|168:272|208:268,1,150,2|0,0:0|0:0,0:0:0:0:
440,312,102770,2,0,B|388:308|388:308|344:272|344:272|304:268,1,150,8|0,0:0|0:0,0:0:0:0:
256,208,103404,1,0,0:0:0:0:
200,156,103615,1,2,0:0:0:0:
220,84,103826,1,0,0:0:0:0:
292,84,104037,1,0,0:0:0:0:
312,156,104249,1,0,0:0:0:0:
368,204,104460,2,0,L|368:364,1,150,8|0,0:0|0:0,0:0:0:0:
144,354,105305,6,0,L|144:204,1,150,2|0,0:0|0:0,0:0:0:0:
180,60,106150,1,8,0:0:0:0:
332,60,106573,1,0,0:0:0:0:
388,208,106995,2,0,P|396:243|388:283,1,75,2|0,0:0|0:0,0:0:0:0:
308,320,107418,2,0,P|300:282|308:247,1,75,0|0,0:0|0:0,0:0:0:0:
204,248,107840,2,0,P|212:283|204:320,1,75,0|0,1:0|0:0,0:0:0:0:
124,280,108263,2,0,P|116:242|124:207,1,75,0|0,0:0|0:0,0:0:0:0:
60,160,108685,6,0,P|96:112|64:28,1,150,2|0,0:0|0:0,0:0:0:0:
192,120,109530,1,8,0:0:0:0:
332,64,109953,1,0,0:0:0:0:
396,108,110164,1,0,0:0:0:0:
468,88,110375,2,0,P|460:148|376:180,1,150,2|0,0:0|0:0,0:0:0:0:
256,192,111009,1,0,0:0:0:0:
127,181,111220,2,0,P|52:148|44:88,1,150,8|0,0:0|0:0,0:0:0:0:
116,108,111854,1,0,0:0:0:0:
192,120,112066,6,0,P|258:86|319:118,1,150,4|0,0:0|0:0,0:0:0:0:
256,160,112699,1,0,0:0:0:0:
192,200,112911,2,0,P|258:234|319:201,1,150,8|0,0:0|0:0,0:0:0:0:
380,160,113544,1,0,0:0:0:0:
384,236,113756,2,0,P|384:308|464:328,2,150,2|0|8,0:0|0:0|0:0,0:0:0:0:
256,312,115023,1,0,0:0:0:0:
128,236,115446,2,0,P|128:308|48:328,2,150,2|0|8,0:0|0:0|0:0,0:0:0:0:
40,116,116713,5,0,0:0:0:0:
112,92,116925,1,0,0:0:0:0:
180,64,117136,1,2,0:0:0:0:
256,192,117558,1,0,0:0:0:0:
332,64,117981,1,8,0:0:0:0:
400,92,118192,1,0,0:0:0:0:
472,116,118404,1,0,0:0:0:0:
384,236,118826,6,0,P|396:288|312:320,1,150,2|0,0:0|0:0,0:0:0:0:
256,288,119460,1,0,0:0:0:0:
192,324,119671,2,0,P|116:287|128:235,1,150,8|0,0:0|0:0,0:0:0:0:
200,212,120305,1,0,0:0:0:0:
256,160,120516,1,2,0:0:0:0:
312,212,120727,1,0,0:0:0:0:
380,240,120939,1,0,0:0:0:0:
256,48,121361,1,8,0:0:0:0:
132,240,121784,1,0,0:0:0:0:
328,132,122206,6,0,B|372:112|372:112|424:112|424:112|472:92,1,150,2|0,0:0|0:0,0:0:0:0:
184,132,123051,2,0,B|140:112|140:112|88:112|88:112|40:92,1,150,8|0,0:0|0:0,0:0:0:0:
116,224,123896,1,0,0:0:0:0:
164,284,124108,1,8,0:0:0:0:
188,356,124319,1,0,0:0:0:0:
256,324,124530,2,0,L|256:244,2,75,0|8|0,0:0|0:3|0:0,0:0:0:0:
324,356,125164,1,4,3:0:0:0:
348,284,125375,1,0,0:0:0:0:
396,224,125587,6,0,P|432:196|400:108,1,150,4|0,0:0|0:0,0:0:0:0:
116,224,126432,2,0,P|80:196|112:108,2,150,8|0|2,0:0|0:0|0:0,0:0:0:0:
396,328,127699,1,0,0:0:0:0:
116,328,128122,1,8,0:0:0:0:
256,96,128544,1,0,0:0:0:0:
96,132,128967,6,0,B|160:180|160:180|168:260,1,150,2|0,0:0|0:0,0:0:0:0:
333,237,129812,2,0,B|340:168|340:168|404:120,2,150,8|0|2,0:0|0:0|0:0,0:0:0:0:
144,352,131080,1,0,0:0:0:0:
368,352,131502,1,8,0:0:0:0:
256,172,131925,1,0,0:0:0:0:
458,83,132347,6,0,P|380:92|336:44,1,150,2|0,0:0|0:0,0:0:0:0:
176,44,133192,2,0,P|132:92|53:83,1,150,8|0,0:0|0:0,0:0:0:0:
136,200,134037,1,2,0:0:0:0:
256,116,134460,1,0,0:0:0:0:
376,196,134882,1,8,0:0:0:0:
256,280,135305,1,0,0:0:0:0:
256,116,135727,5,2,0:0:0:0:
192,348,136150,1,0,0:0:0:0:
376,196,136573,1,8,0:0:0:0:
136,200,136995,1,0,0:0:0:0:
320,348,137418,1,2,0:0:0:0:
256,212,137840,6,0,L|256:136,1,75,8|8,0:0|0:0,0:0:0:0:
256,60,138263,2,0,P|328:72|408:36,1,150,8|0,0:3|0:0,0:0:0:0:
384,224,139108,6,0,P|256:348|128:224,1,389.999982147218,4|8,0:0|0:0,0:0:0:0:
180,40,140375,1,0,0:0:0:0:
260,96,140587,1,0,0:0:0:0:
352,140,140798,1,2,0:0:0:0:
160,140,141220,1,0,0:0:0:0:
332,40,141643,1,8,0:0:0:0:
256,220,142066,1,0,0:0:0:0:
304,304,142277,1,0,0:0:0:0:
208,304,142488,6,0,P|164:248|201:140,1,194.999991073609,2|0,0:0|0:0,0:0:0:0:
256,56,143122,1,0,0:0:0:0:
310,140,143333,2,0,P|348:248|304:304,2,194.999991073609,8|0|2,0:0|0:0|0:0,0:0:0:0:
256,220,144389,1,0,0:0:0:0:
208,304,144601,2,0,P|120:320|80:224,1,194.999991073609,0|2,0:0|0:0,0:0:0:0:
256,220,145446,1,0,0:0:0:0:
435,237,145868,2,0,P|392:320|304:304,1,194.999991073609,4|0,0:0|0:0,0:0:0:0:
256,220,146502,1,0,0:0:0:0:
256,124,146713,1,8,0:0:0:0:
68,64,147136,6,0,P|112:76|164:52,1,97.4999955368044,0|0,0:0|0:0,0:0:0:0:
256,40,147558,1,2,0:0:0:0:
353,57,147770,2,0,P|400:76|444:64,1,97.4999955368044,0|0,0:0|0:0,0:0:0:0:
460,192,148192,1,0,0:0:0:0:
444,320,148404,2,0,P|400:308|353:326,1,97.4999955368044,8|0,0:0|0:0,0:0:0:0:
260,304,148826,1,0,0:0:0:0:
158,326,149037,2,0,P|112:308|68:320,1,97.4999955368044,0|2,0:0|0:0,0:0:0:0:
108,128,149671,5,0,0:0:0:0:
184,28,149882,1,0,0:0:0:0:
256,148,150094,1,8,0:0:0:0:
328,28,150305,1,0,0:0:0:0:
404,128,150516,1,0,0:0:0:0:
256,332,150939,1,2,0:0:0:0:
316,256,151150,2,0,L|412:240,2,97.4999955368044,0|0|0,0:0|0:0|0:0,0:0:0:0:
196,256,151784,2,0,L|100:240,1,97.4999955368044,4|0,0:0|0:0,0:0:0:0:
160,160,152206,6,0,P|256:24|352:160,1,389.999982147218,0|0,0:0|0:0,0:0:0:0:
256,188,153263,1,0,0:0:0:0:
180,256,153474,2,0,P|168:308|184:356,1,97.4999955368044,8|0,0:0|0:0,0:0:0:0:
333,349,153897,2,0,P|344:312|332:256,1,97.4999955368044,0|0,0:0|0:0,0:0:0:0:
256,304,154319,2,0,L|256:100,2,194.999991073609,2|0|8,0:0|0:0|0:0,0:0:0:0:
152,52,155587,5,0,0:0:0:0:
256,304,156009,1,2,0:0:0:0:
360,52,156432,1,0,0:0:0:0:
124,192,156854,1,8,0:0:0:0:
388,192,157277,1,0,0:0:0:0:
208,124,157699,6,0,L|100:112,2,97.4999955368044,2|0|0,0:0|0:0|0:0,0:0:0:0:
256,208,158333,2,0,L|256:312,2,97.4999955368044,0|8|0,0:0|0:0|0:0,0:0:0:0:
304,124,158967,2,0,L|412:112,2,97.4999955368044,2|0|4,0:0|0:0|0:0,0:0:0:0:
116,172,159812,5,0,0:0:0:0:
68,256,160023,1,0,0:0:0:0:
112,344,160235,1,8,0:0:0:0:
400,344,160657,1,0,0:0:0:0:
444,256,160868,1,0,0:0:0:0:
396,172,161080,1,2,0:0:0:0:
256,308,161502,1,0,0:0:0:0:
395,171,161925,6,0,P|257:58|116:172,2,389.999982147218,8|2|8,0:0|0:0|0:0,0:0:0:0:
256,192,164460,12,4,166150,0:0:0:0:
112,182,166995,6,0,P|168:132|156:64,2,150,8|0|0,0:0|0:0|0:0,0:0:0:0:
20,124,168263,2,0,P|4:200|48:264,2,150,0|8|0,0:0|0:0|0:0,0:0:0:0:
256,196,169530,1,2,0:0:0:0:
492,124,169953,2,0,P|508:200|464:264,2,150,0|8|0,0:0|0:0|0:0,0:0:0:0:
356,60,171220,6,0,B|320:128|320:128|344:160|348:200,1,150,2|0,0:0|0:0,0:0:0:0:
332,344,172066,2,0,P|404:316|480:344,2,150,8|8|2,0:0|0:0|0:0,0:0:0:0:
180,344,173333,2,0,P|108:316|32:344,1,150
76,192,174178,1,0,0:0:0:0:
40,48,174601,6,0,B|56:108|56:108|104:96|140:128,1,150,2|0,0:0|0:0,0:0:0:0:
256,216,175446,1,8,0:0:0:0:
373,126,175868,2,0,B|408:96|456:108|456:108|472:48,2,150,0|2|0,0:0|0:0|0:0,0:0:0:0:
256,32,177136,1,8,0:0:0:0:
256,180,177558,1,8,0:0:0:0:
256,192,177981,12,0,179249,0:0:0:0:
205,270,179671,6,0,P|208:304|200:344,1,75,4|0,0:0|0:0,0:0:0:0:
133,166,180094,2,0,P|136:200|128:240,1,75,0|0,0:0|0:0,0:0:0:0:
73,42,180516,2,0,P|76:76|68:116,1,75,8|0,0:0|0:0,0:0:0:0:
36,200,180939,5,0,0:0:0:0:
52,288,181150,1,0,0:0:0:0:
128,240,181361,2,0,P|196:204|184:116,1,150,2|0,0:0|0:0,0:0:0:0:
256,68,181995,1,0,0:0:0:0:
312,137,182206,2,0,P|316:204|384:240,1,150,8|0,0:0|0:0,0:0:0:0:
444,116,183051,6,0,P|436:76|438:42,1,75,4|0,0:0|0:0,0:0:0:0:
384,240,183474,2,0,P|376:200|378:166,1,75,0|0,0:0|0:0,0:0:0:0:
312,344,183896,2,0,P|304:304|306:270,1,75,8|0,0:0|0:0,0:0:0:0:
228,224,184319,5,0,0:0:0:0:
284,156,184530,1,0,0:0:0:0:
228,88,184742,1,2,0:0:0:0:
288,20,184953,1,0,0:0:0:0:
228,88,185164,6,0,L|144:96,1,75,0|0,0:0|0:0,0:0:0:0:
284,156,185587,2,0,L|368:164,1,75,8|0,0:0|0:0,0:0:0:0:
228,224,186009,2,0,L|144:232,1,75,0|0,0:0|0:0,0:0:0:0:
92,164,186432,6,0,P|72:232|0:272,1,150,4|0,0:0|0:0,0:0:0:0:
0,180,187066,1,0,0:0:0:0:
40,100,187277,2,0,P|116:84|168:136,1,150,8|0,0:0|0:0,0:0:0:0:
260,224,187911,1,0,0:0:0:0:
346,128,188122,2,0,P|396:84|472:100,1,150,0|0,0:0|0:0,0:0:0:0:
512,180,188756,1,0,0:0:0:0:
504,271,188967,2,0,P|440:232|420:164,1,150,8|0,0:0|0:0,0:0:0:0:
352,320,189812,6,4,P|256:224|160:320,1,300,2|8,0:0|0:0,0:0:0:0:
72,332,190868,1,0,0:0:0:0:
84,244,191080,2,0,L|0:240,1,75,0|0,0:3|0:0,0:0:0:0:
52,160,191502,2,0,B|128:164|128:164|160:136|204:120,1,150,0|0,0:3|0:3,0:0:0:0:
460,224,192347,2,0,B|384:220|384:220|352:248|308:264,1,150,8|8,0:3|0:0,0:0:0:0:
351,65,193192,6,0,P|256:160|160:64,1,300,4|8,0:0|0:0,0:0:0:0:
256,360,194460,5,0,0:0:0:0:
184,284,194671,1,0,0:0:0:0:
96,228,194882,2,0,P|80:184|96:120,1,104.999996795654,2|0,0:0|0:0,0:0:0:0:
168,56,195305,1,0,0:0:0:0:
256,112,195516,1,0,0:0:0:0:
344,56,195727,1,8,0:0:0:0:
420,128,195939,2,0,P|432:178|416:228,1,104.999996795654,0|0,0:0|0:0,0:0:0:0:
328,284,196361,1,0,0:0:0:0:
152,288,196573,6,0,P|116:192|152:96,1,209.999993591309,2|0,0:0|0:0,0:0:0:0:
256,184,197206,1,0,0:0:0:0:
360,288,197418,2,0,P|397:194|357:98,2,209.999993591309,8|0|2,0:0|0:0|0:0,0:0:0:0:
412,380,198474,1,0,0:0:0:0:
488,308,198685,1,0,0:0:0:0:
256,184,199108,1,8,0:0:0:0:
48,184,199530,1,0,0:0:0:0:
259,48,199953,6,0,P|384:192|256:340,1,419.999987182618,4|10,0:0|0:0,0:0:0:0:
120,128,201220,1,0,0:0:0:0:
228,192,201432,1,0,0:0:0:0:
120,252,201643,1,2,0:0:0:0:
8,192,201854,1,0,0:0:0:0:
120,128,202066,6,0,B|188:120|188:120|240:64|240:64|304:52,1,209.999993591309,0|10,0:0|0:0,0:0:0:0:
512,192,202911,1,0,0:0:0:0:
304,328,203333,2,0,B|240:316|240:316|188:260|188:260|120:252,1,209.999993591309,2|0,0:0|0:0,0:0:0:0:
232,192,203967,1,0,0:0:0:0:
344,132,204178,2,0,P|392:120|448:136,1,104.999996795654,8|0,0:0|0:0,0:0:0:0:
444,249,204601,2,0,P|392:264|344:252,1,104.999996795654,2|0,0:0|0:0,0:0:0:0:
256,112,205023,6,0,L|240:8,2,104.999996795654,2|0|0,0:0|0:0|0:0,0:0:0:0:
156,192,205657,1,0,0:0:0:0:
256,272,205868,2,0,L|240:376,2,104.999996795654,2|0|2,3:0|0:0|3:0,0:0:0:0:
356,192,206502,1,0,0:0:0:0:
254,272,206713,6,0,P|104:192|256:112,1,419.999987182618,4|8,0:0|0:0,0:0:0:0:
356,192,207770,1,0,0:0:0:0:
440,96,207981,2,0,B|396:64|336:72|336:72|320:32|252:12,1,209.999993591309,0|2,0:0|0:0,0:0:0:0:
196,192,208826,1,0,0:0:0:0:
258,370,209249,2,0,B|320:352|336:312|336:312|396:320|440:288,1,209.999993591309,8|0,0:0|0:0,0:0:0:0:
356,192,209882,1,0,0:0:0:0:
252,116,210094,6,0,B|188:76|128:120|128:120|72:64,1,209.999993591309,2|0,0:0|0:0,0:0:0:0:
73,318,210939,2,0,B|128:264|128:264|188:308|252:268,2,209.999993591309,8|0|2,0:0|0:0|0:0,0:0:0:0:
44,192,211995,5,0,1:0:0:0:
148,188,212206,1,0,1:0:0:0:
240,188,212418,1,0,1:0:0:0:
240,188,212629,5,4,0:3:0:0:
144,92,213051,1,0,0:0:0:0:
112,248,213474,1,4,0:0:0:0:
256,192,213685,12,2,216854,0:0:0:0:
188,324,220235,6,0,L|104:312,2,75,2|0|0,0:0|0:0|0:0,0:0:0:0:
328,268,221080,2,0,L|412:256,2,75,2|0|0,0:0|0:0|0:0,0:0:0:0:
192,200,221925,2,0,L|108:188,2,75,2|0|0,0:0|0:0|0:0,0:0:0:0:
332,144,222770,2,0,L|416:132,2,75,2|0|0,0:0|0:0|0:0,0:0:0:0:
204,68,223615,6,0,B|168:48|140:72|108:100|56:72,1,150,2|0,0:0|0:0,0:0:0:0:
96,220,224460,1,2,0:0:0:0:
148,276,224671,1,0,0:0:0:0:
180,344,224882,1,0,0:0:0:0:
332,344,225305,1,2,0:0:0:0:
364,276,225516,1,0,0:0:0:0:
416,220,225727,1,0,0:0:0:0:
452,74,226150,2,0,B|404:100|372:72|344:48|308:68,1,150,2|0,0:0|0:0,0:0:0:0:
160,36,226995,6,0,P|156:100|72:108,1,150,2|0,0:0|0:0,0:0:0:0:
84,268,227840,2,0,P|157:283|161:347,1,150,2|0,0:0|0:0,0:0:0:0:
288,256,228685,2,0,B|288:224|252:192|252:192|288:160|288:128,1,150,2|0,0:0|0:0,0:0:0:0:
440,124,229530,1,2,0:0:0:0:
472,192,229742,1,0,0:0:0:0:
440,260,229953,1,0,0:0:0:0:
256,192,230375,12,0,233756,0:0:0:0:
