osu file format v9

[General]
AudioFilename: Avril Lavigne - What the Hell.mp3
AudioLeadIn: 0
PreviewTime: 44860
Countdown: 0
SampleSet: Normal
StackLeniency: 0.7
Mode: 0
LetterboxInBreaks: 0
EpilepsyWarning: 1

[Editor]
Bookmarks: 211355
DistanceSpacing: 0.6
BeatDivisor: 4
GridSize: 4

[Metadata]
Title:What The Hell
Artist:Avril Lavigne
Creator:Gonzvlo
Version:Tough
Source:
Tags:goodbye lullaby

[Difficulty]
HPDrainRate:7
CircleSize:4
OverallDifficulty:7
ApproachRate:8
SliderMultiplier:3
SliderTickRate:2

[Events]
//Background and Video events
0,0,"BG.png"
//Break Periods
2,70460,74510
2,140860,146510
//Storyboard Layer 0 (Background)
//Storyboard Layer 1 (Fail)
//Storyboard Layer 2 (Pass)
//Storyboard Layer 3 (Foreground)
//Storyboard Sound Samples
//Background Colour Transformations
3,100,163,162,255

[TimingPoints]
6460,400,4,1,1,60,1,0
44860,-100,4,1,1,60,0,1
44960,-100,4,1,1,60,0,0
63460,-100,4,1,1,60,0,0
115260,-100,4,1,1,60,0,1
115360,-100,4,1,1,60,0,0
140460,-100,4,1,1,60,0,0
171060,-100,4,2,1,60,0,0
172660,-100,4,1,1,60,0,0
172860,-100,4,1,1,60,0,1
197160,-133.333333333333,4,1,1,60,0,1
198160,-100,4,1,1,60,0,1
210860,-100,4,1,1,60,0,1
211260,-100,4,2,1,60,0,0
217610,-100,4,1,1,20,0,0

[Colours]
Combo1 : 255,128,0
Combo2 : 235,197,46
Combo3 : 200,200,200
Combo4 : 227,29,23

[HitObjects]
72,175,6460,2,0,B|-5:232|20:327|103:381|181:324,1,300,0|8
256,276,7060,1,0
331,324,7260,2,0,B|409:381|492:327|517:232|440:176,1,300,0|8
256,188,8060,1,0
256,100,8260,1,0
336,124,8460,2,0,B|352:24|256:-16|160:24|176:124,2,300,8|0|8
424,136,9460,2,0,B|404:228|288:228|256:152|256:152|224:228|108:228|88:136,2,450,0|8|0
424,136,10860,1,8
484,304,11260,5,8
404,348,11460,1,0
316,336,11660,1,8
256,268,11860,1,0
196,336,12060,1,8
108,348,12260,1,0
28,304,12460,1,8
176,200,12860,6,0,B|88:136|160:0|256:48|284:100|256:140,1,300,0|8
256,232,13460,1,0
336,200,13660,2,0,B|424:136|352:0|256:48|228:100|256:140,1,300,0|8
256,232,14260,1,0
208,308,14460,2,0,B|159:381|32:348|31:217|114:187,1,300,0|8
396,187,15260,2,0,B|480:217|479:348|352:381|304:308,1,300,0|8
256,232,15860,1,0
256,140,16060,21,0
404,36,16460,1,8
404,36,16660,1,0
108,36,17060,1,0
108,36,17260,1,8
24,196,17660,5,8
112,172,17860,1,0
184,120,18060,1,8
256,64,18260,1,0
328,120,18460,1,8
400,172,18660,1,0
488,196,18860,1,8
308,208,19260,6,0,B|440:292|400:388|268:384|256:292|256:292,1,300,0|8
256,291,20060,2,0,B|256:292|244:384|112:388|72:292|204:208,1,300,0|8
48,292,20860,2,0,B|48:192|168:104|256:120,1,300,0|8
212,200,21460,1,0
148,264,21660,2,0,B|168:352|256:376|344:352|364:264,1,300,0|8
300,200,22260,1,0
256,119,22460,2,0,B|344:104|464:192|464:291,1,300,0|8
388,340,23060,21,0
124,340,23460,1,0
124,340,23660,1,8
304,340,24060,5,8
300,252,24260,1,0
292,164,24460,1,8
252,84,24660,1,0
220,164,24860,1,8
212,252,25060,1,0
208,340,25260,1,8
132,292,25460,5,0
132,292,25660,2,0,B|16:240|56:76|160:72,1,300,0|8
353,72,26460,2,0,B|456:76|496:240|380:292,1,300,0|8
208,340,27260,2,0,B|208:40,2,300,0|8|0
304,340,28260,1,0
304,340,28460,2,0,B|304:40,2,300,8|0|8
380,296,29460,21,0
132,296,29860,1,0
132,296,30060,1,8
32,152,30460,5,8
84,80,30660,1,0
168,36,30860,1,8
256,16,31060,1,0
344,36,31260,1,8
428,80,31460,1,0
480,152,31660,1,8
444,236,31860,5,0
360,200,32060,2,0,B|352:116|256:76|160:116|152:200,2,300,0|8|0
360,200,33060,1,0
360,200,33260,1,8
152,284,33660,2,0,B|160:368|256:408|352:368|360:284,2,300,0|8|0
152,284,34660,1,0
152,284,34860,1,8
44,340,35260,22,2,B|-24:164|80:-4|256:-52|432:-4|536:164|468:340,1,900,2|8
320,296,36860,5,8
380,228,37060,1,0
320,160,37260,1,8
256,100,37460,1,0
192,160,37660,1,8
132,228,37860,1,0
192,296,38060,1,8
256,356,38260,5,0
320,296,38460,2,0,B|403:288|443:192|403:96|319:88,2,300,0|8|0
256,144,39660,1,8
256,144,39860,1,0
192,88,40060,2,0,B|108:96|68:192|108:288|192:296,2,300,0|8|0
256,144,41060,1,0
256,144,41260,1,8
256,192,41660,12,6,44460
52,188,44860,21,4
256,60,45260,1,8
460,196,45660,1,0
256,324,46060,1,8
320,264,46260,2,0,B|300:232|256:220|212:232|192:264,1,150,0|4
380,208,46860,2,0,B|352:144|256:108|160:144|132:208,1,300,8|4
512,136,48060,6,2,B|416:-4|256:-32|96:-4|0:136,1,600
188,176,49260,2,2,B|256:144|256:144|324:176,1,150
472,212,49660,6,0,B|528:300|460:360|364:388|328:272,1,300,0|8
256,224,50260,1,0
184,274,50460,2,0,B|148:388|52:360|-16:300|40:212,1,300,0|8
256,116,51260,21,4
484,192,51660,1,8
256,264,52060,1,0
28,192,52460,1,8
28,192,52660,2,0,B|104:192|104:192|128:192|128:168|128:168|128:132,1,150,0|4
484,192,53260,1,8
484,192,53460,2,0,B|408:192|408:192|384:192|384:216|384:216|384:252,1,150,0|4
256,356,54060,1,8
344,332,54260,5,0
344,332,54460,2,2,B|424:252|392:84|256:40|120:84|88:252|168:332,2,600
256,204,56460,5,8
144,192,56660,2,0,B|164:112|256:80|348:112|368:192,1,300
368,192,57260,1,8
480,336,57660,21,4
480,336,57860,1,0
480,336,58060,2,2,B|392:400|272:352|256:232|256:232|240:352|120:400|32:336,1,600,10|10
32,48,59260,5,4
32,48,59460,1,0
32,48,59660,2,2,B|120:-16|240:32|256:152|256:152|272:32|392:-16|480:48,1,600,10|10
480,192,60860,5,4
480,192,61060,1,0
480,192,61260,2,2,B|456:352|196:288|256:192|316:100|56:32|32:192,1,600,10|10
152,324,62460,1,4
152,324,62660,1,0
360,324,63060,1,0
360,324,63260,1,8
360,324,63460,1,4
86,170,64060,21,4
425,170,64460,1,8
153,356,64860,1,0
256,32,65260,1,8
358,356,65660,1,4
256,192,66060,5,8
256,192,66260,2,0,B|252:348,1,150,0|4
432,344,66860,5,8
432,344,67260,2,2,B|260:40|524:12|496:312|257:15|257:15|16:312|-12:12|252:40|80:344,1,1050
172,340,68860,22,0,B|228:360|256:236|256:236|284:360|340:340,2,300,0|8|0
256,56,75260,6,0,B|116:4,2,150,8|0|8
256,148,75860,2,0,B|396:96,2,150,0|8|0
256,236,76460,2,0,B|116:184,2,150,8|0|4
24,332,77660,5,0
8,152,78060,2,0,B|108:120|212:196|184:320,1,300,8|0
252,380,78660,1,0
327,319,78860,2,0,B|300:196|404:120|504:152,2,300,8|0|8
416,304,79860,2,0,B|388:264|412:216|464:212|492:244,1,150,0|4
256,192,80260,12,8,81660
180,148,81860,21,0
256,100,82060,1,8
332,148,82260,1,0
332,236,82460,1,8
256,284,82660,1,0
180,236,82860,1,8
256,192,83060,5,0
256,192,83260,1,0
436,192,83660,1,8
436,192,83860,1,0
436,192,84060,1,0
76,192,84660,1,0
76,192,84860,1,0
76,192,85060,1,0
144,248,85260,6,0,B|164:332|256:352|348:332|368:248,1,300,8|0
300,192,85860,1,0
368,136,86060,2,0,B|348:52|256:32|164:52|144:136,2,300,8|0|8
208,356,87460,1,0
304,356,87660,1,8
128,320,88060,21,8
124,232,88260,1,0
172,156,88460,1,8
256,124,88660,1,0
340,156,88860,1,8
388,232,89060,1,0
384,320,89260,1,8
212,244,89460,5,0
300,244,89660,1,0
488,52,90060,1,0
488,52,90260,1,0
488,52,90460,1,0
504,232,90860,2,0,B|404:264|300:188|328:64,1,300,8|0
260,4,91460,1,0
184,64,91660,2,0,B|212:188|108:264|8:232,2,300,8|0|8
96,80,92660,2,0,B|124:120|100:168|48:172|20:140,1,150,0|4
256,192,93060,12,8,94460
68,152,94660,5,0
148,112,94860,1,8
224,160,95060,1,0
288,224,95260,1,8
364,272,95460,1,0
444,232,95660,1,8
420,144,95860,21,0
420,144,96060,2,0,B|492:92|484:-20|328:-16|364:140|284:116,1,300,4|8
256,36,96660,1,0
215,118,96860,2,0,B|148:140|184:-16|28:-20|20:92|92:144,1,300,0|8
32,312,97660,6,0,B|24:260|84:216|132:238,1,150
120,328,98060,1,8
200,288,98260,2,0,B|212:332|256:340|300:332|312:288,1,150
392,328,98660,1,0
479,312,98860,2,0,B|488:260|428:216|379:238,1,150,8|0
256,224,99260,1,4
168,68,99660,5,8
256,44,99860,1,0
344,68,100060,1,8
256,224,100460,1,8
148,368,100860,21,12
212,304,101060,1,0
300,304,101260,1,8
364,368,101460,1,0
344,232,101660,5,8
256,224,101860,1,0
168,228,102060,1,8
124,148,102260,5,0
124,148,102460,2,0,B|168:88|256:72|344:88|388:148,2,300,0|8|0
124,148,103460,1,0
124,148,103660,1,8
388,232,104060,2,0,B|344:292|256:308|168:292|124:232,2,300,0|8|0
388,232,105060,1,0
388,232,105260,1,8
484,116,105660,22,2,B|488:4|136:-12|432:312|80:312|376:-12|24:4|28:116,2,600,0|0|4
388,368,107860,2,0,B|476:312|400:156|256:280|256:280|112:156|32:316|124:368,1,600
256,364,108860,5,0
256,184,109260,1,8
256,184,109460,1,0
256,184,109660,1,0
116,72,110060,2,0,B|172:24|256:16|340:24|396:72,1,300,8|0
400,252,110860,1,8
400,252,111060,1,0
400,252,111260,2,0,B|344:300|260:308|176:300|120:252,2,300,0|8|0
256,192,112260,12,6,114860
256,72,115260,5,4
92,144,115660,1,8
420,144,116060,1,0
0,248,116460,1,8
512,248,116860,1,4
300,312,117260,21,8
300,312,117460,2,0,B|304:360|256:380|208:360|212:312,1,150,0|4
256,136,118060,1,8
204,356,118460,6,2,B|50:264|59:106|131:-9|256:-37|381:-9|453:106|463:264|309:356,1,900,2|0
310,355,119860,1,0
260,280,120060,5,0
256,100,120460,1,8
168,88,120660,2,0,B|168:144|196:196|256:220|316:196|344:144|344:88,1,300,0|4
256,312,121660,21,4
420,240,122060,1,8
92,240,122460,1,0
512,136,122860,1,8
0,136,123260,1,4
212,72,123660,5,8
212,72,123860,2,0,B|208:24|256:4|304:24|300:72,1,150,0|4
216,232,124460,1,8
276,300,124660,1,0
344,360,124860,6,2,B|428:280|488:168|348:60|256:0|256:0|164:60|24:168|84:280|168:360,1,900,2|0
167,359,126260,1,0
256,336,126460,21,0
256,156,126860,1,0
344,168,127060,2,0,B|344:112|316:60|256:36|196:60|168:112|168:168,1,300,0|4
56,340,128060,5,4
56,340,128260,1,0
32,252,128460,2,2,B|84:165|183:196|231:288|154:354,2,300,10|2|8
456,340,129660,5,4
456,340,129860,1,0
480,252,130060,2,2,B|427:165|328:196|280:288|357:354,2,300,10|2|8
256,39,131260,21,4
256,39,131460,1,0
176,84,131660,2,2,B|159:184|256:224|352:183|336:84,2,300,10|2|8
76,236,132860,6,0,B|80:284|136:328|184:324,1,150,4|0
435,236,133460,2,0,B|432:284|376:328|330:324,1,150
256,272,133860,1,4
48,60,134460,5,4
256,272,134860,1,8
464,60,135260,1,0
180,116,135660,1,8
256,64,135860,1,0
332,116,136060,1,4
180,268,136460,1,8
256,320,136660,1,0
332,268,136860,1,4
256,192,137660,12,4,139260
256,192,139360,12,8,140460
148,128,147260,22,0,B|168:36|256:20|344:36|364:128,2,300,4|8|0
308,208,148460,1,8
256,280,148660,1,0
204,208,148860,1,0
256,32,149460,1,0
256,32,149660,1,8
424,280,150460,38,0,B|409:218|334:199|282:227|259:282|286:355|349:363,1,300,0|8
440,372,151060,1,0
88,104,152060,2,0,B|102:165|177:184|229:156|252:101|225:28|162:20,1,300,0|8
72,12,152660,1,0
72,12,153060,1,0
368,80,153660,38,0,B|328:64|272:112|256:160|256:160|236:112|184:64|144:80,2,300,0|8|0
420,252,154860,1,8
372,328,155060,1,0
284,352,155260,1,0
92,252,155860,1,0
140,328,156060,1,0
256,192,156660,12,0,157660
256,192,158460,12,8,159660
24,192,160060,21,4
348,36,160860,1,0
76,272,161660,1,0
256,272,162060,1,8
436,272,162460,1,0
164,36,163260,1,4
488,192,164060,1,0
152,192,164860,37,4
360,192,165260,1,8
180,304,165660,1,0
256,108,166060,1,8
332,304,166460,1,4
24,192,167260,37,0
360,192,168060,21,4
152,192,168460,1,8
332,304,168860,1,0
256,108,169260,1,8
180,304,169660,1,4
256,108,170460,37,0
168,340,171260,37,0
256,376,171460,21,2
344,340,171660,37,0
256,248,172060,37,0
256,136,172460,21,2
256,376,172860,5,4
104,192,173260,1,8
256,8,173660,1,0
408,192,174060,1,8
340,132,174260,2,0,B|304:148|288:192|304:236|340:252,1,150,0|4
104,192,174860,1,8
172,132,175060,2,0,B|208:148|224:192|208:236|172:252,1,150,0|4
496,160,176060,6,2,B|572:364|312:456|256:280|256:280|200:456|-60:364|16:160,1,900,2|10
14,163,177460,1,0
104,176,177660,22,0,B|56:220|64:296|116:344|196:312|208:232|180:188,1,300,0|8
256,140,178260,1,0
330,190,178460,2,0,B|304:232|316:312|396:344|448:296|456:220|408:176,1,300,0|8
256,16,179260,5,4
256,368,179660,1,8
256,104,180060,1,0
256,280,180460,1,8
256,192,180860,1,4
256,192,181460,1,0
256,192,181660,1,0
44,116,182260,5,0
44,116,182460,2,2,B|72:280|512:360|0:360|440:280|468:116,2,600,2|0|4
212,52,184460,21,0
300,52,184660,1,0
256,128,184860,5,8
252,152,184960,1,0
260,172,185060,5,0
256,196,185160,1,0
260,220,185260,21,8
256,240,185360,1,0
260,264,185460,5,0
252,284,185560,1,0
260,304,185660,5,12
256,192,185860,12,8,188460
396,280,188860,22,2,B|536:216|512:20|404:-12|92:80|256:192|412:308|108:396|0:364|-20:168|116:104,1,900
114,105,190260,1,0
56,36,190460,5,4
256,96,190860,1,0
456,36,191260,1,4
256,268,192060,5,4
28,192,192460,1,8
256,120,192860,1,0
484,192,193260,1,8
484,192,193460,2,0,B|416:152|416:152|352:192,1,150,0|4
28,192,194060,1,8
28,192,194260,2,0,B|96:232|96:232|160:192,1,150,0|4
256,28,194860,1,8
256,192,195060,12,0,196860
92,216,197260,22,0,B|88:104|304:132|256:216|208:300|424:328|420:216,1,449.999986588955
480,144,198260,1,0
480,48,198460,5,4
480,48,198660,1,0
480,48,198860,2,2,B|392:-16|272:32|256:152|256:152|240:32|120:-16|32:48,1,600,10|10
32,336,200060,5,4
32,336,200260,1,0
32,336,200460,2,2,B|120:400|240:352|256:232|256:232|272:352|392:400|480:336,1,600,10|10
480,192,201660,21,4
480,192,201860,1,0
480,192,202060,2,2,B|456:32|196:96|256:192|316:284|56:352|32:192,1,600,10|10
160,64,203260,1,4
160,64,203460,1,0
368,64,203860,1,0
368,64,204060,1,8
368,64,204260,1,4
132,192,204860,5,4
256,324,205260,1,8
256,60,205660,1,0
380,192,206060,1,8
380,192,206260,2,0,B|438:165|443:102|408:67,1,150,0|4
104,68,206860,1,8
104,68,207060,2,0,B|70:102|75:165|134:192,1,150,0|4
256,192,208060,12,4,209660
32,192,210260,6,0,B|480:192,1,450,0|8
428,20,211260,21,2
84,20,212060,1,2
384,220,212860,5,0
316,280,213060,1,2
256,348,213260,1,0
196,280,213460,1,2
128,220,213660,1,0
256,96,214060,1,0
256,96,214460,1,2
256,348,215260,5,2
256,192,216060,12,4,217660
