osu file format v14

[General]
AudioFilename: 01 - Take Me Away.mp3
AudioLeadIn: 2000
PreviewTime: 125784
Countdown: 1
SampleSet: None
StackLeniency: 0.7
Mode: 0
LetterboxInBreaks: 1
WidescreenStoryboard: 1

[Editor]
Bookmarks: 329,2147,2754,11844,165178,170026
DistanceSpacing: 1.2
BeatDivisor: 4
GridSize: 4
TimelineZoom: 1

[Metadata]
Title:Take Me Away
TitleUnicode:Take Me Away
Artist:Avril Lavigne
ArtistUnicode:Avril Lavigne
Creator:Squirrel
Version:Normal
Source:
Tags:under my skin arista
BeatmapID:788021
BeatmapSetID:223590

[Difficulty]
HPDrainRate:4
CircleSize:3.3
OverallDifficulty:4
ApproachRate:5
SliderMultiplier:1.4
SliderTickRate:1

[Events]
//Background and Video events
0,0,"goodbye.jpg",0,0
//Break Periods
//Storyboard Layer 0 (Background)
//Storyboard Layer 1 (Fail)
//Storyboard Layer 2 (Pass)
//Storyboard Layer 3 (Foreground)
//Storyboard Sound Samples

[TimingPoints]
2754,606.060606060606,4,1,1,20,1,0
12450,-100,4,1,1,33,0,0
22147,-100,4,1,1,42,0,0
36693,-100,4,3,0,66,0,1
56087,-100,4,1,1,42,0,0
85178,-100,4,3,0,66,0,1
106996,-100,4,3,0,55,0,0
126390,-100,4,3,0,66,0,1
165178,-100,4,3,0,66,0,0
166390,-100,4,3,0,55,0,0
167602,-100,4,3,0,42,0,0
168814,-100,4,3,0,21,0,0
170026,-100,4,3,0,10,0,0

[Colours]
Combo1 : 255,255,255
Combo2 : 251,153,243
Combo3 : 194,41,122

[HitObjects]
157,201,2754,6,0,L|150:132,1,70
185,55,3360,1,0,0:0:0:0:
351,39,3966,2,0,P|378:62|394:93,1,70
389,176,4572,1,0,0:0:0:0:
299,318,5178,6,0,L|229:326,2,70
377,289,6087,1,0,0:0:0:0:
377,205,6390,2,0,P|353:186|307:179,1,70
232,191,6996,2,0,P|202:197|157:183,1,70
202,113,7602,6,0,L|185:44,1,70
104,24,8208,1,0,0:0:0:0:
8,162,8814,2,0,P|7:212|21:249,1,70
70,291,9420,1,0,0:0:0:0:
228,345,10026,6,0,L|312:340,2,70
186,272,10935,1,0,0:0:0:0:
220,195,11238,2,0,L|304:190,1,70
362,148,11844,2,0,L|446:153,1,70
503,193,12450,6,0,P|507:228|500:262,1,70
438,320,13057,1,0,0:0:0:0:
438,320,13360,1,0,0:0:0:0:
354,311,13663,2,0,P|323:294|289:290,1,70
216,330,14269,2,0,P|181:337|147:331,1,70
81,279,14875,5,0,0:0:0:0:
71,195,15178,1,0,0:0:0:0:
124,130,15481,2,0,L|201:124,1,70
275,144,16087,1,0,0:0:0:0:
358,161,16390,2,0,L|427:166,2,70
337,79,17299,5,0,0:0:0:0:
266,33,17602,2,0,B|214:46|214:46|125:33,1,140
45,46,18511,1,0,0:0:0:0:
10,121,18814,2,0,P|21:189|77:228,1,140
159,249,19723,6,0,P|190:263|213:289,1,70
270,351,20329,2,0,P|300:367|335:368,1,70
408,326,20935,1,0,0:0:0:0:
408,326,21238,1,0,0:0:0:0:
423,243,21541,2,0,L|389:169,1,70
436,106,22147,6,0,L|470:32,2,70
393,179,23057,1,0,0:0:0:0:
309,178,23360,2,0,P|272:158|254:124,1,70
199,74,23966,2,0,L|116:80,1,70
73,141,24572,5,0,0:0:0:0:
74,224,24875,2,0,L|143:229,1,70
189,300,25481,1,0,0:0:0:0:
273,293,25784,2,0,L|347:290,1,70
410,240,26390,1,0,0:0:0:0:
407,156,26693,1,0,0:0:0:0:
337,108,26996,6,0,P|301:103|256:118,1,70
203,163,27602,1,0,0:0:0:0:
132,315,28208,2,0,L|62:307,2,70
299,313,29420,5,0,0:0:0:0:
339,239,29723,1,0,0:0:0:0:
317,157,30026,2,0,L|287:78,1,70
359,39,30632,2,0,L|383:104,1,70
403,186,31238,1,0,0:0:0:0:
403,186,31541,1,0,0:0:0:0:
449,256,31844,6,0,P|457:296|452:335,2,70
373,292,32753,1,0,0:0:0:0:
306,343,33057,2,0,L|227:344,2,70
373,292,33966,1,0,0:0:0:0:
367,208,34269,6,0,P|249:115|198:256,1,350
449,258,36693,6,0,P|462:228|461:189,1,70
408,125,37299,2,0,L|358:121,1,35
306,173,37753,2,0,L|199:185,1,105
132,136,38511,2,0,L|82:132,1,35
21,171,38966,1,0,0:0:0:0:
11,211,39117,6,0,P|18:253|108:277,1,140
181,258,40026,2,0,P|232:250|279:274,2,105
220,332,41238,1,0,0:0:0:0:
300,356,41541,5,0,0:0:0:0:
371,311,41844,2,0,L|368:240,1,70
366,198,42299,1,0,0:0:0:0:
382,115,42602,2,0,P|427:140|449:186,1,105
444,271,43360,2,0,P|446:289|451:305,1,35
411,378,43814,1,0,0:0:0:0:
369,373,43966,6,0,L|245:382,2,105
400,295,45178,2,0,L|392:252,1,35
362,182,45632,2,0,L|382:71,1,105
314,26,46390,5,0,0:0:0:0:
149,57,46996,1,0,0:0:0:0:
188,220,47602,1,0,0:0:0:0:
353,190,48208,1,0,0:0:0:0:
314,26,48814,5,0,0:0:0:0:
149,57,49420,1,0,0:0:0:0:
117,221,50026,1,0,0:0:0:0:
260,307,50632,1,0,0:0:0:0:
252,139,51238,6,0,P|232:110|204:88,1,70
120,87,51844,2,0,L|39:113,1,70
31,189,52450,2,0,P|50:217|78:239,1,70
163,241,53056,2,0,L|244:215,1,70
313,229,53663,5,0,0:0:0:0:
313,229,53966,1,0,0:0:0:0:
378,281,54269,1,0,0:0:0:0:
378,281,54572,1,0,0:0:0:0:
382,364,54875,1,0,0:0:0:0:
46,342,56087,6,0,L|54:273,1,70
22,194,56693,1,0,0:0:0:0:
97,43,57299,2,0,P|126:23|160:17,1,70
156,101,57905,1,0,0:0:0:0:
267,226,58511,6,0,L|336:231,2,70
226,299,59420,1,0,0:0:0:0:
286,356,59723,2,0,P|318:367|353:368,1,70
421,318,60329,2,0,P|432:285|433:250,1,70
403,171,60935,6,0,P|391:138|390:103,1,70
439,34,61542,1,0,0:0:0:0:
439,34,61845,1,0,0:0:0:0:
357,12,62148,2,0,L|275:14,1,70
261,93,62753,2,0,L|330:91,1,70
349,173,63360,5,0,0:0:0:0:
321,252,63663,1,0,0:0:0:0:
258,308,63966,2,0,P|221:319|188:321,1,70
113,286,64572,1,0,0:0:0:0:
113,286,64875,1,0,0:0:0:0:
114,202,65178,2,0,L|143:133,1,70
115,57,65784,5,0,0:0:0:0:
61,121,66087,2,0,B|6:252,1,140
39,327,66996,1,0,0:0:0:0:
120,308,67299,2,0,B|145:302|177:315|177:315|219:312|255:336,1,140
338,338,68208,6,0,P|367:314|387:275,1,70
393,203,68814,2,0,P|386:165|362:129,1,70
287,141,69420,1,0,0:0:0:0:
236,73,69723,1,0,0:0:0:0:
158,104,70026,2,0,P|152:142|155:176,1,70
109,244,70632,6,0,P|70:251|34:246,2,70
193,247,71542,1,0,0:0:0:0:
271,276,71845,2,0,L|268:348,1,70
347,371,72450,2,0,L|349:301,1,70
386,225,73057,5,0,0:0:0:0:
450,171,73360,2,0,P|390:140|326:165,1,140
258,116,74269,2,0,P|220:114|188:98,1,70
161,22,74875,1,0,0:0:0:0:
244,30,75178,1,0,0:0:0:0:
327,40,75481,6,0,L|396:26,1,70
472,60,76087,1,0,0:0:0:0:
496,226,76693,2,0,P|492:257|500:301,2,70
381,102,77905,5,0,0:0:0:0:
381,102,78208,1,0,0:0:0:0:
299,122,78511,2,0,L|271:196,1,70
301,266,79117,2,0,L|329:340,1,70
254,375,79723,1,0,0:0:0:0:
178,337,80026,1,0,0:0:0:0:
98,309,80329,6,0,P|58:317|24:337,2,70
163,256,81238,1,0,0:0:0:0:
162,172,81541,2,0,P|154:132|134:98,2,70
163,256,82451,1,0,0:0:0:0:
239,291,82754,6,0,P|279:283|313:263,2,70
248,207,83663,2,0,L|254:126,2,70
480,108,85178,6,0,L|474:38,1,70
391,32,85784,2,0,P|366:33|341:28,1,35
272,28,86238,2,0,P|229:57|208:108,1,105
236,184,86996,2,0,P|243:193|254:213,1,35
250,297,87451,1,0,0:0:0:0:
225,330,87602,6,0,L|74:342,1,140
33,274,88511,2,0,P|31:216|40:158,2,105
85,341,89723,1,0,0:0:0:0:
157,298,90026,5,0,0:0:0:0:
240,303,90329,2,0,B|284:312|284:312|311:331,1,70
339,350,90784,1,0,0:0:0:0:
422,340,91087,2,0,P|452:302|456:234,1,105
429,168,91845,2,0,P|423:151|421:133,1,35
436,51,92299,1,0,0:0:0:0:
402,25,92451,6,0,P|360:18|278:34,2,105
464,80,93663,2,0,L|470:114,1,35
460,197,94117,2,0,P|408:205|356:198,1,105
297,137,94875,5,0,0:0:0:0:
130,112,95481,1,0,0:0:0:0:
264,212,96087,1,0,0:0:0:0:
97,190,96693,1,0,0:0:0:0:
232,289,97299,5,0,0:0:0:0:
216,121,97905,1,0,0:0:0:0:
369,191,98511,1,0,0:0:0:0:
232,289,99117,1,0,0:0:0:0:
304,138,99723,6,0,P|332:116|365:107,1,70
440,147,100329,2,0,P|451:179|448:214,1,70
387,271,100935,2,0,P|352:271|320:258,1,70
242,291,101541,2,0,P|207:290|175:303,1,70
116,363,102148,5,0,0:0:0:0:
32,353,102451,1,0,0:0:0:0:
16,270,102754,1,0,0:0:0:0:
72,207,103057,1,0,0:0:0:0:
118,137,103360,2,0,P|123:89|117:62,2,70
155,212,104269,1,0,0:0:0:0:
233,241,104572,6,0,P|299:230|339:173,1,140
256,158,105481,1,0,0:0:0:0:
289,81,105784,2,0,P|357:70|418:103,1,140
446,182,106693,1,0,0:0:0:0:
439,265,106996,5,0,0:0:0:0:
439,265,107299,2,0,B|392:286|392:286|304:271,1,140
249,334,108208,2,0,L|107:359,1,140
40,313,109117,1,0,0:0:0:0:
17,232,109420,6,0,P|24:187|44:160,1,70
107,120,110026,1,0,0:0:0:0:
188,140,110329,2,0,L|196:216,2,70
264,104,111238,2,0,L|276:217,1,105
281,250,111844,5,0,0:0:0:0:
340,308,112147,1,0,0:0:0:0:
422,293,112450,2,0,P|423:249|414:208,1,70
485,171,113057,2,0,P|461:106|480:39,1,140
397,23,113966,1,0,0:0:0:0:
329,72,114269,6,0,L|250:56,1,70
178,75,114875,1,0,0:0:0:0:
111,24,115178,2,0,L|32:40,1,70
4,112,115784,1,0,0:0:0:0:
30,191,116087,2,0,P|78:208|128:195,1,105
159,166,116693,5,0,0:0:0:0:
212,230,116996,1,0,0:0:0:0:
291,256,117299,2,0,P|315:231|327:198,1,70
314,115,117905,2,0,P|380:131|410:191,1,140
402,275,118814,1,0,0:0:0:0:
467,327,119117,5,0,0:0:0:0:
467,327,119420,1,0,0:0:0:0:
400,377,119723,2,0,L|328:358,1,70
268,304,120329,2,0,L|196:323,1,70
137,377,120935,2,0,L|30:348,1,105
14,313,121541,5,0,0:0:0:0:
17,229,121844,1,0,0:0:0:0:
78,172,122147,2,0,P|116:161|158:163,1,70
223,193,122754,1,0,0:0:0:0:
293,147,123057,2,0,L|290:71,2,70
294,230,123966,5,0,0:0:0:0:
357,285,124269,1,0,0:0:0:0:
440,274,124572,2,0,P|454:228|434:155,1,105
422,137,125178,1,0,0:0:0:0:
390,59,125481,1,0,0:0:0:0:
308,79,125784,2,0,B|263:82|263:82|195:66,1,105
170,92,126390,6,0,L|96:110,1,70
46,171,126996,2,0,P|44:193|49:215,1,35
65,287,127450,2,0,L|183:317,1,105
243,278,128208,2,0,P|254:262|260:248,1,35
243,165,128663,1,0,0:0:0:0:
237,123,128814,6,0,P|266:61|331:39,1,140
401,86,129723,2,0,L|429:198,2,105
331,39,130935,1,0,0:0:0:0:
247,32,131238,5,0,0:0:0:0:
185,88,131541,2,0,P|177:122|180:169,1,70
192,196,131996,1,0,0:0:0:0:
152,269,132299,2,0,P|102:285|52:274,1,105
11,200,133057,2,0,L|7:163,1,35
26,83,133511,1,0,0:0:0:0:
51,49,133663,6,0,B|92:51|92:51|158:27,2,105
57,132,134875,2,0,L|97:134,1,35
169,166,135329,2,0,P|197:210|198:283,1,105
188,344,136087,5,0,0:0:0:0:
355,333,136693,1,0,0:0:0:0:
429,182,137299,1,0,0:0:0:0:
341,38,137905,1,0,0:0:0:0:
173,43,138511,5,0,0:0:0:0:
83,185,139117,1,0,0:0:0:0:
231,106,139723,1,0,0:0:0:0:
139,246,140329,1,0,0:0:0:0:
286,166,140935,6,0,L|358:161,1,70
373,243,141541,2,0,L|303:247,1,70
220,231,142147,2,0,L|150:226,1,70
124,306,142753,2,0,L|193:310,1,70
272,342,143360,5,0,0:0:0:0:
299,262,143663,1,0,0:0:0:0:
220,231,143966,1,0,0:0:0:0:
193,310,144269,1,0,0:0:0:0:
271,341,144572,2,0,P|307:346|340:335,2,70
193,310,145481,1,0,0:0:0:0:
111,329,145784,6,0,B|90:281|90:281|96:175,1,140
154,134,146693,1,0,0:0:0:0:
237,123,146996,2,0,P|305:127|354:80,1,140
276,47,147905,1,0,0:0:0:0:
193,30,148208,6,0,P|149:40|121:63,1,70
76,119,148814,2,0,P|71:169|59:197,1,70
48,269,149420,2,0,P|70:333|132:360,1,140
204,317,150329,1,0,0:0:0:0:
250,247,150632,6,0,L|241:174,2,70
283,272,151390,2,0,P|330:288|356:283,1,70
384,262,151844,2,0,L|375:189,2,70
457,302,152753,1,0,0:0:0:0:
507,234,153057,6,0,P|509:182|457:95,1,140
391,73,153966,1,0,0:0:0:0:
391,73,154269,2,0,B|348:76|348:76|304:109|304:109|262:113,1,140
191,67,155178,1,0,0:0:0:0:
110,94,155481,6,0,P|100:127|98:162,1,70
142,233,156087,1,0,0:0:0:0:
261,350,156693,2,0,L|336:359,2,70
228,272,157602,1,0,0:0:0:0:
272,200,157905,6,0,L|347:209,1,70
411,162,158511,2,0,L|486:153,1,70
504,234,159117,2,0,P|499:275|477:306,1,70
409,336,159723,2,0,P|366:325|296:339,1,105
272,309,160329,6,0,P|266:269|274:221,2,70
435,268,161541,1,0,0:0:0:0:
476,194,161844,1,0,0:0:0:0:
472,110,162147,1,0,0:0:0:0:
333,15,162753,5,0,0:0:0:0:
333,15,163057,2,0,L|174:46,1,140
161,118,163966,2,0,L|57:137,1,105
50,178,164572,2,0,L|154:159,1,105
157,201,165178,5,0,0:0:0:0:
256,192,165481,12,0,170026,0:0:0:0:
