osu file format v6

[General]
AudioFilename: Sk8er Boi .mp3
AudioLeadIn: 0
PreviewTime: -1
Countdown: 1
SampleSet: None
StackLeniency: 0.7
Mode: 0
LetterboxInBreaks: 1

[Editor]
Bookmarks: 26544
DistanceSpacing: 0.800000011920929
BeatDivisor: 4
GridSize: 32

[Metadata]
Title:Sk8er Boi
Artist:Avril Lavigne
Creator:dayuki
Version:Normal
Source:
Tags:

[Difficulty]
HPDrainRate:5
CircleSize:5
OverallDifficulty:5
SliderMultiplier:1.5
SliderTickRate:2

[Events]
//Background and Video events
0,0,"sk8er.jpg"
//Break Periods
2,53634,55034
//Storyboard Layer 0 (Background)
//Storyboard Layer 1 (Fail)
//Storyboard Layer 2 (Pass)
//Storyboard Layer 3 (Foreground)
//Storyboard Sound Samples
//Background Colour Transformations
3,100,163,162,255

[TimingPoints]
1030,400,4,0,0,100,1,0

[HitObjects]
160,128,14639,1,0
256,192,15038,1,0
352,128,15438,1,0
160,256,16238,5,0
256,192,16638,1,0
352,256,17038,1,0
416,192,17838,5,0
416,128,18238,1,0
416,64,18638,2,0,B|256:64,3,150
256,192,21038,5,0
192,128,21438,1,0
128,192,21838,1,0
256,192,22638,5,0
320,256,23038,1,0
384,192,23437,1,0
256,64,24437,6,0,B|256:224,4,150
160,192,27437,5,0
64,192,27837,1,0
160,192,28237,1,0
352,192,29037,5,0
448,192,29437,1,0
352,192,29837,1,0
256,96,30537,6,0,B|352:96,2,75
256,192,31237,5,0
320,256,31637,1,0
384,192,32036,1,0
256,64,32436,6,0,B|256:160,6,75
256,192,33836,12,0,36036
352,96,37036,5,0
256,96,37436,1,0
160,96,37836,1,0
256,192,38236,1,0
352,288,38636,1,0
256,288,39036,1,0
160,288,39436,1,0
256,192,40236,5,0
256,96,40635,1,0
256,192,41035,1,0
256,288,41435,1,0
256,192,41835,1,0
352,192,42235,1,0
256,192,42635,1,0
160,192,43035,1,0
96,64,43435,5,0
128,128,43835,1,0
160,192,44235,1,0
224,192,44635,1,0
256,128,45035,1,0
288,64,45435,1,0
352,64,45835,1,0
384,160,46635,5,0
384,224,47035,1,0
384,288,47435,2,0,B|288:288,7,75
256,288,49234,1,0
160,288,49834,5,0
64,288,50234,1,0
64,192,50634,2,0,B|128:32|224:192,1,225
288,256,51634,1,0
352,224,52034,2,0,B|416:288|480:224|480:128|384:96|288:96|224:160|224:256|288:320|352:352|416:352,1,525
192,96,56234,5,0
256,192,56634,1,0
320,288,57034,1,0
320,96,57833,5,0
256,192,58233,1,0
192,288,58633,1,0
256,352,59433,5,0
320,352,59833,1,0
384,352,60233,2,0,B|384:192,3,150
416,128,62633,5,0
320,128,63033,1,0
320,32,63433,1,0
192,32,64233,5,0
192,128,64633,1,0
96,128,65033,1,0
96,224,65833,6,0,B|96:384,6,150
160,256,69032,5,0
256,224,69432,1,0
352,192,69832,1,0
352,96,70632,5,0
256,128,71032,1,0
160,160,71432,1,0
64,160,72232,5,0
64,64,72632,1,0
160,64,73032,2,0,B|320:64,3,150
384,96,75431,5,0
416,160,75831,1,0
384,224,76231,1,0
320,288,77031,5,0
256,256,77431,1,0
256,192,77831,1,0
320,160,78231,1,0
384,128,78631,1,0
352,64,79031,1,0
288,64,79431,2,0,B|160:192,3,150
256,192,80831,12,0,82831
96,192,83430,5,0
192,192,83830,1,0
320,192,84230,1,0
416,192,84630,1,0
256,288,85030,5,0
256,288,85430,1,0
256,192,85830,1,0
256,96,86230,1,0
192,32,86630,5,0
128,96,87030,1,0
192,160,87430,1,0
192,224,87830,1,0
128,224,88230,1,0
128,288,88630,1,0
128,288,89030,1,0
256,288,89830,5,0
288,224,90230,1,0
352,192,90630,2,0,B|352:117,7,75
352,192,92429,1,0
448,192,93029,5,0
448,96,93429,1,0
384,32,93829,2,0,B|224:96|373:185,1,225
448,192,94829,1,0
448,256,95229,1,0
384,320,96229,5,0
320,320,96629,1,0
256,320,97029,2,0,B|160:320,7,75
128,320,98829,1,0
96,256,99429,5,0
0,256,99829,1,0
64,192,100229,2,0,B|128:32|224:192,1,225
288,256,101228,1,0
352,192,101628,1,0
224,320,102628,5,0
288,320,103028,1,0
352,320,103428,2,0,B|352:245,7,75
352,192,105228,1,0
352,96,105828,5,0
352,0,106228,1,0
252,1,106628,2,0,B|96:64|245:153,1,225
308,158,107628,1,0
288,224,108028,2,0,B|455:84|515:280|503:463|71:474|455:122|199:90|-42:60|-19:390|161:480|256:288|256:288,1,825
