osu file format v6

[General]
AudioFilename: Sk8er Boi .mp3
AudioLeadIn: 0
PreviewTime: -1
Countdown: 1
SampleSet: None
StackLeniency: 0.7
Mode: 0
LetterboxInBreaks: 1

[Editor]
Bookmarks: 25044
DistanceSpacing: 0.300000011920929
BeatDivisor: 4
GridSize: 8

[Metadata]
Title:Sk8er Boi
Artist:Avril Lavigne
Creator:dayuki
Version:Insane
Source:
Tags:

[Difficulty]
HPDrainRate:8
CircleSize:5
OverallDifficulty:8
SliderMultiplier:1.5
SliderTickRate:2

[Events]
//Background and Video events
0,0,"sk8er.jpg"
//Break Periods
2,53630,55480
2,109630,124280
2,149896,156280
//Storyboard Layer 0 (Background)
//Storyboard Layer 1 (Fail)
//Storyboard Layer 2 (Pass)
//Storyboard Layer 3 (Foreground)
//Storyboard Sound Samples
//Background Colour Transformations
3,100,163,162,255

[TimingPoints]
1030,400,4,0,0,100,1,0

[Colours]
Combo1 : 255,150,0
Combo2 : 5,240,5
Combo3 : 5,5,240
Combo4 : 240,5,5
Combo5 : 255,255,0

[HitObjects]
96,208,14630,1,0
168,264,14830,1,0
256,264,15030,1,0
328,264,15230,1,0
344,264,15330,1,0
360,264,15430,1,0
416,208,16230,5,0
344,264,16430,1,0
256,264,16630,1,0
184,264,16830,1,0
168,264,16930,1,0
152,264,17030,1,0
256,32,17630,5,0
248,40,17730,1,0
240,48,17830,1,0
168,104,18030,5,0
104,40,18230,1,0
40,104,18430,2,0,B|40:264,1,150
40,254,18930,1,0
40,254,19030,1,0
96,320,19230,2,0,B|256:320,1,150
336,320,19830,1,0
424,320,20030,5,0
424,304,20130,1,0
424,288,20230,1,0
256,192,21030,5,0
336,152,21230,1,0
400,88,21430,1,0
360,24,21630,5,0
344,24,21730,1,0
328,32,21830,1,0
48,24,22630,5,0
120,72,22830,1,0
152,152,23030,1,0
152,224,23230,5,0
168,224,23330,1,0
176,240,23430,1,0
64,352,24430,5,0
128,288,24630,1,0
136,280,24730,1,0
144,272,24830,1,0
192,224,25030,5,0
200,216,25130,1,0
208,208,25230,1,0
272,144,25430,5,0
280,136,25530,1,0
288,128,25630,1,0
352,64,25830,5,0
360,56,25930,1,0
368,48,26030,1,0
256,192,26130,12,0,27230
448,48,27430,5,0
400,120,27630,1,0
448,192,27830,1,0
392,264,28030,5,0
384,280,28130,1,0
376,296,28230,1,0
80,328,29030,5,0
152,328,29230,1,0
224,328,29430,1,0
296,328,29630,5,0
312,328,29730,1,0
328,328,29830,1,0
160,352,30630,5,0
72,352,30830,1,0
120,272,31030,1,0
120,184,31230,2,0,B|120:24,1,150,0|0
120,34,31730,1,0
120,34,31830,1,0
120,34,32030,6,0,B|24:34,1,75,0|0
45,34,32430,1,0
45,34,32530,6,0,B|45:98,9,37.5,0|0|0|0|0|0|0|0|0|0
96,224,33830,5,0
128,312,34030,1,0
216,288,34230,1,0
304,288,34430,5,0
320,288,34530,1,0
336,288,34630,1,0
448,72,35430,5,0
392,144,35630,1,0
336,72,35830,1,0
280,144,36030,5,0
264,136,36130,1,0
248,128,36230,1,0
232,120,36330,1,0
216,112,36430,1,0
88,48,37030,5,0
48,128,37230,1,0
88,208,37430,1,0
168,154,37630,5,0
184,168,37730,1,0
288,192,38030,1,0
288,208,38130,1,0
288,224,38230,1,0
312,328,38430,5,0
296,320,38530,1,0
208,320,38730,6,0,B|80:352,1,112.5
40,280,39230,1,0
48,264,39330,1,0
56,248,39430,1,0
256,96,40230,5,0
176,56,40430,1,0
176,144,40630,1,0
128,216,40830,1,0
128,304,41030,1,0
136,320,41130,1,0
152,320,41230,1,0
328,328,41630,5,0
408,280,41830,1,0
408,192,42030,1,0
320,192,42230,1,0
320,104,42430,2,0,B|256:104,4,37.5
192,72,43430,5,0
256,136,43630,1,0
184,192,43830,1,0
256,248,44030,1,0
328,192,44230,1,0
256,136,44430,1,0
184,192,44630,1,0
256,136,44830,2,0,B|256:232,1,75
344,192,45230,1,0
256,208,45430,1,0
168,192,45630,1,0
160,320,46630,5,0
104,248,46830,1,0
88,160,47030,1,0
128,80,47230,5,0
136,72,47330,1,0
144,64,47430,1,0
152,56,47530,1,0
160,48,47630,1,0
336,48,48030,5,0
424,48,48230,1,0
376,128,48430,1,0
376,144,48530,1,0
376,160,48630,1,0
376,224,48830,5,0
384,232,48930,1,0
392,240,49030,1,0
400,248,49130,1,0
400,248,49230,1,0
480,88,49630,5,0
400,40,49830,1,0
320,88,50030,1,0
240,40,50230,1,0
240,128,50430,2,0,B|80:128,1,150
90,128,51230,6,0,B|250:128,1,150,0|0
96,192,52030,5,0
100,206,52130,1,0
105,220,52230,1,0
112,232,52330,1,0
123,243,52430,1,0
136,252,52530,1,0
150,258,52630,1,0
164,261,52730,1,0
179,261,52830,1,0
193,256,52930,1,0
206,247,53030,1,0
216,237,53130,1,0
225,224,53230,1,0
231,210,53330,1,0
236,197,53430,1,0
344,192,56230,5,0
256,192,56430,1,0
168,192,56630,1,0
80,192,56830,1,0
80,208,56930,1,0
80,224,57030,1,0
168,192,57830,5,0
256,192,58030,1,0
344,192,58230,1,0
432,192,58430,1,0
432,208,58530,1,0
432,224,58630,1,0
256,192,59430,5,0
304,112,59630,1,0
216,112,59830,1,0
256,32,60030,2,0,B|260:126,3,75
256,200,60830,2,0,B|256:264,5,37.5
256,240,61430,1,0
272,352,61830,5,0
256,352,61930,1,0
240,352,62030,1,0
256,352,62630,5,0
192,288,62830,1,0
160,208,63030,1,0
152,120,63230,5,0
152,104,63330,1,0
160,88,63430,1,0
48,48,64230,5,0
128,96,64430,1,0
208,48,64630,1,0
288,96,64830,5,0
280,112,64930,1,0
288,128,65030,1,0
472,24,65830,5,0
384,24,66030,1,0
296,24,66230,1,0
208,24,66430,1,0
120,24,66630,5,0
104,24,66730,1,0
88,24,66830,1,0
80,112,67030,5,0
80,128,67130,1,0
80,144,67230,1,0
80,232,67430,5,0
80,248,67530,1,0
80,264,67630,1,0
80,352,67830,5,0
96,352,67930,1,0
112,352,68030,1,0
200,352,68230,5,0
464,344,69030,5,0
400,280,69230,1,0
312,248,69430,1,0
272,168,69630,5,0
264,152,69730,1,0
264,136,69830,1,0
456,32,70430,5,0
368,56,70630,1,0
280,32,70830,1,0
192,56,71030,1,0
256,120,71230,5,0
272,120,71330,1,0
288,120,71430,1,0
456,32,72230,5,0
392,96,72430,1,0
440,176,72630,1,0
352,176,72830,2,0,B|352:336,1,150
352,326,73330,1,0
352,326,73430,1,0
352,326,73630,6,0,B|448:326,1,75,0|0
427,326,74030,1,0
427,326,74230,6,0,B|427:262,8,37.5,0|0|0|0|0|0|0|0|0
416,224,75430,5,0
384,312,75630,1,0
296,288,75830,1,0
208,288,76030,5,0
192,288,76130,1,0
176,288,76230,1,0
256,48,77030,5,0
176,88,77230,1,0
88,88,77430,1,0
56,168,77630,5,0
48,184,77730,1,0
56,200,77830,1,0
144,208,78030,5,0
144,208,78130,2,0,B|112:176,5,37.5,0|0|0|0|0|0
200,144,78830,1,0
288,128,79030,1,0
368,88,79230,1,0
480,32,79430,5,0
32,32,79830,5,0
32,352,80230,5,0
480,352,80630,5,0
256,192,80930,12,0,81830
160,192,82030,5,0
176,176,82130,1,0
192,192,82230,1,0
208,176,82330,1,0
224,192,82430,1,0
240,176,82530,1,0
256,192,82630,1,0
272,176,82730,1,0
288,192,82830,1,0
304,176,82930,1,0
320,192,83030,1,0
256,360,83430,5,0
256,272,83630,1,0
256,184,83830,1,0
256,96,84030,1,0
272,8,84230,1,0
256,8,84330,1,0
240,8,84430,1,0
256,8,84830,5,0
256,96,85030,1,0
256,184,85230,1,0
256,272,85430,1,0
240,360,85630,2,0,B|304:360,4,37.5
192,64,86630,5,0
128,128,86830,1,0
192,192,87030,1,0
128,256,87230,2,0,B|128:224,4,18.75
128,256,87630,1,0
192,192,87830,1,0
256,128,88030,1,0
192,192,88230,1,0
256,256,88430,1,0
192,192,88630,1,0
192,192,88830,1,0
168,312,89830,5,0
256,312,90030,1,0
344,312,90230,1,0
352,224,90430,5,0
360,208,90530,1,0
368,192,90630,1,0
376,176,90730,1,0
384,160,90830,1,0
256,32,91230,5,0
184,80,91430,1,0
104,128,91630,1,0
112,136,91730,1,0
120,144,91830,1,0
192,200,92030,5,0
200,208,92130,1,0
208,216,92229,1,0
216,224,92329,1,0
224,232,92430,1,0
256,304,92830,5,0
320,232,93030,1,0
384,304,93230,1,0
480,336,93429,1,0
480,240,93629,2,0,B|480:80,1,150
480,90,94430,6,0,B|480:250,1,150
480,16,95230,5,0
256,72,96230,5,0
216,152,96430,1,0
216,240,96630,2,0,B|216:304,5,37.5
216,277,97230,1,0
40,224,97630,5,0
128,224,97830,2,0,B|184:224,4,37.5
216,224,98430,2,0,B|264:224,4,37.5
352,224,99430,5,0
352,312,99630,1,0
352,224,99830,1,0
352,136,100030,1,0
352,120,100130,1,0
256,24,100430,1,0
96,112,100830,1,0
104,128,100930,1,0
240,136,101230,1,0
184,208,101430,1,0
128,280,101630,1,0
56,344,102630,5,0
144,344,102830,1,0
232,344,103030,1,0
320,344,103230,5,0
328,336,103330,1,0
336,328,103430,1,0
344,320,103528,1,0
352,312,103630,1,0
352,136,104030,5,0
400,208,104230,1,0
472,264,104430,1,0
472,248,104530,1,0
472,232,104630,1,0
472,144,104830,5,0
464,136,104930,1,0
456,128,105030,1,0
448,120,105130,1,0
440,112,105230,1,0
336,192,105630,5,0
256,240,105830,1,0
176,192,106030,1,0
256,152,106230,1,0
256,240,106428,2,0,B|256:80,1,150
256,90,107228,6,0,B|256:250,1,150
416,192,108030,5,0
412,178,108130,1,0
407,164,108230,1,0
400,152,108330,1,0
389,141,108430,1,0
376,132,108530,1,0
362,126,108630,1,0
348,123,108730,1,0
333,123,108830,1,0
319,128,108930,1,0
306,137,109030,1,0
296,147,109130,1,0
287,160,109230,1,0
281,174,109330,1,0
276,187,109430,1,0
256,192,125030,5,0
256,192,125230,1,0
256,192,125630,2,0,B|256:256,3,37.5
256,192,126030,2,0,B|192:192,4,37.5
256,192,126530,2,0,B|256:128,4,37.5
256,192,127030,2,0,B|320:192,4,37.5
256,192,128230,5,0
256,192,128430,1,0
256,192,128830,2,0,B|288:224,3,37.5
256,192,129230,2,0,B|224:224,4,37.5
256,192,129730,2,0,B|224:160,4,37.5
256,192,130230,2,0,B|288:160,4,37.5
256,192,131430,5,0
256,192,131630,1,0
384,64,132030,1,0
384,320,132430,1,0
128,64,132830,1,0
128,320,133230,1,0
256,192,133830,1,0
256,192,134630,5,0
256,192,134830,1,0
96,64,135230,1,0
96,320,135630,1,0
416,64,136030,1,0
416,320,136430,1,0
256,192,136830,1,0
256,192,137830,5,0
256,192,138030,1,0
416,64,138430,2,0,B|384:96,3,37.5
389,90,138830,2,0,B|357:58,4,37.5,0|0|0|0|0
360,66,139330,2,0,B|328:98,4,37.5
332,93,139830,2,0,B|300:61,4,37.5
256,192,141030,5,0
256,192,141430,1,0
256,192,141630,1,0
96,192,142030,1,0
256,320,142430,1,0
256,64,142830,1,0
416,192,143430,1,0
256,192,144230,5,0
256,192,144430,1,0
96,320,144830,2,0,B|128:288,3,37.5
120,296,145230,2,0,B|152:328,4,37.5
144,320,145730,2,0,B|176:288,4,37.5
171,292,146230,2,0,B|211:324,4,37.5
256,192,147430,5,0
256,192,147896,1,0
256,192,148096,1,0
416,192,148496,1,0
256,64,148896,1,0
96,192,149296,1,0
256,320,149696,1,0
256,192,157030,5,0
256,192,157230,1,0
256,192,157630,1,0
256,192,158630,5,0
256,208,158730,1,0
256,224,158830,1,0
256,240,158930,1,0
256,256,159030,1,0
256,344,159230,1,0
256,256,159830,5,0
256,240,159930,1,0
256,224,160030,1,0
208,48,160430,5,0
296,48,160630,1,0
368,104,160830,5,0
368,120,160930,1,0
368,136,161030,1,0
368,224,161230,5,0
352,224,161330,1,0
336,224,161430,1,0
264,224,161630,5,0
248,224,161730,1,0
232,224,161830,1,0
288,296,162030,5,0
272,296,162130,1,0
256,296,162230,1,0
168,296,162430,5,0
152,296,162530,1,0
136,296,162630,1,0
128,120,163030,5,0
216,120,163230,5,0
232,120,163330,1,0
248,120,163430,1,0
248,120,163630,5,0
264,120,163730,1,0
280,120,163830,1,0
368,120,164030,5,0
384,280,165030,5,0
424,200,165230,1,0
336,200,165430,1,0
376,120,165630,1,0
328,40,165830,1,0
312,40,165930,1,0
296,40,166030,1,0
144,144,166430,5,0
224,192,166630,1,0
144,240,166830,1,0
64,192,167030,1,0
64,280,167230,2,0,B|64:320,5,37.5
256,192,168230,5,0
256,192,168430,1,0
256,192,168630,1,0
256,192,168830,2,0,B|256:272,1,75
256,267,169230,1,0
256,192,169430,1,0
256,192,169630,2,0,B|258:107,1,75
257,117,170030,1,0
256,48,170430,1,0
344,72,171430,5,0
256,72,171630,1,0
168,72,171830,1,0
88,112,172030,5,0
96,120,172130,1,0
104,128,172230,1,0
112,136,172330,1,0
120,144,172430,1,0
336,312,173030,5,0
408,256,173230,1,0
400,248,173330,1,0
392,240,173430,1,0
328,176,173630,5,0
320,168,173730,1,0
312,160,173830,1,0
304,152,173930,1,0
296,144,174030,1,0
224,80,174630,5,0
144,32,174830,1,0
64,80,175030,1,0
64,168,175230,2,0,B|64:328,1,150
64,318,176030,6,0,B|64:158,1,150
64,168,176830,5,0
200,280,177830,5,0
232,200,178030,1,0
280,280,178230,1,0
312,200,178430,1,0
360,280,178630,1,0
368,272,178730,1,0
376,264,178830,1,0
400,112,179230,5,0
360,192,179430,1,0
312,112,179630,1,0
272,192,179830,1,0
224,112,180030,2,0,B|176:112,5,37.5
72,80,181030,5,0
152,40,181230,1,0
152,128,181430,1,0
152,216,181630,1,0
152,232,181730,1,0
240,336,182030,1,0
248,320,182130,1,0
408,312,182430,1,0
376,184,182830,1,0
360,176,182930,1,0
216,112,183230,2,0,B|248:80,7,37.5,0|0|0|0|0|0|0|0
456,32,184230,5,0
368,32,184430,1,0
280,32,184630,1,0
192,32,184830,5,0
184,40,184930,1,0
176,48,185030,1,0
168,56,185130,1,0
160,64,185230,1,0
48,32,185819,5,0
48,120,186019,1,0
48,136,186119,1,0
48,152,186218,1,0
48,240,186418,5,0
56,248,186518,1,0
64,256,186618,1,0
72,264,186718,1,0
80,272,186818,1,0
256,192,187430,5,0
256,192,187630,1,0
256,192,187830,1,0
256,192,188030,2,0,B|256:256,3,37.5
256,229,188430,6,0,B|291:268,3,37.5
281,257,188830,6,0,B|309:306,3,37.5
299,289,189230,6,0,B|340:307,3,37.5
333,305,189630,5,0
344,300,189730,1,0
354,296,189830,1,0
364,290,189930,1,0
373,284,190030,1,0
381,276,190130,1,0
389,268,190230,1,0
395,258,190330,1,0
401,249,190430,1,0
404,238,190530,1,0
406,227,190630,1,0
406,215,190730,1,0
404,204,190830,1,0
399,193,190930,1,0
391,185,191030,1,0
384,178,191130,1,0
376,170,191230,1,0
366,165,191330,1,0
358,157,191430,1,0
347,154,191530,1,0
336,154,191630,1,0
324,154,191730,1,0
313,154,191830,1,0
