osu file format v6

[General]
AudioFilename: Sk8er Boi .mp3
AudioLeadIn: 0
PreviewTime: -1
Countdown: 1
SampleSet: None
StackLeniency: 0.7
Mode: 0
LetterboxInBreaks: 1

[Editor]
Bookmarks: 26544
DistanceSpacing: 0.200000002980232
BeatDivisor: 4
GridSize: 8

[Metadata]
Title:Sk8er Boi
Artist:Avril Lavigne
Creator:dayuki
Version:Hard
Source:
Tags:

[Difficulty]
HPDrainRate:6
CircleSize:6
OverallDifficulty:6
SliderMultiplier:1.5
SliderTickRate:2

[Events]
//Background and Video events
0,0,"sk8er.jpg"
//Break Periods
2,53247,55198
2,110455,124007
2,149860,159312
//Storyboard Layer 0 (Background)
//Storyboard Layer 1 (Fail)
//Storyboard Layer 2 (Pass)
//Storyboard Layer 3 (Foreground)
//Storyboard Sound Samples
//Background Colour Transformations
3,100,163,162,255

[TimingPoints]
1030,400,4,0,0,100,1,0

[HitObjects]
128,128,14630,1,0
160,128,14830,1,0
160,160,15030,1,0
160,256,15230,1,0
384,256,16230,5,0
352,256,16430,1,0
352,224,16630,1,0
352,128,16830,1,0
96,96,17643,5,0
96,96,17843,1,0
128,96,18043,1,0
96,128,18243,1,0
128,160,18443,2,0,B|128:320,1,150
128,310,19043,1,0
192,320,19243,2,0,B|352:320,1,150
400,320,19843,1,0
352,64,21043,5,0
320,64,21243,1,0
288,64,21443,1,0
192,64,21643,1,0
160,288,22643,5,0
192,288,22843,1,0
224,288,23043,1,0
320,288,23243,1,0
192,96,24443,6,0,B|192:192,3,75
192,256,25244,1,0
320,256,25444,2,0,B|320:160,1,75
320,96,25944,1,0
256,192,25944,12,0,27044
256,192,27444,5,0
288,160,27644,1,0
320,128,27844,1,0
352,96,28044,1,0
224,192,29044,5,0
192,160,29244,1,0
160,128,29444,1,0
128,96,29644,1,0
224,288,30644,5,0
272,288,30844,1,0
320,288,31044,1,0
352,224,31244,6,0,B|416:160,2,75
405,170,31844,1,0
416,128,32044,1,0
384,96,32244,2,0,B|288:96,1,75
256,96,32645,1,0
256,192,33245,6,0,B|192:192,4,37.5
96,224,33845,1,0
128,256,34045,1,0
160,288,34245,1,0
192,320,34445,1,0
288,320,35445,5,0
320,288,35645,1,0
352,256,35845,1,0
384,224,36045,1,0
416,160,36245,6,0,B|448:96,4,37.5
384,64,37045,5,0
320,128,37245,1,0
256,64,37445,1,0
192,128,37645,1,0
128,64,37845,2,0,B|128:320,1,225
192,256,38845,2,0,B|352:256,1,150
256,192,40246,5,0
224,128,40446,1,0
192,128,40646,1,0
160,192,40846,1,0
192,256,41046,1,0
256,288,41246,1,0
256,192,41646,5,0
288,128,41846,1,0
320,128,42046,1,0
352,192,42246,1,0
320,256,42446,1,0
256,288,42646,1,0
256,288,42846,1,0
192,128,43446,5,0
257,213,43646,1,0
320,128,43846,1,0
256,64,44046,2,0,B|256:224,4,150
128,96,46646,5,0
96,128,46846,1,0
64,160,47046,1,0
64,192,47246,2,0,B|128:256,1,75
160,224,47647,1,0
256,192,48047,5,0
320,224,48247,1,0
384,256,48447,1,0
416,288,48647,1,0
448,256,48847,1,0
480,224,49047,1,0
480,160,49247,1,0
352,96,49647,5,0
416,64,49847,1,0
352,96,50047,1,0
288,64,50247,1,0
224,96,50447,2,0,B|64:96,1,150
74,96,51247,6,0,B|234:96,1,150
74,96,52047,6,0,B|138:224|329:224|393:64,1,375,0|0
256,192,56248,5,0
288,160,56448,1,0
320,128,56648,1,0
384,128,56848,1,0
256,192,57848,5,0
224,224,58048,1,0
192,256,58248,1,0
128,256,58448,1,0
256,192,59448,5,0
256,160,59648,1,0
256,160,59848,1,0
288,128,60048,1,0
256,96,60248,2,0,B|160:96,1,75
160,96,60648,1,0
128,96,60848,1,0
96,96,61048,2,0,B|96:192,1,75
96,192,61448,1,0
96,288,62649,5,0
128,288,62849,1,0
160,320,63049,1,0
192,288,63249,1,0
96,224,64249,5,0
128,192,64449,1,0
160,224,64649,1,0
192,224,64849,1,0
96,128,65849,5,0
160,192,66049,1,0
256,192,66249,1,0
320,256,66449,2,0,B|320:96,1,150
320,106,67249,2,0,B|64:106,1,225
256,192,69049,5,0
288,160,69249,1,0
320,128,69449,1,0
352,96,69649,1,0
320,64,69849,6,0,B|384:64,5,37.5
256,64,70649,5,0
224,96,70849,1,0
192,128,71049,1,0
160,160,71249,1,0
224,288,72249,5,0
256,288,72449,1,0
320,288,72649,1,0
352,224,72849,6,0,B|416:160,2,75
405,170,73449,1,0
416,128,73649,1,0
384,96,73849,2,0,B|288:96,1,75
288,96,74250,1,0
256,192,74850,6,0,B|192:192,4,37.5
320,224,75450,1,0
352,256,75650,1,0
384,288,75850,1,0
416,320,76050,1,0
416,320,77050,5,0
352,224,77250,1,0
288,320,77450,1,0
224,224,77650,1,0
128,320,77851,2,0,B|128:64,1,225
192,96,78851,2,0,B|352:96,1,150
256,192,79451,5,0
256,192,79851,1,0
256,192,80251,1,0
256,192,80651,1,0
256,192,80751,12,0,81451
192,96,81551,5,0
199,103,81651,1,0
208,112,81751,1,0
216,120,81851,1,0
248,152,82251,1,0
256,160,82351,1,0
264,168,82451,1,0
272,176,82551,1,0
280,184,82651,1,0
312,216,83051,1,0
384,64,83450,5,0
320,128,83651,1,0
256,64,83851,1,0
192,64,84051,1,0
128,128,84251,1,0
64,64,84451,1,0
64,256,84851,5,0
128,256,85051,1,0
192,192,85251,1,0
256,256,85451,1,0
320,192,85651,1,0
384,256,85851,1,0
384,256,86051,1,0
192,160,86651,5,0
256,224,86851,1,0
320,160,87051,1,0
256,224,87251,2,0,B|256:384,4,150
352,320,89851,5,0
384,288,90051,1,0
416,256,90251,1,0
448,288,90451,2,0,B|448:192,1,75
448,213,90852,1,0
448,96,91252,5,0
416,128,91452,1,0
384,160,91652,1,0
352,128,91852,1,0
320,160,92052,1,0
288,192,92252,1,0
256,224,92452,1,0
192,224,92852,5,0
128,224,93052,1,0
64,224,93252,1,0
80,272,93452,1,0
96,320,93652,2,0,B|256:320,1,150
246,320,94452,6,0,B|406:320,1,150
396,320,95253,1,0
384,64,96253,5,0
320,128,96454,1,0
384,192,96654,1,0
384,192,96854,1,0
384,256,97054,1,0
320,320,97254,1,0
192,320,97654,5,0
128,256,97854,1,0
128,192,98054,1,0
128,256,98254,1,0
128,192,98454,1,0
192,128,98654,1,0
128,64,98854,1,0
224,64,99454,5,0
288,64,99654,1,0
256,128,99854,1,0
256,192,100054,2,0,B|256:352,4,150
160,160,102654,5,0
128,160,102854,1,0
96,128,103054,1,0
64,96,103254,2,0,B|64:192,1,75
64,171,103655,1,0
64,288,104055,5,0
96,288,104255,1,0
128,256,104455,1,0
160,224,104655,1,0
192,256,104855,1,0
224,256,105055,1,0
256,224,105255,1,0
320,160,105655,5,0
384,160,105854,1,0
448,160,106055,1,0
433,109,106255,1,0
416,64,106455,2,0,B|256:64,1,150
266,64,107255,6,0,B|106:64,1,150
256,192,107955,12,0,110255
256,192,125057,5,0
256,192,125257,1,0
384,96,125657,1,0
128,96,126057,1,0
128,288,126457,1,0
384,288,126857,1,0
256,192,127357,1,0
256,192,128257,5,0
256,192,128457,1,0
128,96,128857,1,0
128,288,129257,1,0
384,288,129657,1,0
384,96,130057,1,0
256,192,130530,1,0
256,192,131458,5,0
256,192,131658,1,0
384,96,132058,1,0
256,320,132458,1,0
128,96,132858,1,0
256,192,133258,1,0
256,192,133730,1,0
256,192,134658,5,0
256,192,134858,1,0
384,288,135258,1,0
256,64,135658,1,0
128,288,136058,1,0
256,192,136458,1,0
256,192,136830,1,0
256,192,137859,5,0
256,192,138059,1,0
384,192,138459,1,0
256,64,138859,1,0
128,192,139259,1,0
256,320,139659,1,0
256,192,140059,1,0
384,192,141059,5,0
256,192,141459,1,0
256,192,141659,1,0
128,192,142059,1,0
256,288,142459,1,0
256,96,142859,1,0
256,192,143430,1,0
256,192,144259,5,0
256,192,144459,1,0
256,320,144859,1,0
128,192,145259,1,0
384,192,145659,1,0
256,64,146059,1,0
256,192,146659,1,0
128,192,147460,5,0
256,192,147860,1,0
256,192,148060,1,0
384,192,148460,1,0
256,192,148860,1,0
256,192,149260,1,0
128,192,149660,1,0
256,192,160362,12,0,163662
256,192,165062,5,0
320,192,165263,1,0
384,192,165463,1,0
384,256,165663,1,0
320,256,165863,1,0
256,256,166063,1,0
256,192,166463,5,0
256,128,166663,1,0
192,128,166863,1,0
128,128,167063,1,0
128,192,167263,1,0
192,192,167463,1,0
256,192,167663,1,0
256,192,168263,5,0
192,160,168463,1,0
320,160,168663,1,0
256,256,168863,2,0,B|256:96,4,150
416,64,171263,5,0
384,64,171463,1,0
352,64,171663,1,0
320,96,171863,1,0
288,128,172063,2,0,B|288:224,1,75
288,256,172463,1,0
128,320,173063,5,0
96,288,173263,1,0
128,256,173463,1,0
96,224,173663,1,0
128,192,173863,1,0
96,160,174063,1,0
96,64,174663,5,0
160,96,174862,1,0
224,128,175063,1,0
288,160,175264,2,0,B|384:288,4,150
384,256,177864,5,0
352,192,178065,1,0
320,128,178265,1,0
288,192,178465,1,0
256,256,178665,1,0
256,256,178865,1,0
128,256,179265,5,0
160,192,179465,1,0
192,256,179665,1,0
224,192,179865,1,0
192,128,180065,1,0
160,64,180265,1,0
160,64,180465,1,0
224,64,181065,5,0
224,64,181265,1,0
288,32,181465,1,0
320,96,181665,2,0,B|320:256,4,150
448,160,184065,5,0
480,224,184265,1,0
448,160,184466,1,0
416,96,184666,1,0
352,160,184866,1,0
416,96,185066,1,0
352,32,185266,1,0
256,32,185866,5,0
288,64,186066,1,0
320,96,186266,1,0
320,128,186466,1,0
288,160,186666,1,0
256,192,186866,1,0
160,256,187466,5,0
128,288,187666,1,0
96,320,187866,1,0
64,320,188066,2,0,B|64:160,3,150
64,96,189665,6,0,B|384:96,1,300
464,96,190966,5,0
456,104,191066,1,0
448,112,191166,1,0
440,120,191266,1,0
432,128,191366,1,0
424,136,191466,1,0
416,144,191566,1,0
368,184,192366,1,0
