osu file format v12

[General]
AudioFilename: Rock N Roll.mp3
AudioLeadIn: 0
PreviewTime: 46095
Countdown: 0
SampleSet: Normal
StackLeniency: 0.7
Mode: 0
LetterboxInBreaks: 0
WidescreenStoryboard: 1

[Editor]
DistanceSpacing: 0.1
BeatDivisor: 8
GridSize: 4

[Metadata]
Title:Rock N Roll
TitleUnicode:Rock N Roll
Artist:Avril Lavigne
ArtistUnicode:Avril Lavigne
Creator:Zero__wind
Version:Insane
Source:
Tags:UnitedWesin UWS punk
BeatmapID:292845
BeatmapSetID:112777

[Difficulty]
HPDrainRate:7
CircleSize:4
OverallDifficulty:7
ApproachRate:9
SliderMultiplier:2.3
SliderTickRate:1

[Events]
//Background and Video events
0,0,"avril-lavigne-3591-1366x768.jpg",0,0
//Break Periods
2,151784,156853
2,159610,162019
//Storyboard Layer 0 (Background)
//Storyboard Layer 1 (Fail)
//Storyboard Layer 2 (Pass)
//Storyboard Layer 3 (Foreground)
//Storyboard Sound Samples
//Background Colour Transformations
3,100,163,162,255

[TimingPoints]
5497.28285229034,652.173913043478,4,1,1,65,1,0
10062,-66.6666666666667,4,1,1,75,0,0
10225,-66.6666666666667,4,1,1,45,0,0
10714,-100,4,1,1,65,0,0
14790,-100,4,1,1,45,0,0
14953,-100,4,1,1,65,0,0
20497,-66.6666666666667,4,1,1,75,0,0
20660,-100,4,1,1,45,0,0
21149,-100,4,1,1,65,0,0
25225,-100,4,1,1,45,0,0
25388,-100,4,1,1,65,0,0
35334,-100,4,1,1,45,0,0
35497,-100,4,1,1,65,0,0
47236,-83.3333333333333,4,1,1,75,0,1
66964,-83.3333333333333,4,1,1,55,0,1
67127,-83.3333333333333,4,1,1,75,0,1
68105,-100,4,1,1,75,0,0
77399,-100,4,1,1,55,0,0
77562,-100,4,1,1,75,0,0
78540,-100,4,1,1,65,0,0
83105,-66.6666666666667,4,1,1,75,0,0
83269,-100,4,1,1,45,0,0
83758,-100,4,1,1,65,0,0
87834,-100,4,1,1,45,0,0
87997,-100,4,1,1,65,0,0
93540,-66.6666666666667,4,1,1,75,0,0
93703,-100,4,1,1,45,0,0
94192,-100,4,1,1,65,0,0
98269,-100,4,1,1,45,0,0
98432,-100,4,1,1,65,0,0
109845,-83.3333333333333,4,1,1,75,0,1
129573,-83.3333333333333,4,1,1,55,0,1
129736,-83.3333333333333,4,1,1,75,0,1
130714,-100,4,1,1,75,0,0
140008,-100,4,1,1,55,0,0
140171,-100,4,1,1,75,0,0
150279,-55.5555555555556,4,1,1,75,0,0
151095,-55.5555555555556,4,1,1,45,0,0
158105,-55.5555555555556,4,1,1,55,0,0
158758,-55.5555555555556,4,1,1,75,0,0
159084,-55.5555555555556,4,1,1,85,0,0
159410,-55.5555555555556,4,1,1,45,0,0
163160,652.173913043478,4,1,1,65,1,0
163160,-83.3333333333333,4,1,1,75,0,1
172453,-83.3333333333333,4,1,1,55,0,1
172616,-83.3333333333333,4,1,1,75,0,0
173594,-83.3333333333333,4,1,1,75,0,1
193323,-83.3333333333333,4,1,1,55,0,1
193486,-83.3333333333333,4,1,1,75,0,1
194464,-83.3333333333333,4,1,1,75,0,0
203757,-83.3333333333333,4,1,1,55,0,0
203920,-83.3333333333333,4,1,1,75,0,0

[Colours]
Combo1 : 226,220,24
Combo2 : 224,121,140
Combo3 : 122,195,212
Combo4 : 178,64,157
Combo5 : 46,43,187
Combo6 : 118,202,70
Combo7 : 236,226,243
Combo8 : 255,0,128

[HitObjects]
216,260,5497,1,0,0:0:0:0:
352,288,5823,1,0,0:0:0:0:
384,152,6149,1,8,0:0:0:0:
384,152,6312,1,2,2:0:0:0:
352,288,6638,1,0,2:0:0:0:
352,288,6801,2,0,P|332:320|312:336,1,57.5,0|0,0:0|2:0,0:0:0:0:
216,260,7127,2,0,P|200:232|196:208,1,57.5,0|2,0:0|2:0,0:0:0:0:
41,336,7453,2,0,P|96:352|152:340,1,115,8|2,0:0|2:0,0:0:0:0:
146,16,8105,6,0,P|88:36|60:80,1,115
100,176,8595,1,2,2:0:0:0:
100,176,8758,2,0,P|132:177|156:168,1,57.5,8|0,0:0|2:0,0:0:0:0:
272,92,9084,2,0,P|268:58|256:36,1,57.5,2|0,2:0|2:0,0:0:0:0:
396,31,9410,1,0,0:0:0:0:
272,92,9736,1,0,0:0:0:0:
376,184,10062,2,0,L|440:244,1,86.2500032901765,8|0,0:0|0:0,0:0:0:0:
444,260,10551,1,0,0:0:0:0:
444,260,10714,6,0,P|417:325|378:346,1,115
188,232,11366,1,8,0:0:0:0:
188,232,11529,1,2,2:0:0:0:
64,288,11855,1,0,2:0:0:0:
64,288,12019,2,0,P|85:317|108:328,1,57.5,0|0,0:0|2:0,0:0:0:0:
300,259,12345,2,0,P|288:292|273:308,1,57.5,0|2,0:0|2:0,0:0:0:0:
188,232,12671,2,0,P|144:184|144:136,1,115,8|2,0:0|2:0,0:0:0:0:
328,44,13323,5,0,0:0:0:0:
236,152,13649,1,0,0:0:0:0:
40,28,13975,1,8,0:0:0:0:
40,28,14627,1,0,0:0:0:0:
120,92,14790,1,0,0:0:0:0:
120,92,14872,1,0,0:0:0:0:
120,92,14953,1,0,0:0:0:0:
24,128,15116,1,0,0:0:0:0:
168,28,15279,5,8,0:0:0:0:
95,182,15442,1,0,0:0:0:0:
328,44,15605,1,0,0:0:0:0:
236,152,15768,1,8,0:3:0:0:
376,144,15932,6,0,P|440:125|471:89,1,115,4|0,0:3|0:0,0:0:0:0:
236,152,16584,2,0,L|240:212,1,57.5,8|2,0:0|2:0,0:0:0:0:
396,300,17073,1,0,2:0:0:0:
396,300,17236,2,0,P|436:288|452:272,1,57.5,0|0,0:0|2:0,0:0:0:0:
280,320,17562,2,0,P|301:355|321:366,1,57.5,0|2,0:0|2:0,0:0:0:0:
236,208,17888,2,0,L|176:208,1,57.5,8|0,0:0|2:0,0:0:0:0:
64,336,18214,2,0,P|96:304|104:260,1,86.25,2|0,2:0|2:0,0:0:0:0:
103,213,18540,5,0,0:0:0:0:
72,80,18866,2,0,P|72:49|82:25,1,57.5,0|2,0:0|2:0,0:0:0:0:
103,213,19192,2,0,P|39:200|7:160,1,115,8|2,0:0|2:0,0:0:0:0:
72,80,19682,1,0,2:0:0:0:
72,80,19845,1,0,0:0:0:0:
196,16,20171,1,0,0:0:0:0:
324,68,20497,2,0,L|256:124,1,86.2500032901765,8|0,0:0|0:0,0:0:0:0:
268,120,20986,1,0,0:0:0:0:
268,120,21149,6,0,P|328:120|364:80,1,115
508,228,21801,1,8,0:0:0:0:
508,228,21964,2,0,P|452:208|436:157,1,115,2|0,2:0|2:0,0:0:0:0:
288,248,22453,2,0,P|320:232|336:216,1,57.5,0|0,0:0|2:0,0:0:0:0:
176,284,22779,2,0,P|180:318|176:340,1,57.5,0|2,0:0|2:0,0:0:0:0:
288,340,23105,2,0,L|336:372,1,57.5,8|0,0:0|2:0,0:0:0:0:
183,169,23432,2,0,P|163:217|171:253,1,86.25,2|0,2:0|2:0,0:0:0:0:
176,284,23758,5,0,0:0:0:0:
276,184,24084,1,0,0:0:0:0:
112,24,24410,1,8,0:0:0:0:
112,24,25062,1,0,0:0:0:0:
188,96,25225,1,0,0:0:0:0:
188,96,25307,1,0,0:0:0:0:
188,96,25388,1,0,0:0:0:0:
276,152,25551,1,0,0:0:0:0:
356,88,25714,5,8,0:0:0:0:
276,184,25877,1,0,0:0:0:0:
324,300,26040,1,0,0:0:0:0:
448,324,26203,1,8,0:3:0:0:
410,97,26366,6,0,P|384:86|356:88,1,57.5,4|0,0:3|2:0,0:0:0:0:
324,300,26692,2,0,P|296:307|269:298,1,57.5,0|0,0:0|2:0,0:0:0:0:
225,88,27019,2,0,P|266:128|276:184,1,115,8|0,0:0|2:0,0:0:0:0:
269,298,27508,1,2,2:0:0:0:
172,356,27671,2,0,P|136:364|116:364,1,57.5,0|0,0:0|2:0,0:0:0:0:
219,191,27997,2,0,P|247:184|276:184,1,57.5,0|0,0:0|2:0,0:0:0:0:
56,252,28323,2,0,L|80:200,1,57.5,8|0,0:0|2:0,0:0:0:0:
136,80,28649,2,0,B|142:128|176:156,1,86.25,2|0,2:0|2:0,0:0:0:0:
219,191,28975,5,0,0:0:0:0:
136,80,29301,1,0,0:0:0:0:
20,154,29627,2,0,P|17:210|55:251,1,115,8|0,0:0|2:0,0:0:0:0:
148,320,30116,1,2,2:0:0:0:
260,348,30279,2,0,P|289:334|306:313,1,57.5,0|0,0:0|2:0,0:0:0:0:
460,180,30605,2,0,P|464:212|456:240,1,57.5,0|0,0:0|2:0,0:0:0:0:
304,314,30932,2,0,L|312:256,1,57.5,8|0,0:0|2:0,0:0:0:0:
230,142,31258,2,0,B|244:96|284:77,1,86.25,2|0,2:0|2:0,0:0:0:0:
315,64,31584,5,0,0:0:0:0:
452,80,31910,1,0,0:0:0:0:
369,191,32236,2,0,P|328:233|274:242,1,115,8|0,0:0|2:0,0:0:0:0:
208,148,32725,1,2,2:0:0:0:
100,188,32888,2,0,P|111:224|110:252,1,57.5,0|0,0:0|2:0,0:0:0:0:
48,340,33214,2,0,P|24:364|0:372,1,57.5,0|0,0:0|2:0,0:0:0:0:
216,292,33540,2,0,L|216:352,1,57.5,8|0,0:0|2:0,0:0:0:0:
32,232,33866,2,0,P|12:184|20:148,1,86.25,2|0,2:0|2:0,0:0:0:0:
27,118,34192,5,0,0:0:0:0:
140,36,34519,1,0,0:0:0:0:
268,96,34845,1,8,0:0:0:0:
268,96,35008,2,0,P|297:105|324:104,1,57.5,2|0,2:0|2:0,0:0:0:0:
432,20,35334,1,0,0:0:0:0:
432,20,35415,1,0,0:0:0:0:
432,20,35497,2,0,P|466:30|484:44,2,57.5,0|2|0,0:0|2:0|2:0,0:0:0:0:
268,96,35986,1,0,2:0:0:0:
344,168,36149,5,0,0:0:0:0:
428,108,36312,1,0,0:0:0:0:
344,184,36475,1,0,0:0:0:0:
460,124,36638,1,8,0:3:0:0:
344,196,36801,6,0,P|335:226|340:256,1,57.5,4|0,0:3|2:0,0:0:0:0:
172,304,37127,2,0,P|136:308|116:317,1,57.5,0|0,0:0|2:0,0:0:0:0:
156,124,37453,2,0,P|211:138|245:182,1,115,8|0,0:0|2:0,0:0:0:0:
338,251,37942,1,2,2:0:0:0:
440,268,38105,2,0,P|471:255|488:232,1,57.5,0|0,0:0|2:0,0:0:0:0:
300,324,38432,2,0,P|327:329|349:348,1,57.5,0|0,0:0|2:0,3:0:0:0:
216,192,38758,2,0,L|244:140,1,57.5,8|0,0:0|2:0,0:0:0:0:
176,344,39084,2,0,P|177:303|152:268,1,86.25,2|0,2:0|2:0,0:0:0:0:
124,246,39410,5,0,0:0:0:0:
39,355,39736,1,0,0:0:0:0:
176,344,40062,2,0,P|232:340|278:372,1,115,8|0,0:0|2:0,0:0:0:0:
304,260,40551,1,2,2:0:0:0:
367,163,40714,2,0,P|371:135|385:110,1,57.5,0|0,0:0|2:0,0:0:0:0:
280,68,41040,2,0,P|273:31|256:8,1,57.5,0|0,0:0|2:0,0:0:0:0:
112,100,41366,2,0,L|70:62,1,57.5,8|0,0:0|2:0,0:0:0:0:
148,216,41692,2,0,P|186:194|200:156,1,86.25,2|0,2:0|2:0,0:0:0:0:
196,121,42019,5,0,0:0:0:0:
70,62,42345,1,0,0:0:0:0:
24,192,42671,2,0,P|29:260|4:300,1,115,8|0,0:0|2:0,0:0:0:0:
112,344,43160,1,2,2:0:0:0:
224,372,43323,2,0,P|254:363|276:344,1,57.5,0|0,0:0|2:0,0:0:0:0:
368,244,43649,2,0,P|398:236|427:242,1,57.5,0|0,0:0|2:0,0:0:0:0:
472,372,43975,2,0,L|420:344,1,57.5,8|0,0:0|2:0,0:0:0:0:
278,258,44301,2,0,P|236:236|224:200,1,86.25,2|0,2:0|2:0,0:0:0:0:
256,192,44627,12,4,45932,3:0:0:0:
380,80,47236,5,4,0:0:0:0:
312,320,47562,1,0,0:0:0:0:
76,244,47888,1,8,0:0:0:0:
248,64,48214,2,0,P|279:113|276:156,1,103.499996841431,2|0,2:0|2:0,0:0:0:0:
264,189,48540,6,0,L|196:209,1,68.9999978942872,0|0,0:0|2:0,0:0:0:0:
76,244,48866,1,0,0:0:0:0:
168,124,49029,1,0,2:0:0:0:
272,296,49192,2,0,P|340:312|396:276,1,137.999995788574,8|2,0:0|2:0,0:0:0:0:
476,184,49682,1,0,2:0:0:0:
408,104,49845,6,0,B|372:102|339:106,1,68.9999978942872,4|0,0:0|2:0,0:0:0:0:
228,48,50171,1,0,0:0:0:0:
344,4,50334,1,0,2:0:0:0:
336,192,50497,2,0,L|276:224,1,68.9999978942872,8|0,0:0|2:0,0:0:0:0:
152,224,50823,1,2,2:0:0:0:
256,140,50986,1,0,2:0:0:0:
220,288,51149,6,0,B|228:328|252:352,1,68.9999978942872,0|0,0:0|2:0,0:0:0:0:
403,182,51475,2,0,P|369:182|336:192,1,68.9999978942872,0|0,0:0|2:0,0:0:0:0:
152,224,51801,2,0,P|90:223|64:192,1,103.499996841431,8|0,0:0|2:0,0:0:0:0:
56,160,52127,2,0,L|72:88,1,68.9999978942872,2|0,2:0|0:0,0:0:0:0:
256,140,52453,6,0,L|244:208,1,68.9999978942872,4|0,0:0|2:0,0:0:0:0:
24,276,52779,2,0,P|45:303|80:316,1,68.9999978942872,0|0,0:0|2:0,0:0:0:0:
292,312,53105,1,8,0:0:0:0:
292,312,53432,2,0,P|324:332|336:360,1,68.9999978942872,2|0,2:0|2:0,0:0:0:0:
184,352,53758,5,0,0:0:0:0:
152,224,53921,1,0,2:0:0:0:
256,140,54084,2,0,P|312:132|360:136,1,103.499996841431,0|0,0:0|2:0,0:0:0:0:
372,168,54410,2,0,L|420:218,1,68.9999978942872,8|0,0:0|2:0,0:0:0:0:
332,47,54736,1,2,2:0:0:0:
296,232,54899,1,0,2:0:0:0:
460,136,55062,6,0,P|496:80|476:12,2,137.999995788574,4|0|8,0:0|0:0|0:0,0:0:0:0:
392,256,55877,1,0,2:0:0:0:
288,136,56040,2,0,P|252:124|220:120,1,68.9999978942872,2|0,2:0|0:0,0:0:0:0:
128,16,56366,1,0,0:0:0:0:
36,120,56529,1,0,2:0:0:0:
96,244,56692,2,0,P|136:264|168:268,1,68.9999978942872,0|0,0:0|2:0,0:0:0:0:
36,120,57019,5,8,0:0:0:0:
0,276,57182,1,0,0:0:0:0:
159,267,57345,1,2,2:0:0:0:
108,168,57508,1,0,0:0:0:0:
96,352,57671,6,0,P|160:376|224:352,1,137.999995788574,4|0,0:0|0:0,0:0:0:0:
312,268,58160,1,0,2:0:0:0:
252,184,58323,2,0,L|252:112,1,68.9999978942872,8|0,0:0|2:0,0:0:0:0:
332,48,58649,1,2,2:0:0:0:
164,148,58812,1,0,2:0:0:0:
312,268,58975,6,0,P|376:276|436:236,1,137.999995788574
352,160,59464,1,0,2:0:0:0:
200,268,59627,2,0,P|144:272|104:244,1,103.499996841431,8|0,0:0|2:0,0:0:0:0:
92,215,59953,2,0,L|76:147,1,68.9999978942872,2|0,2:0|2:0,0:0:0:0:
152,32,60279,6,0,L|183:166,1,137.999995788574,4|0,0:0|0:0,0:0:0:0:
200,268,60769,1,0,2:0:0:0:
320,244,60932,2,0,P|376:244|416:216,1,103.499996841431,8|0,0:0|2:0,0:0:0:0:
436,192,61258,2,0,L|420:272,1,68.9999978942872,2|0,2:0|2:0,0:0:0:0:
320,96,61584,5,0,0:0:0:0:
4,364,61910,1,0,0:0:0:0:
72,48,62236,1,8,0:0:0:0:
256,376,62562,2,0,L|256:272,1,103.499996841431,2|0,2:0|2:0,0:0:0:0:
256,238,62888,5,4,0:0:0:0:
320,96,63051,1,0,2:0:0:0:
176,116,63214,1,0,0:0:0:0:
256,238,63377,1,0,2:0:0:0:
368,332,63540,2,0,P|421:340|460:312,1,103.499996841431,8|0,0:0|2:0,0:0:0:0:
475,281,63866,2,0,L|455:213,1,68.9999978942872,2|0,2:0|2:0,0:0:0:0:
408,20,64192,5,0,0:0:0:0:
472,124,64355,1,0,2:0:0:0:
320,96,64519,2,0,L|256:72,1,68.9999978942872,0|0,0:0|2:0,0:0:0:0:
120,48,64845,2,0,P|112:104|136:152,1,103.499996841431,8|0,0:0|2:0,0:0:0:0:
156,168,65171,2,0,L|220:192,1,68.9999978942872,2|0,2:0|2:0,0:0:0:0:
320,96,65497,5,4,0:0:0:0:
156,168,65823,1,0,0:0:0:0:
244,324,66149,1,8,0:0:0:0:
344,248,66312,1,0,2:0:0:0:
244,324,66475,2,0,L|172:332,1,68.9999978942872,2|0,2:0|0:0,0:0:0:0:
68,280,66801,5,0,0:0:0:0:
236,92,66964,1,0,0:0:0:0:
236,92,67046,1,0,0:0:0:0:
236,92,67127,1,0,0:0:0:0:
156,168,67290,1,0,0:0:0:0:
240,240,67453,5,0,0:0:0:0:
175,331,67616,1,0,0:0:0:0:
240,240,67779,1,8,0:0:0:0:
68,280,67942,1,8,0:3:0:0:
264,368,68105,6,0,P|312:352|344:296,1,115,4|0,0:0|0:0,0:0:0:0:
480,144,68758,2,0,P|425:129|408:72,1,115,8|0,0:0|2:0,0:0:0:0:
308,20,69247,1,2,2:0:0:0:
308,20,69410,2,0,L|196:56,1,115
24,208,70062,2,0,P|80:192|119:144,1,115,8|0,0:0|2:0,0:0:0:0:
28,224,70551,1,2,2:0:0:0:
28,224,70714,6,0,L|72:340,1,115
276,340,71366,2,0,P|263:276|224:252,1,115,8|0,0:0|2:0,0:0:0:0:
116,292,71855,1,2,2:0:0:0:
116,292,72019,2,0,L|208:360,1,115
412,256,72671,1,8,0:0:0:0:
160,116,72997,1,4,2:0:0:0:
488,8,73323,6,0,P|512:60|496:116,1,115,4|0,0:0|0:0,0:0:0:0:
288,212,73975,2,0,P|321:161|372:148,1,115,8|0,0:0|2:0,0:0:0:0:
412,256,74464,1,2,2:0:0:0:
412,256,74627,2,0,L|316:320,1,115
144,168,75279,2,0,P|172:224|156:272,1,115,8|0,0:0|2:0,0:0:0:0:
100,372,75769,1,2,2:0:0:0:
100,372,75932,6,0,L|4:304,1,115
116,100,76584,1,8,0:0:0:0:
180,68,76747,2,0,L|296:52,1,115,0|0,0:0|0:0,0:0:0:0:
91,11,77236,5,4,0:0:0:0:
20,88,77399,1,0,0:0:0:0:
20,88,77480,1,0,0:0:0:0:
20,88,77562,1,0,0:0:0:0:
84,168,77725,1,0,0:0:0:0:
180,68,77888,5,0,0:0:0:0:
242,194,78051,1,8,0:0:0:0:
267,58,78214,1,0,0:0:0:0:
165,153,78377,1,8,0:3:0:0:
303,134,78540,6,0,L|416:100,2,115,4|0|8,0:3|0:0|0:0,0:0:0:0:
303,134,79355,1,2,2:0:0:0:
296,272,79682,1,0,2:0:0:0:
296,272,79845,2,0,P|297:309|308:332,1,57.5,0|0,0:0|2:0,0:0:0:0:
428,288,80171,2,0,P|458:278|476:256,1,57.5,0|2,0:0|2:0,0:0:0:0:
488,132,80497,2,0,P|491:73|456:32,1,115,8|2,0:0|2:0,0:0:0:0:
219,199,81149,6,0,P|244:250|296:272,1,115
200,336,81638,1,2,2:0:0:0:
200,336,81801,2,0,L|146:355,1,57.5,8|0,0:0|2:0,0:0:0:0:
318,128,82127,2,0,P|308:155|308:184,1,57.5,2|0,2:0|2:0,0:0:0:0:
112,224,82453,2,0,P|59:188|51:141,1,115,0|0,0:0|0:0,0:0:0:0:
76,28,82942,1,2,2:0:0:0:
76,28,83105,6,0,L|160:56,1,86.2500032901765,8|0,0:0|0:0,0:0:0:0:
163,65,83595,1,0,0:0:0:0:
163,65,83758,6,0,P|221:63|252:15,1,115
12,160,84410,1,8,0:0:0:0:
12,160,84573,1,2,2:0:0:0:
64,288,84899,1,0,2:0:0:0:
64,288,85062,2,0,P|56:323|40:340,1,57.5,0|0,0:0|2:0,0:0:0:0:
133,192,85388,2,0,P|166:184|192:192,1,57.5,0|2,0:0|2:0,0:0:0:0:
288,332,85714,2,0,P|344:334|384:292,1,115,8|2,0:0|2:0,0:0:0:0:
168,296,86366,5,0,0:0:0:0:
128,164,86692,1,0,0:0:0:0:
308,248,87019,1,8,0:0:0:0:
308,248,87671,1,0,0:0:0:0:
384,176,87834,1,0,0:0:0:0:
384,176,87915,1,0,0:0:0:0:
384,176,87997,1,0,0:0:0:0:
328,88,88160,1,0,0:0:0:0:
272,220,88323,5,8,0:0:0:0:
425,155,88486,1,0,0:0:0:0:
284,100,88649,1,0,0:0:0:0:
308,248,88812,1,8,0:3:0:0:
480,232,88975,6,0,P|508:176|500:124,1,115,4|0,0:3|0:0,0:0:0:0:
377,61,89627,2,0,L|320:92,1,57.5,8|2,0:0|2:0,0:0:0:0:
168,180,90116,1,0,2:0:0:0:
168,180,90279,2,0,P|135:172|116:156,1,57.5,0|0,0:0|2:0,0:0:0:0:
24,72,90605,2,0,P|36:43|35:18,1,57.5,0|2,0:0|2:0,0:0:0:0:
216,15,90932,2,0,L|156:12,1,57.5,8|0,0:0|2:0,0:0:0:0:
259,144,91258,2,0,P|266:193|247:231,1,86.25,2|0,2:0|2:0,0:0:0:0:
236,256,91584,5,0,0:0:0:0:
100,288,91910,2,0,P|72:292|44:308,1,57.5,0|2,0:0|2:0,0:0:0:0:
188,351,92236,2,0,P|228:311|236:256,1,115,8|0,0:0|2:0,0:0:0:0:
164,166,92725,1,2,2:0:0:0:
164,166,92888,1,0,0:0:0:0:
100,288,93214,1,0,0:0:0:0:
300,344,93540,6,0,L|388:364,1,86.2500032901765,8|0,0:0|0:0,0:0:0:0:
395,360,94029,1,0,0:0:0:0:
395,360,94192,6,0,P|453:333|476:288,1,115
352,224,94845,1,8,0:0:0:0:
352,224,95008,2,0,P|352:167|386:122,1,115,2|0,2:0|2:0,0:0:0:0:
456,16,95497,2,0,P|478:36|488:64,1,57.5,0|0,0:0|2:0,0:0:0:0:
360,144,95823,2,0,P|332:136|308:116,1,57.5,0|2,0:0|2:0,0:0:0:0:
164,76,96149,2,0,L|184:20,1,57.5,8|0,0:0|2:0,0:0:0:0:
240,168,96475,2,0,P|201:187|161:175,1,86.25,2|0,2:0|2:0,0:0:0:0:
131,158,96801,5,0,0:0:0:0:
244,77,97127,1,0,0:0:0:0:
256,308,97453,1,8,0:0:0:0:
256,308,98105,1,0,0:0:0:0:
196,223,98269,1,0,0:0:0:0:
196,223,98350,1,0,0:0:0:0:
196,223,98432,1,0,0:0:0:0:
288,176,98595,1,0,0:0:0:0:
332,296,98758,5,8,0:0:0:0:
224,361,98921,1,0,0:0:0:0:
97,351,99084,1,0,0:0:0:0:
16,252,99247,1,8,0:3:0:0:
80,116,99410,6,0,P|99:89|104:60,1,57.5,4|0,0:3|2:0,0:0:0:0:
16,252,99736,2,0,P|51:258|74:252,1,57.5,0|0,0:0|2:0,0:0:0:0:
224,361,100062,2,0,P|256:320|252:260,1,115,8|0,0:0|2:0,0:0:0:0:
162,188,100551,1,2,2:0:0:0:
136,300,100714,2,0,P|109:321|85:325,1,57.5,0|0,0:0|2:0,0:0:0:0:
28,124,101040,2,0,P|41:152|44:177,1,57.5,0|0,0:0|2:0,0:0:0:0:
148,64,101366,2,0,L|208:80,1,57.5,8|0,0:0|2:0,0:0:0:0:
264,227,101692,2,0,P|220:235|187:213,1,86.25,2|0,2:0|2:0,0:0:0:0:
162,188,102019,5,0,0:0:0:0:
272,104,102345,1,0,0:0:0:0:
380,192,102671,2,0,P|440:200|488:176,1,115,8|0,0:0|2:0,0:0:0:0:
508,64,103160,1,2,2:0:0:0:
411,3,103323,2,0,P|380:8|352:20,1,57.5,0|0,0:0|2:0,0:0:0:0:
219,81,103649,2,0,P|246:97|272:104,1,57.5,0|0,0:0|2:0,0:0:0:0:
380,192,103975,2,0,L|320:192,1,57.5,8|0,0:0|2:0,0:0:0:0:
135,146,104301,2,0,P|177:144|207:114,1,86.25,2|0,2:0|2:0,0:0:0:0:
219,81,104627,5,0,0:0:0:0:
314,182,104953,1,0,0:0:0:0:
289,318,105279,2,0,P|241:355|189:358,1,115,8|0,0:0|2:0,0:0:0:0:
202,243,105769,1,2,2:0:0:0:
289,318,105932,2,0,L|344:336,1,57.5,0|0,0:0|2:0,0:0:0:0:
508,284,106258,2,0,P|512:316|504:344,1,57.5,0|0,0:0|2:0,0:0:0:0:
352,348,106584,2,0,L|297:330,1,57.5,8|0,0:0|2:0,0:0:0:0:
292,156,106910,2,0,P|294:208|272:236,1,86.25,2|0,2:0|2:0,0:0:0:0:
256,192,107236,12,0,108540,0:0:0:0:
72,224,109845,5,4,0:0:0:0:
280,360,110171,1,0,0:0:0:0:
380,132,110497,1,8,0:0:0:0:
133,107,110823,2,0,B|84:138|75:188,1,103.499996841431,2|0,2:0|2:0,0:0:0:0:
72,224,111149,6,0,L|132:256,1,68.9999978942872,0|0,0:0|2:0,0:0:0:0:
88,372,111475,1,0,0:0:0:0:
4,280,111638,1,0,2:0:0:0:
192,184,111801,2,0,P|228:248|212:308,1,137.999995788574,8|2,0:0|2:0,0:0:0:0:
120,260,112290,1,0,2:0:0:0:
288,140,112453,6,0,P|328:136|360:144,1,68.9999978942872,4|0,0:0|2:0,0:0:0:0:
372,264,112779,1,0,0:0:0:0:
480,204,112942,1,0,2:0:0:0:
464,348,113105,2,0,L|396:372,1,68.9999978942872,8|0,0:0|2:0,0:0:0:0:
379,249,113432,1,2,2:0:0:0:
479,176,113595,1,0,2:0:0:0:
444,56,113758,6,0,P|414:35|402:4,1,68.9999978942872,0|0,0:0|2:0,0:0:0:0:
256,80,114084,2,0,P|294:77|320:56,1,68.9999978942872,0|0,0:0|2:0,0:0:0:0:
160,12,114410,2,0,P|129:65|132:108,1,103.499996841431,8|0,0:0|2:0,0:0:0:0:
143,138,114736,2,0,L|203:182,1,68.9999978942872,2|0,2:0|2:0,0:0:0:0:
364,168,115062,6,0,L|424:128,1,68.9999978942872,4|0,0:0|2:0,0:0:0:0:
416,316,115388,2,0,L|352:292,1,68.9999978942872,0|0,0:0|2:0,0:0:0:0:
212,128,115714,1,8,0:0:0:0:
212,128,116040,2,0,P|187:158|182:190,1,68.9999978942872,2|0,2:0|2:0,0:0:0:0:
100,332,116366,5,0,0:0:0:0:
24,232,116529,1,0,2:0:0:0:
184,208,116692,2,0,L|280:252,1,103.499996841431,0|0,0:0|2:0,0:0:0:0:
304,276,117019,2,0,L|292:344,1,68.9999978942872,8|0,0:0|2:0,0:0:0:0:
118,349,117345,1,2,2:0:0:0:
30,259,117508,1,0,2:0:0:0:
212,128,117671,6,0,P|186:204|140:232,2,137.999995788574,4|0|8,0:0|0:0|0:0,0:0:0:0:
152,20,118486,1,0,2:0:0:0:
20,120,118649,2,0,L|88:136,1,68.9999978942872,2|0,2:0|2:0,0:0:0:0:
212,128,118975,1,0,0:0:0:0:
296,36,119138,1,0,2:0:0:0:
400,104,119301,2,0,P|434:95|460:72,1,68.9999978942872,0|0,0:0|2:0,0:0:0:0:
276,32,119627,5,8,0:0:0:0:
204,133,119790,1,0,0:0:0:0:
327,200,119953,1,2,2:0:0:0:
272,72,120116,1,0,0:0:0:0:
168,300,120279,6,0,P|224:337|288:319,1,137.999995788574,4|0,0:0|0:0,0:0:0:0:
327,200,120769,1,0,2:0:0:0:
204,133,120932,2,0,L|136:128,1,68.9999978942872,8|0,0:0|2:0,0:0:0:0:
16,160,121258,1,2,2:0:0:0:
136,44,121421,1,0,2:0:0:0:
188,224,121584,6,0,P|136:276|76:268,1,137.999995788574,4|0,0:0|0:0,0:0:0:0:
16,160,122073,1,0,2:0:0:0:
8,32,122236,2,0,P|64:16|106:35,1,103.499996841431,8|0,0:0|2:0,0:0:0:0:
136,44,122562,2,0,L|208:36,1,68.9999978942872,2|0,2:0|2:0,0:0:0:0:
60,120,122888,6,0,L|8:252,1,137.999995788574,4|0,0:0|0:0,0:0:0:0:
88,344,123377,1,0,2:0:0:0:
208,372,123540,2,0,P|250:360|284:312,1,103.499996841431,8|0,0:0|2:0,0:0:0:0:
288,278,123866,2,0,L|236:232,1,68.9999978942872,2|0,2:0|2:0,0:0:0:0:
88,344,124192,5,0,0:0:0:0:
416,240,124519,1,0,0:0:0:0:
160,12,124845,1,8,0:0:0:0:
504,32,125171,2,0,L|504:140,1,103.499996841431,2|0,2:0|2:0,0:0:0:0:
504,171,125497,5,4,0:0:0:0:
328,232,125660,1,0,2:0:0:0:
444,280,125823,1,0,0:0:0:0:
328,108,125986,1,0,2:0:0:0:
504,171,126149,2,0,P|501:231|472:260,1,103.499996841431,8|0,0:0|2:0,0:0:0:0:
444,280,126475,2,0,L|376:308,1,68.9999978942872,2|0,2:0|2:0,0:0:0:0:
262,268,126801,5,0,0:0:0:0:
408,192,126964,1,0,2:0:0:0:
328,360,127127,2,0,P|292:368|258:365,1,68.9999978942872,0|0,0:0|2:0,0:0:0:0:
108,304,127453,2,0,P|61:266|60:224,1,103.499996841431,8|0,0:0|2:0,0:0:0:0:
64,192,127779,2,0,L|112:136,1,68.9999978942872,2|0,2:0|2:0,0:0:0:0:
272,114,128105,5,4,0:0:0:0:
153,231,128432,1,0,0:0:0:0:
28,120,128758,1,8,0:0:0:0:
120,16,128921,1,0,2:0:0:0:
272,114,129084,2,0,P|233:116|205:107,1,68.9999978942872,2|0,2:0|0:0,0:0:0:0:
84,136,129410,5,0,0:0:0:0:
120,16,129573,1,0,0:0:0:0:
120,16,129654,1,0,0:0:0:0:
120,16,129736,1,0,0:0:0:0:
204,106,129899,1,0,0:0:0:0:
96,216,130062,5,8,0:0:0:0:
169,347,130225,1,0,0:0:0:0:
320,345,130388,1,0,0:0:0:0:
246,214,130551,1,8,0:3:0:0:
59,347,130714,6,0,P|114:362|168:347,1,115,4|0,0:0|0:0,0:0:0:0:
400,196,131366,2,0,P|436:252|424:296,1,115,8|0,0:0|2:0,0:0:0:0:
320,345,131855,1,2,2:0:0:0:
320,345,132019,2,0,L|220:288,1,115
1,116,132671,2,0,P|26:68|81:52,1,115,8|0,0:0|2:0,0:0:0:0:
128,156,133160,1,2,2:0:0:0:
128,156,133323,6,0,L|40:232,1,115
312,196,133975,2,0,P|264:236|212:232,1,115,8|0,0:0|2:0,0:0:0:0:
128,156,134464,1,2,2:0:0:0:
128,156,134627,2,0,L|164:44,1,115
448,88,135279,1,8,0:0:0:0:
508,368,135605,1,4,2:0:0:0:
220,364,135932,6,0,P|168:336|160:284,1,115,4|0,0:0|0:0,0:0:0:0:
52,28,136584,2,0,P|76:88|52:128,1,115,8|0,0:0|2:0,0:0:0:0:
52,244,137073,1,2,2:0:0:0:
52,244,137236,2,0,L|159:284,1,115
424,360,137888,2,0,P|460:313|444:264,1,115,8|0,0:0|2:0,0:0:0:0:
366,180,138377,1,2,2:0:0:0:
366,180,138540,6,0,L|258:139,1,115
236,368,139192,1,8,0:0:0:0:
298,338,139355,2,0,L|380:256,1,115
330,166,139845,5,4,0:0:0:0:
276,255,140008,1,0,0:0:0:0:
276,255,140089,1,0,0:0:0:0:
276,255,140171,1,0,0:0:0:0:
379,257,140334,1,0,0:0:0:0:
293,194,140497,5,0,0:0:0:0:
293,319,140660,1,0,0:0:0:0:
411,357,140823,1,0,0:0:0:0:
484,257,140986,1,0,0:0:0:0:
411,156,141149,6,0,P|360:144|320:96,1,115,4|0,0:3|0:0,0:0:0:0:
232,24,141638,1,2,2:0:0:0:
136,88,141801,2,0,L|168:136,1,57.5,8|0,0:0|2:0,0:0:0:0:
56,160,142127,2,0,L|107:185,1,57.5,2|0,2:0|2:0,0:0:0:0:
24,264,142453,2,0,L|81:260,1,57.5,0|0,0:0|2:0,0:0:0:0:
40,368,142779,2,0,L|88:336,1,57.5,0|2,0:0|2:0,0:0:0:0:
203,344,143105,2,0,L|227:295,2,38.3333333333333,8|0|2,0:0|2:0|2:0,0:0:0:0:
203,344,143432,6,0,P|256:376|304:360,1,115,2|0,2:0|0:0,0:0:0:0:
392,288,143921,1,0,2:0:0:0:
468,200,144084,2,0,L|424:160,1,57.5,0|2,0:0|2:0,0:0:0:0:
260,96,144410,2,0,L|302:134,1,57.5,0|2,0:0|2:0,0:0:0:0:
440,208,144736,2,0,L|396:168,1,57.5,2|0,2:0|2:0,0:0:0:0:
220,112,145062,2,0,L|177:73,1,57.5,0|0,0:0|2:0,0:0:0:0:
288,268,145388,2,0,L|320:216,1,57.5,0|0,0:0|2:0,0:0:0:0:
104,128,145714,2,0,L|111:187,1,57.5,8|0,0:0|0:0,0:0:0:0:
288,268,146040,2,0,L|232:248,1,57.5,2|0,2:0|0:0,0:0:0:0:
276,140,146366,5,0,0:0:0:0:
300,137,146448,1,0,2:0:0:0:
322,142,146530,1,0,2:0:0:0:
344,150,146611,1,2,2:0:0:0:
363,161,146693,1,0,0:0:0:0:
378,180,146774,1,2,2:0:0:0:
386,201,146856,1,0,2:0:0:0:
391,223,146937,1,2,2:0:0:0:
386,269,147019,5,8,0:0:0:0:
385,292,147101,1,0,2:0:0:0:
390,314,147182,1,0,2:0:0:0:
399,335,147264,1,2,2:0:0:0:
413,354,147345,1,0,2:0:0:0:
433,365,147427,1,2,2:0:0:0:
454,374,147508,1,0,2:0:0:0:
477,378,147590,1,2,2:0:0:0:
512,348,147671,6,0,P|511:310|500:288,1,57.5,0|0,0:0|2:0,0:0:0:0:
468,168,147997,2,0,P|468:205|480:228,1,57.5,0|2,0:0|2:0,0:0:0:0:
493,98,148323,2,0,P|474:65|452:52,1,57.5,8|2,0:0|2:0,0:0:0:0:
352,20,148649,2,0,P|370:52|392:65,1,57.5,0|2,2:0|2:0,0:0:0:0:
280,16,148975,6,0,L|248:24,1,28.75,0|0,0:0|2:0,0:0:0:0:
208,78,149138,2,0,L|175:77,1,28.75,0|2,2:0|2:0,0:0:0:0:
120,116,149301,2,0,L|88:106,1,28.75,0|2,0:0|2:0,0:0:0:0:
28,137,149464,2,0,L|0:120,1,28.75,0|2,2:0|2:0,0:0:0:0:
60,32,149627,5,8,0:0:0:0:
120,116,149790,1,0,2:0:0:0:
144,216,149953,1,2,2:0:0:0:
90,304,150116,1,0,2:0:0:0:
220,148,150279,6,2,B|244:133|244:133|266:135|287:121|287:121|309:128|326:118|326:118|337:124|353:104|353:104|371:94|378:76|378:76|405:52|416:64|416:64|434:53|448:72|448:72|465:76|468:96|468:96|476:120|464:144|464:144|448:136|448:136|432:148|432:148|424:136|416:148|416:148|412:160,1,413.999987365723,2|8,0:0|0:0,0:0:0:0:
414,164,151095,1,0,0:0:0:0:
414,174,151258,1,0,0:0:0:0:
414,184,151421,1,0,0:0:0:0:
414,194,151584,5,2,2:0:0:0:
256,192,157453,12,0,159410,2:0:0:0:
112,40,163160,6,0,P|52:92|60:144,1,137.999995788574,4|0,0:0|0:0,0:0:0:0:
132,244,163649,1,0,2:0:0:0:
232,168,163812,2,0,L|304:168,1,68.9999978942872,8|0,0:0|2:0,0:0:0:0:
384,232,164138,1,2,2:0:0:0:
276,80,164301,1,0,2:0:0:0:
132,244,164464,6,0,P|115:308|137:374,1,137.999995788574
236,296,164953,1,0,2:0:0:0:
360,312,165116,2,0,P|403:329|452:304,1,103.499996841431,8|0,0:0|2:0,0:0:0:0:
470,275,165442,2,0,L|462:207,1,68.9999978942872,2|0,2:0|2:0,0:0:0:0:
356,28,165769,6,0,P|411:71|476:60,1,137.999995788574,4|0,0:0|0:0,0:0:0:0:
356,28,166258,1,0,2:0:0:0:
276,124,166421,2,0,P|272:184|240:212,1,103.499996841431,8|0,0:0|2:0,0:0:0:0:
214,232,166747,2,0,L|144:236,1,68.9999978942872,2|0,2:0|2:0,0:0:0:0:
276,124,167073,5,0,0:0:0:0:
20,352,167399,1,0,0:0:0:0:
368,296,167725,1,8,0:0:0:0:
60,148,168051,2,0,L|60:40,1,103.499996841431,2|0,2:0|2:0,0:0:0:0:
60,10,168377,5,4,0:0:0:0:
164,80,168540,1,0,2:0:0:0:
60,148,168703,1,0,0:0:0:0:
164,80,168866,1,0,2:0:0:0:
280,124,169029,2,0,P|328:123|369:157,1,103.499996841431,8|0,0:0|2:0,0:0:0:0:
375,192,169355,2,0,L|311:224,1,68.9999978942872,2|0,2:0|2:0,0:0:0:0:
192,200,169682,5,0,0:0:0:0:
164,80,169845,1,0,2:0:0:0:
60,148,170008,2,0,P|51:187|52:219,1,68.9999978942872,0|0,0:0|2:0,0:0:0:0:
78,335,170334,2,0,P|127:337|162:295,1,103.499996841431,8|0,0:0|2:0,0:0:0:0:
168,264,170660,2,0,L|192:200,1,68.9999978942872,2|0,2:0|2:0,0:0:0:0:
4,289,170986,5,4,0:0:0:0:
168,264,171312,1,0,0:0:0:0:
296,372,171638,1,8,0:0:0:0:
404,312,171801,1,0,2:0:0:0:
296,372,171964,2,0,P|256:357|232:344,1,68.9999978942872,2|0,2:0|2:0,0:0:0:0:
301,240,172290,5,0,0:0:0:0:
404,312,172453,1,0,0:0:0:0:
404,312,172535,1,0,0:0:0:0:
404,312,172616,1,0,0:0:0:0:
488,220,172779,1,0,0:0:0:0:
460,84,172942,5,8,0:0:0:0:
236,44,173105,1,0,0:0:0:0:
340,112,173269,1,0,0:0:0:0:
124,96,173432,1,8,0:3:0:0:
272,172,173595,6,0,P|335:203|400:176,1,137.999995788574,4|0,0:0|0:0,0:0:0:0:
236,44,174084,1,0,2:0:0:0:
124,96,174247,2,0,L|88:160,1,68.9999978942872,8|0,0:0|2:0,0:0:0:0:
100,346,174573,2,0,P|68:298|84:254,1,103.499996841431,2|0,2:0|2:0,0:0:0:0:
108,236,174899,6,0,L|180:204,1,68.9999978942872,0|0,0:0|2:0,0:0:0:0:
36,80,175225,1,0,0:0:0:0:
7,244,175388,1,0,2:0:0:0:
200,300,175551,2,0,P|256:256|268:188,1,137.999995788574,8|2,0:0|2:0,0:0:0:0:
348,96,176040,1,0,2:0:0:0:
224,104,176203,6,0,P|180:88|156:72,1,68.9999978942872,4|0,0:0|2:0,0:0:0:0:
263,10,176529,1,0,0:0:0:0:
348,96,176692,1,0,2:0:0:0:
344,220,176855,2,0,L|384:276,1,68.9999978942872,8|0,0:0|2:0,0:0:0:0:
457,345,177182,1,2,2:0:0:0:
444,208,177345,1,0,2:0:0:0:
332,332,177508,6,0,P|296:349|268:352,1,68.9999978942872,0|0,0:0|2:0,0:0:0:0:
296,139,177834,2,0,P|325:122|348:96,1,68.9999978942872,0|0,0:0|2:0,0:0:0:0:
164,120,178160,2,0,P|148:184|164:224,1,103.499996841431,8|0,0:0|2:0,0:0:0:0:
186,240,178486,2,0,L|254:252,1,68.9999978942872,2|0,2:0|2:0,0:0:0:0:
72,352,178812,6,0,P|36:332|20:308,1,68.9999978942872,4|0,0:0|2:0,0:0:0:0:
48,172,179138,2,0,P|72:145|80:112,1,68.9999978942872,0|0,0:0|2:0,0:0:0:0:
276,28,179464,1,8,0:0:0:0:
276,28,179790,2,0,P|304:48|340:56,1,68.9999978942872,2|0,2:0|2:0,0:0:0:0:
172,84,180116,5,0,0:0:0:0:
200,204,180279,1,0,2:0:0:0:
292,288,180442,2,0,P|340:250|348:209,1,103.499996841431,0|0,0:0|2:0,0:0:0:0:
343,175,180769,2,0,L|287:135,1,68.9999978942872,8|0,0:0|2:0,0:0:0:0:
172,84,181095,1,2,2:0:0:0:
200,204,181258,1,0,2:0:0:0:
388,92,181421,6,0,P|434:145|428:208,2,137.999995788574,4|0|8,0:0|0:0|0:0,0:0:0:0:
264,96,182236,1,0,2:0:0:0:
200,204,182399,2,0,B|211:244|200:272,1,68.9999978942872,2|0,2:0|0:0,0:0:0:0:
288,356,182725,1,0,0:0:0:0:
116,256,182888,1,0,2:0:0:0:
278,162,183051,2,0,B|264:140|264:96,1,68.9999978942872,0|0,0:0|2:0,0:0:0:0:
156,12,183377,5,8,0:0:0:0:
60,112,183540,1,0,0:0:0:0:
160,208,183703,1,2,2:0:0:0:
84,324,183866,1,0,0:0:0:0:
288,356,184029,6,0,P|351:336|384:276,1,137.999995788574,4|0,0:0|0:0,0:0:0:0:
348,140,184519,1,0,2:0:0:0:
440,36,184682,2,0,P|482:42|512:40,1,68.9999978942872,8|0,0:0|2:0,0:0:0:0:
472,160,185008,1,2,2:0:0:0:
348,140,185171,1,0,2:0:0:0:
240,80,185334,6,0,P|168:91|104:72,1,137.999995788574,0|0,0:0|0:0,0:0:0:0:
0,10,185823,1,0,2:0:0:0:
48,124,185986,2,0,P|68:172|48:220,1,103.499996841431,8|0,0:0|2:0,0:0:0:0:
38,251,186312,2,0,L|90:295,1,68.9999978942872,2|0,2:0|2:0,0:0:0:0:
244,360,186638,6,0,P|279:293|252:244,1,137.999995788574,4|0,0:0|0:0,0:0:0:0:
160,328,187127,1,0,2:0:0:0:
303,296,187290,2,0,B|346:326|402:313,1,103.499996841431,8|0,0:0|2:0,0:0:0:0:
432,296,187616,2,0,L|488:248,1,68.9999978942872,2|0,2:0|2:0,0:0:0:0:
320,160,187942,5,0,0:0:0:0:
48,372,188269,1,0,0:0:0:0:
152,160,188595,1,8,0:0:0:0:
432,364,188921,2,0,L|432:260,1,103.499996841431,2|0,2:0|2:0,0:0:0:0:
432,225,189247,5,4,0:0:0:0:
488,116,189410,1,0,2:0:0:0:
432,6,189573,1,0,0:0:0:0:
376,116,189736,1,0,2:0:0:0:
296,212,189899,2,0,P|277:265|236:291,1,103.499996841431,8|0,0:0|2:0,0:0:0:0:
212,316,190225,2,0,L|144:332,1,68.9999978942872,2|0,2:0|2:0,0:0:0:0:
188,216,190551,5,0,0:0:0:0:
332,336,190714,1,0,2:0:0:0:
415,167,190877,2,0,P|403:136|375:115,1,68.9999978942872,0|0,0:0|2:0,0:0:0:0:
272,44,191203,2,0,B|224:84|176:76,1,103.499996841431,8|0,0:0|2:0,0:0:0:0:
148,96,191529,2,0,L|212:132,1,68.9999978942872,2|0,2:0|2:0,0:0:0:0:
92,12,191855,5,4,0:0:0:0:
208,129,192182,1,0,0:0:0:0:
128,276,192508,1,8,0:0:0:0:
28,204,192671,1,0,2:0:0:0:
32,80,192834,2,0,L|88:132,1,68.9999978942872,2|0,2:0|0:0,0:0:0:0:
124,244,193160,5,0,0:0:0:0:
32,328,193323,1,0,0:0:0:0:
32,328,193404,1,0,0:0:0:0:
32,328,193486,1,0,0:0:0:0:
28,204,193649,1,0,0:0:0:0:
144,304,193812,5,8,0:3:0:0:
284,368,193975,1,0,0:0:0:0:
429,320,194138,1,8,0:0:0:0:
510,192,194301,1,8,0:3:0:0:
484,44,194464,6,0,P|424:8|364:28,1,137.999995788574,4|0,0:0|0:0,0:0:0:0:
256,204,195116,2,0,P|336:208|288:136,1,206.999993682861,8|2,0:0|2:0,0:0:0:0:
140,212,195769,2,0,P|96:278|116:328,1,137.999995788574
16,144,196421,2,0,P|4:68|81:112,1,206.999993682861,8|2,0:0|2:0,0:0:0:0:
204,76,197073,6,0,P|269:93|328:56,1,137.999995788574
248,248,197725,2,0,P|292:316|318:233,1,206.999993682861,8|2,0:0|2:0,0:0:0:0:
156,256,198377,2,0,P|166:322|214:374,1,137.999995788574
456,320,199029,1,8,0:0:0:0:
509,77,199355,1,4,2:0:0:0:
268,16,199682,6,0,P|230:75|251:134,1,137.999995788574,4|0,0:0|0:0,0:0:0:0:
432,232,200334,2,0,P|512:208|442:160,1,206.999993682861,8|2,0:0|2:0,0:0:0:0:
316,264,200986,2,0,P|256:313|200:304,1,137.999995788574
24,200,201638,2,0,P|40:120|96:184,1,206.999993682861,8|2,0:0|2:0,0:0:0:0:
26,335,202290,6,0,P|79:372|142:347,1,137.999995788574
232,160,202942,1,8,0:0:0:0:
196,88,203105,2,0,L|80:12,1,137.999995788574
92,120,203595,5,4,0:0:0:0:
196,88,203758,1,0,0:0:0:0:
196,88,203839,1,0,0:0:0:0:
196,88,203921,1,0,0:0:0:0:
118,20,204084,1,0,0:0:0:0:
163,151,204247,5,8,0:0:0:0:
320,80,204410,1,8,0:3:0:0:
212,19,204573,1,0,0:0:0:0:
272,217,204736,1,0,0:0:0:0:
