osu file format v12

[General]
AudioFilename: Avril Lavigne - Hello Kitty.mp3
AudioLeadIn: 0
PreviewTime: 38123
Countdown: 0
SampleSet: Soft
StackLeniency: 0.4
Mode: 0
LetterboxInBreaks: 0
WidescreenStoryboard: 0

[Editor]
Bookmarks: 135662
DistanceSpacing: 0.9
BeatDivisor: 4
GridSize: 4
TimelineZoom: 1

[Metadata]
Title:Hello Kitty
TitleUnicode:Hello Kitty
Artist:Avril Lavigne
ArtistUnicode:Avril Lavigne
Creator:Priti
Version:Easy
Source:
Tags:Pop Techno Dubstep Kuron-Kun Collab Collaboration
BeatmapID:414351
BeatmapSetID:171275

[Difficulty]
HPDrainRate:2
CircleSize:3
OverallDifficulty:3
ApproachRate:3
SliderMultiplier:1.1
SliderTickRate:1

[Events]
//Background and Video events
Video,-653,"video.avi"
0,0,"MEOW.jpg",0,0
//Break Periods
2,120623,133748
//Storyboard Layer 0 (Background)
//Storyboard Layer 1 (Fail)
//Storyboard Layer 2 (Pass)
//Storyboard Layer 3 (Foreground)
//Storyboard Sound Samples
//Background Colour Transformations
3,100,163,162,255

[TimingPoints]
4373.74038461538,468.75,4,2,0,45,1,0
54998,-100,4,2,0,50,0,1
69998,-100,4,2,0,45,0,0
105623,-100,4,2,0,50,0,1
120623,-100,4,2,0,45,0,0
150623,-100,4,2,0,50,0,1
165623,-100,4,2,0,55,0,0

[Colours]
Combo1 : 250,234,169
Combo2 : 108,141,230
Combo3 : 228,227,224
Combo4 : 251,89,146

[HitObjects]
280,304,4373,5,0,3:0:0:0:
340,115,5311,1,0,3:0:0:0:
147,156,6248,1,0,3:0:0:0:
147,156,8123,6,0,P|160:84|152:44,2,110,4|8|0,1:0|0:0|0:0,0:0:0:0:
116,252,9529,1,8,0:0:0:0:
140,348,9998,2,0,B|196:354|247:330|247:330|295:354|360:340,1,220
442,295,11404,1,8,0:0:0:0:
455,197,11873,6,0,P|462:143|441:91,1,110,0|8,0:0|0:0,0:0:0:0:
353,48,12811,2,0,P|345:101|366:153,1,110,0|8,0:0|0:0,0:0:0:0:
373,251,13748,2,0,B|336:270|304:273|266:250|228:228|195:231|151:251,1,220
106,330,15154,1,8,0:0:0:0:
204,340,15623,6,0,P|260:251|192:148,1,220
140,88,17029,1,8,0:0:0:0:
236,64,17498,2,0,B|292:60|292:60|344:84,1,110,0|8,0:0|0:0,0:0:0:0:
312,176,18436,2,0,B|256:180|256:180|204:156,1,110,0|8,0:0|0:0,0:0:0:0:
140,88,19373,6,0,P|113:173|201:251,1,220
288,304,20779,2,0,L|351:297,1,55,8|0,0:0|0:0,0:0:0:0:
424,240,21483,2,0,P|432:200|424:168,2,55,0|8|0,0:0|0:0|0:0,0:0:0:0:
368,324,22420,2,0,L|313:329,1,55,0|8,0:0|0:0,0:0:0:0:
216,348,23123,6,0,B|160:315|108:324|108:324|86:270|20:248,1,220
20,156,24529,1,8,0:0:0:0:
64,68,24998,2,0,P|116:44|180:47,1,110,0|8,0:0|0:0,0:0:0:0:
238,114,25936,2,0,P|290:138|354:135,1,110,0|8,0:0|0:0,0:0:0:0:
411,68,26873,6,0,P|438:143|351:238,1,220
260,208,28279,1,8,0:0:0:0:
273,306,28748,2,0,B|162:318|162:318|70:257,1,220
32,167,30154,1,10,0:0:0:0:
116,116,30623,6,0,P|188:104|228:120,1,110,0|8,0:0|0:0,0:0:0:0:
169,199,31561,2,0,L|181:315,1,110,0|8,0:0|0:0,0:0:0:0:
262,363,32498,2,0,P|297:362|331:351,2,55,0|0|8,0:0|0:0|0:0,0:0:0:0:
270,264,33436,2,0,L|258:154,1,110,0|8,0:0|0:0,0:0:0:0:
190,84,34373,6,0,P|265:56|355:150,1,220
392,236,35779,2,0,P|396:284|404:308,1,55,8|0,0:0|0:0,0:0:0:0:
333,365,36483,2,0,L|209:373,1,110
164,293,37420,2,0,L|102:289,1,55,0|10,0:0|0:0,0:0:0:0:
39,219,38123,6,0,P|26:156|39:107,1,110,4|0,0:0|1:0,0:0:0:0:
121,163,39061,2,0,P|165:171|193:167,2,55,0|0|0,0:0|0:0|1:0,0:0:0:0:
39,219,39998,2,0,B|45:282|45:282|76:320,1,110,0|0,0:0|1:0,0:0:0:0:
164,360,40936,1,2,0:0:0:0:
262,337,41404,1,0,1:0:0:0:
343,280,41873,6,0,P|354:226|337:174,1,110,0|0,0:0|1:0,0:0:0:0:
256,232,42811,2,0,P|248:304|264:340,1,110,0|0,0:0|1:0,0:0:0:0:
351,378,43748,2,0,P|408:356|412:214,1,220
232,136,45623,6,0,B|158:162|120:135|87:109|16:134,1,220
66,220,47029,1,0,1:0:0:0:
156,180,47498,2,0,P|148:114|276:62,1,220
347,119,48904,1,0,1:0:0:0:
256,192,49373,12,0,53123,0:0:0:0:
384,140,54998,6,0,P|392:194|383:247,1,110,4|0,0:1|0:0,0:0:0:0:
348,340,55936,1,0,1:0:0:0:
259,162,56873,2,0,P|273:81|385:10,1,220,0|0,0:0|1:0,0:0:0:0:
480,25,58279,1,0,0:0:0:0:
492,124,58748,6,0,B|468:168|472:207|496:259|496:259|498:296|460:352,1,220,0|0,0:0|1:0,0:0:0:0:
276,300,60623,2,0,P|200:304|168:284,1,110
232,208,61561,2,0,P|308:204|340:224,1,110,0|8,1:0|0:0,0:0:0:0:
376,312,62498,6,0,P|428:260|380:127,1,220,0|0,0:0|1:0,0:0:0:0:
300,96,63904,1,0,0:0:0:0:
212,140,64373,2,0,B|104:151|104:151|-4:106,1,220,0|0,0:0|1:0,0:0:0:0:
120,268,66248,6,0,L|231:256,1,110
323,223,67186,1,0,1:0:0:0:
307,320,67654,1,4,0:3:0:0:
256,192,68123,12,4,69998,1:0:0:0:
195,147,70936,6,0,P|141:143|91:173,1,110,0|8,0:0|0:0,0:0:0:0:
160,236,71873,2,0,P|246:230|274:96,1,220
212,48,73279,1,8,0:0:0:0:
308,20,73748,6,0,P|351:43|379:107,1,110,0|8,0:0|0:0,0:0:0:0:
416,188,74686,1,0,0:0:0:0:
376,276,75154,2,0,L|382:333,1,55,8|0,0:0|0:0,2:0:0:0:
288,296,75858,2,0,L|282:241,1,55,0|8,0:0|0:0,2:0:0:0:
256,148,76561,2,0,P|256:120|263:94,2,55,0|0|8,0:0|0:0|0:0,0:0:0:0:
184,216,77498,5,0,0:0:0:0:
282,241,77967,1,8,0:0:0:0:
368,193,78436,2,0,P|428:202|487:178,1,110,0|8,0:0|0:0,0:0:0:0:
416,104,79373,2,0,L|438:328,1,220
348,364,80779,1,8,0:0:0:0:
252,340,81248,6,0,P|188:320|132:332,1,110,0|8,0:0|0:0,0:0:0:0:
48,348,82186,1,0,0:0:0:0:
76,252,82654,2,0,L|70:195,1,55,8|0,0:0|0:0,2:0:0:0:
124,112,83358,2,0,P|168:104|236:112,1,110
300,184,84295,2,0,P|322:188|355:184,1,55,0|10,0:0|0:0,0:0:0:0:
448,152,84998,6,0,P|450:209|316:273,1,220,4|0,0:0|0:0,0:0:0:0:
228,252,86404,1,0,1:0:0:0:
142,302,86873,2,0,B|123:265|120:233|143:195|165:157|162:124|145:88,1,220
59,136,88279,1,0,1:0:0:0:
16,225,88748,5,0,0:0:0:0:
35,322,89217,2,0,B|77:329|98:356|98:356|141:326|208:322|259:346,1,220,0|0,1:0|1:0,0:0:0:0:
336,360,90623,2,0,P|356:308|348:248,1,110,0|0,0:0|1:0,0:0:0:0:
320,160,91561,1,0,0:0:0:0:
136,84,92498,6,0,P|84:80|24:108,1,110,0|0,0:0|1:0,0:0:0:0:
96,176,93436,2,0,P|148:180|208:152,1,110,0|0,0:0|1:0,0:0:0:0:
233,64,94373,2,0,B|307:38|345:65|378:91|449:66,1,220,0|0,0:0|0:0,0:0:0:0:
286,174,96248,6,0,P|216:184|165:166,1,110,0|0,0:0|1:0,0:0:0:0:
80,156,97186,1,0,0:0:0:0:
24,236,97654,1,0,1:0:0:0:
76,320,98123,6,0,L|187:331,1,110,0|0,0:0|1:0,0:0:0:0:
239,247,99061,2,0,L|348:235,1,110,0|0,0:0|1:0,0:0:0:0:
385,327,99998,2,0,P|449:239|297:148,1,330,0|0,0:0|1:0,0:0:0:0:
256,192,101873,12,0,103748,0:0:0:0:
296,200,105623,6,0,P|332:176|467:273,1,220,4|0,0:1|1:0,0:0:0:0:
368,270,107029,1,0,0:0:0:0:
272,296,107498,2,0,B|112:279|112:279|65:234,1,220,0|0,0:0|1:0,0:0:0:0:
44,40,109373,6,0,P|99:34|159:52,1,110,0|0,0:0|0:0,0:0:0:0:
221,118,110311,2,0,P|276:124|336:105,1,110,0|0,1:0|0:0,0:0:0:0:
392,32,111248,2,0,P|376:104|432:240,1,220,0|0,0:0|1:0,0:0:0:0:
492,312,112654,1,8,0:0:0:0:
395,333,113123,6,0,B|357:337|332:332|307:317|307:317|277:338|244:345|212:342|180:324,1,220,0|0,0:0|1:0,0:0:0:0:
96,280,114529,1,0,0:0:0:0:
111,182,114998,2,0,P|107:110|127:70,1,110,0|0,0:0|0:0,0:0:0:0:
199,139,115936,2,0,P|203:211|183:251,1,110,0|0,1:0|0:0,0:0:0:0:
96,280,116873,6,0,P|149:333|276:288,1,220,0|0,0:0|1:0,0:0:0:0:
320,204,118279,1,4,0:3:0:0:
256,192,118748,12,0,120154,1:0:0:0:
384,248,135623,6,0,P|392:188|360:132,1,110,4|0,0:0|0:0,0:0:0:0:
296,80,136561,2,0,L|164:66,1,110,0|8,0:0|0:0,0:0:0:0:
97,110,137498,1,0,0:0:0:0:
56,200,137967,1,0,0:0:0:0:
100,292,138436,2,0,P|156:304|216:288,1,110,0|8,0:0|0:0,0:0:0:0:
302,301,139373,6,0,P|258:207|154:208,1,220,0|0,0:0|0:0,0:0:0:0:
56,200,140779,1,8,0:0:0:0:
108,116,141248,2,0,B|215:104|215:104|330:56,1,220
412,24,142654,1,10,0:0:0:0:
408,124,143123,6,0,P|424:180|420:240,1,110
364,312,144061,2,0,L|252:300,1,110,0|8,0:0|0:0,2:0:0:0:
156,301,144998,2,0,P|212:213|316:224,1,220
364,312,146404,1,8,0:0:0:0:
256,192,146873,12,0,149569,0:0:0:0:
64,220,150623,6,0,P|100:196|176:200,1,110,4|0,0:1|0:0,0:0:0:0:
235,265,151561,2,0,P|271:289|347:285,1,110,0|0,1:0|0:0,0:0:0:0:
424,240,152498,1,0,0:0:0:0:
452,144,152967,1,0,0:0:0:0:
432,48,153436,1,2,1:3:0:0:
240,104,154373,6,0,B|166:130|128:103|95:77|24:102,1,220,0|0,0:0|1:0,0:0:0:0:
78,184,155779,1,0,0:0:0:0:
158,242,156248,2,0,P|234:242|278:226,1,110,0|4,0:0|0:3,0:0:0:0:
356,188,157186,2,0,P|393:195|413:207,2,55,0|0|8,1:0|0:0|0:0,0:0:0:0:
272,132,158123,6,0,B|216:126|216:126|158:99,1,110
240,36,159061,2,0,B|295:41|295:41|353:68,1,110,0|0,1:0|0:0,0:0:0:0:
367,161,159998,2,0,B|352:200|368:236|368:236|320:252|292:300|313:350,1,220,0|0,0:0|1:0,0:0:0:0:
445,199,161873,6,0,P|449:127|413:83,1,110
344,48,162811,2,0,L|220:60,1,110,0|4,1:0|0:3,0:0:0:0:
256,192,163748,12,4,165623,1:0:0:0:
136,192,166561,6,0,P|128:252|144:312,1,110,0|0,1:0|0:0,0:0:0:0:
220,356,167498,2,0,L|329:344,1,110,0|0,0:0|0:0,0:0:0:0:
422,302,168435,2,0,P|429:328|428:356,2,55,2|2|2,1:0|0:1|0:1,0:0:0:0:
404,204,169373,5,8,3:0:0:0:
244,84,170311,2,0,P|189:70|136:86,1,110,0|0,1:0|0:0,0:0:0:0:
192,168,171248,2,0,P|270:181|340:64,1,220,0|0,0:0|1:0,0:0:0:0:
424,20,172654,1,10,3:0:0:0:
496,88,173123,6,0,P|500:132|480:204,1,110,2|0,3:0|0:0,0:0:0:0:
436,284,174061,2,0,L|326:272,1,110,0|2,1:0|3:0,0:0:0:0:
232,296,174998,2,0,P|144:308|128:196,1,220,0|0,0:0|1:0,0:0:0:0:
256,52,176873,6,0,L|366:64,2,110,2|0|0,3:0|0:0|1:0,3:0:0:0:
157,40,178279,1,0,0:0:0:0:
256,192,178748,12,4,180623,0:1:0:0:
