osu file format v12

[General]
AudioFilename: Avril Lavigne - Hello Kitty.mp3
AudioLeadIn: 0
PreviewTime: 38123
Countdown: 0
SampleSet: Soft
StackLeniency: 0.4
Mode: 0
LetterboxInBreaks: 0
WidescreenStoryboard: 0

[Editor]
Bookmarks: 23162,38162,55037,70037,85037,105662,120662,135662,165662,180662
DistanceSpacing: 1.3
BeatDivisor: 4
GridSize: 4
TimelineZoom: 1

[Metadata]
Title:Hello Kitty
TitleUnicode:Hello Kitty
Artist:Avril Lavigne
ArtistUnicode:Avril Lavigne
Creator:Priti
Version:BREK
Source:
Tags:Pop Techno Dubstep Kuron-Kun Collab Collaboration
BeatmapID:414352
BeatmapSetID:171275

[Difficulty]
HPDrainRate:6
CircleSize:4
OverallDifficulty:6
ApproachRate:7
SliderMultiplier:1.5
SliderTickRate:1

[Events]
//Background and Video events
Video,-653,"video.avi"
0,0,"MEOW.jpg",0,0
//Break Periods
2,120823,133748
//Storyboard Layer 0 (Background)
//Storyboard Layer 1 (Fail)
//Storyboard Layer 2 (Pass)
//Storyboard Layer 3 (Foreground)
//Storyboard Sound Samples
//Background Colour Transformations
3,100,163,162,255

[TimingPoints]
4373.74038461538,468.75,4,2,0,45,1,0
54998,-100,4,2,0,50,0,1
69998,-100,4,2,0,45,0,0
105623,-100,4,2,0,50,0,1
120623,-100,4,2,0,45,0,0
150623,-100,4,2,0,50,0,1
165623,-100,4,2,0,55,0,0

[Colours]
Combo1 : 250,234,169
Combo2 : 108,141,230
Combo3 : 228,227,224
Combo4 : 252,88,146

[HitObjects]
288,64,4373,5,0,3:0:0:0:
284,80,4842,1,0,3:0:0:0:
280,96,5311,1,0,3:0:0:0:
276,112,5779,1,0,3:0:0:0:
272,128,6248,1,0,3:0:0:0:
272,128,7654,6,0,P|331:121|384:132,1,112.5,2|0,0:3|0:0,0:0:0:0:
390,139,8123,6,0,L|396:232,1,75,4|0,1:0|0:0,0:0:0:0:
352,300,8592,2,0,P|324:328|204:308,1,150,8|0,0:0|0:0,0:0:0:0:
152,240,9295,1,8,0:0:0:0:
156,244,9412,1,0,0:0:0:0:
160,248,9529,2,0,P|156:192|160:164,1,75,8|0,0:0|0:0,0:0:0:0:
252,208,9998,6,0,P|256:264|252:292,1,75,0|0,0:0|0:0,0:0:0:0:
172,336,10467,2,0,L|328:328,1,150,8|0,0:0|0:0,0:0:0:0:
417,307,11170,1,8,0:0:0:0:
440,212,11404,2,0,P|436:144|444:120,1,75,8|0,0:0|0:0,0:0:0:0:
476,48,11873,6,0,P|404:16|312:40,1,150,0|8,0:0|0:0,0:0:0:0:
248,68,12576,1,0,0:0:0:0:
168,124,12811,2,0,L|93:116,1,75,0|8,0:0|0:0,0:0:0:0:
204,216,13279,2,0,L|288:208,1,75,8|0,0:0|0:0,0:0:0:0:
84,204,13983,6,0,P|48:193|23:166,1,75,0|8,0:0|0:0,0:0:0:0:
140,284,14451,2,0,P|148:330|133:361,1,75
181,195,14920,2,0,P|216:164|251:161,1,75,8|8,0:0|0:0,0:0:0:0:
340,180,15389,1,0,0:0:0:0:
432,216,15623,6,0,B|446:183|448:162|415:120|417:99|430:70,1,150,0|8,1:0|0:0,0:0:0:0:
508,248,16561,2,0,P|474:288|440:300,1,75,0|8,0:0|0:0,0:0:0:0:
368,340,17030,2,0,L|293:332,1,75,8|0,0:0|0:0,0:0:0:0:
204,292,17498,6,0,P|140:273|59:327,1,150,0|8,0:0|0:0,0:0:0:0:
146,371,18201,1,0,0:0:0:0:
132,233,18436,2,0,P|136:189|124:157,1,75,0|8,0:0|0:0,0:0:0:0:
64,84,18904,1,8,0:0:0:0:
68,80,19373,6,0,L|144:84,1,75
212,153,19842,2,0,L|288:149,1,75,8|0,0:0|0:0,0:0:0:0:
356,79,20311,2,0,P|385:139|344:224,1,150,0|8,0:0|0:0,0:0:0:0:
284,280,21014,1,0,0:0:0:0:
280,284,21483,5,0,0:0:0:0:
188,312,21717,2,0,P|151:311|116:296,1,75,12|0,0:0|0:0,0:0:0:0:
56,220,22186,1,0,0:0:0:0:
60,224,22420,2,0,L|56:148,1,75,8|8,0:0|0:0,0:0:0:0:
244,104,23123,6,0,L|251:253,1,150,4|8,1:0|0:0,0:0:0:0:
260,352,23826,1,0,0:0:0:0:
344,304,24061,2,0,P|380:320|436:308,1,75,0|8,0:0|0:0,0:0:0:0:
460,228,24529,2,0,P|424:176|464:100,1,150,8|0,0:0|0:0,0:0:0:0:
268,60,25467,6,0,L|128:52,1,112.5,8|0,0:0|0:0,0:0:0:0:
120,48,25936,2,0,P|108:88|120:128,1,75,0|8,0:0|0:0,0:0:0:0:
196,224,26404,2,0,P|208:184|196:144,1,75,8|0,0:0|0:0,0:0:0:0:
108,220,26873,6,0,P|120:272|224:308,1,150,0|8,1:0|0:0,0:0:0:0:
304,276,27576,1,0,0:0:0:0:
312,268,28045,1,8,0:0:0:0:
392,308,28279,2,0,L|400:152,1,150,8|0,0:0|0:0,0:0:0:0:
400,60,28983,5,0,0:0:0:0:
316,108,29217,2,0,P|280:116|240:108,1,75,8|0,0:0|0:0,0:0:0:0:
120,32,29686,2,0,P|156:24|196:32,1,75,0|8,0:0|0:0,0:0:0:0:
156,136,30154,2,0,P|140:192|172:248,1,112.5,12|0,0:0|0:0,0:0:0:0:
196,256,30623,6,0,L|352:264,1,150,0|8,1:0|0:0,0:0:0:0:
444,272,31326,1,0,0:0:0:0:
500,192,31561,1,0,0:0:0:0:
420,136,31795,1,8,0:0:0:0:
360,212,32029,2,0,P|328:156|344:92,1,112.5,8|0,0:0|0:0,0:0:0:0:
396,60,32498,6,0,P|348:80|256:40,1,150,0|8,0:0|0:0,0:0:0:0:
80,112,33436,2,0,L|96:204,1,75,0|8,0:0|0:0,0:0:0:0:
188,280,33904,2,0,L|172:188,1,75
108,296,34373,6,0,P|136:344|248:336,1,150,0|8,1:0|0:0,0:0:0:0:
304,312,35076,1,0,0:0:0:0:
388,276,35311,2,0,L|468:280,1,75,0|8,0:0|0:0,0:0:0:0:
304,312,35779,2,0,L|276:164,1,150,8|4,0:0|0:3,0:0:0:0:
256,68,36483,5,0,0:0:0:0:
180,128,36717,2,0,L|100:132,1,75,0|8,1:0|0:0,0:0:0:0:
36,196,37186,2,0,P|24:236|44:288,1,75,0|0,1:0|0:0,0:0:0:0:
104,332,37654,1,0,1:0:0:0:
200,316,37889,1,8,0:0:0:0:
284,360,38123,6,0,P|352:344|388:264,1,150,4|0,1:0|1:0,0:0:0:0:
348,188,38826,1,0,0:0:0:0:
351,191,39061,2,0,P|343:155|348:118,1,75,0|0,0:0|0:0,0:0:0:0:
436,76,39529,2,0,P|444:128|436:160,1,75,0|0,1:0|0:0,0:0:0:0:
433,246,39998,6,0,P|387:283|284:266,1,150,0|0,0:0|1:0,0:0:0:0:
112,328,40936,2,0,L|103:248,1,75,0|0,0:0|0:0,0:0:0:0:
172,184,41404,2,0,L|163:104,1,75,4|0,1:0|0:0,0:0:0:0:
233,40,41873,6,0,P|305:29|365:71,1,150,0|0,0:0|1:0,0:0:0:0:
428,252,42811,1,0,0:0:0:0:
332,272,43045,1,0,0:0:0:0:
363,179,43279,1,0,1:0:0:0:
428,252,43514,1,0,0:0:0:0:
363,179,43748,6,0,P|364:132|376:96,1,75
418,20,44217,2,0,P|462:79|456:152,1,150,0|0,1:0|0:0,0:0:0:0:
256,208,45154,1,0,1:0:0:0:
55,151,45623,6,0,P|49:78|92:20,1,150,0|0,1:0|1:0,0:0:0:0:
141,105,46326,1,0,0:0:0:0:
139,202,46561,2,0,P|144:252|132:292,1,75,0|0,1:0|0:0,0:0:0:0:
53,224,47029,2,0,P|47:187|55:151,1,75,0|0,1:0|0:0,0:0:0:0:
141,105,47498,6,0,B|187:86|214:103|247:123|293:105,1,150,0|0,1:0|1:0,0:0:0:0:
379,71,48201,1,0,0:0:0:0:
472,100,48436,2,0,P|480:148|476:188,1,75,0|0,1:0|0:0,0:0:0:0:
409,242,48904,2,0,P|401:290|405:330,1,75,4|0,1:0|0:0,0:0:0:0:
256,192,49373,12,0,53123,0:0:0:0:
188,44,54998,6,0,P|116:64|152:196,1,225,4|4,1:1|0:3,0:0:0:0:
228,220,55936,2,0,L|320:236,1,75,0|0,1:0|0:0,0:0:0:0:
420,292,56404,1,4,0:3:0:0:
316,340,56639,1,0,0:0:0:0:
316,340,56756,1,0,0:0:0:0:
316,340,56873,2,0,P|280:352|228:332,1,75,0|0,0:0|0:0,0:0:0:0:
156,308,57342,6,0,P|80:284|12:328,1,150,8|0,0:3|1:0,0:0:0:0:
92,376,58045,1,8,0:3:0:0:
20,220,58279,2,0,P|11:197|16:156,1,50,0|0,0:0|0:0,0:0:0:0:
12,96,58592,1,0,0:0:0:0:
88,100,58748,6,0,L|260:108,1,150,4|0,0:3|0:0,0:0:0:0:
336,116,59451,1,4,0:3:0:0:
336,116,59569,1,0,0:0:0:0:
336,116,59686,1,0,1:0:0:0:
404,232,59920,1,0,0:0:0:0:
332,348,60154,2,0,P|288:364|220:348,1,112.5,8|0,0:3|0:0,0:0:0:0:
192,316,60623,6,0,L|176:292,4,18.75
268,252,61092,1,4,0:3:0:0:
276,244,61209,1,0,0:0:0:0:
284,236,61326,1,0,0:0:0:0:
348,164,61561,1,0,1:0:0:0:
444,176,61795,1,4,0:3:0:0:
404,88,62029,2,0,P|360:68|308:80,1,75,2|4,0:3|0:0,0:0:0:0:
252,128,62498,6,0,P|200:160|116:124,1,150,4|2,0:3|0:0,0:0:0:0:
104,36,63201,1,4,0:3:0:0:
24,144,63436,2,0,P|36:184|40:244,1,75,0|0,1:0|0:0,0:0:0:0:
48,316,63904,2,0,L|220:296,1,150,8|0,0:3|0:0,0:0:0:0:
296,284,64608,5,0,0:0:0:0:
232,212,64842,2,0,L|196:128,1,75,4|0,0:3|0:0,0:0:0:0:
340,176,65311,2,0,L|376:92,1,75,4|0,1:3|0:0,0:0:0:0:
332,16,65779,2,0,P|296:32|276:32,1,50
220,68,66092,1,0,0:0:0:0:
184,0,66248,6,0,P|144:52|192:140,1,150,4|0,0:3|0:0,0:0:0:0:
228,204,66951,1,4,0:3:0:0:
228,204,67069,1,0,0:0:0:0:
228,204,67186,2,0,P|216:240|180:264,1,75,0|0,1:0|0:0,0:0:0:0:
92,244,67654,2,0,P|152:264|176:356,1,150
408,276,68592,5,0,3:3:0:0:
248,172,69061,1,0,3:3:0:0:
412,84,69529,1,4,1:0:0:0:
408,276,69998,6,0,B|352:300|352:300|252:288,1,150,4|8,1:0|0:0,0:0:0:0:
72,332,70936,2,0,P|65:295|70:258,1,75,0|8,0:0|0:0,0:0:0:0:
102,166,71404,1,8,0:0:0:0:
33,96,71639,1,0,0:0:0:0:
125,67,71873,6,0,L|212:57,1,75
294,36,72342,1,8,0:0:0:0:
385,69,72576,1,0,0:0:0:0:
389,73,72694,1,0,0:0:0:0:
393,77,72811,2,0,P|389:125|397:157,1,75,0|8,0:0|0:0,0:0:0:0:
458,224,73279,2,0,P|466:272|450:340,1,112.5,8|0,0:0|0:0,0:0:0:0:
460,341,73748,6,0,L|384:333,1,75,0|0,1:0|0:0,2:0:0:0:
292,363,74217,2,0,P|288:315|356:239,1,150,8|0,0:0|0:0,0:0:0:0:
258,268,74920,1,8,0:0:0:0:
262,272,75154,2,0,L|186:279,1,75,8|0,0:0|0:0,2:0:0:0:
196,83,75858,6,0,L|270:75,1,75,0|8,0:0|0:0,2:0:0:0:
360,36,76326,2,0,P|428:40|452:124,1,150,0|8,0:0|0:0,0:0:0:0:
432,204,77029,1,8,0:0:0:0:
428,208,77498,6,0,L|348:199,1,75,0|0,1:0|0:0,0:0:0:0:
284,132,77967,2,0,P|304:184|288:280,1,150,8|0,0:0|0:0,0:0:0:0:
204,320,78670,1,8,0:0:0:0:
108,296,78904,2,0,P|98:270|106:222,1,75,8|0,0:0|0:0,0:0:0:0:
136,132,79373,5,0,0:0:0:0:
140,128,79490,1,0,0:0:0:0:
144,124,79608,1,0,0:0:0:0:
216,60,79842,2,0,L|259:64,1,37.5,8|0,0:0|0:0,0:0:0:0:
266,76,80076,2,0,L|309:80,1,37.5
316,92,80311,2,0,P|342:150|422:142,1,150,0|8,0:0|0:0,0:0:0:0:
352,320,81248,6,0,P|311:325|272:311,1,75,0|0,0:0|0:0,0:0:0:0:
210,246,81717,2,0,P|169:240|130:254,1,75,8|0,0:0|0:0,0:0:0:0:
68,319,82186,2,0,P|41:273|73:177,1,150,0|8,0:0|0:0,0:0:0:0:
140,120,82889,1,0,0:0:0:0:
144,124,83358,5,0,0:0:0:0:
324,80,83826,1,0,0:0:0:0:
368,260,84295,1,8,0:0:0:0:
278,282,84529,1,10,0:2:0:0:
188,304,84764,1,0,0:0:0:0:
100,324,84998,6,0,L|76:176,1,150,4|0,0:0|1:0,0:0:0:0:
236,60,85936,2,0,P|252:116|236:164,1,75
156,104,86404,2,0,P|140:48|156:0,1,75,0|0,1:0|0:0,0:0:0:0:
328,164,86873,6,0,P|300:200|200:200,1,150,0|0,0:0|1:0,0:0:0:0:
56,328,87811,2,0,L|140:340,1,75
298,318,88279,2,0,L|224:308,1,75,4|0,1:0|0:0,0:0:0:0:
396,336,88748,6,0,P|424:272|364:188,1,150,0|0,0:0|1:0,0:0:0:0:
224,92,89686,1,0,0:0:0:0:
200,184,89920,1,0,0:0:0:0:
296,208,90154,1,0,1:0:0:0:
320,112,90389,1,0,0:0:0:0:
200,184,90623,6,0,L|112:208,1,75,0|0,0:0|0:0,0:0:0:0:
24,152,91092,2,0,L|112:128,1,75,0|0,1:0|0:0,0:0:0:0:
180,84,91561,2,0,P|228:112|336:80,1,150,0|4,0:0|1:0,0:0:0:0:
472,216,92498,6,0,P|480:256|476:300,1,75,0|0,1:0|0:0,0:0:0:0:
380,252,92967,2,0,P|372:212|376:168,1,75,0|0,1:0|0:0,0:0:0:0:
412,336,93436,2,0,B|344:352|308:300|308:300|264:320,1,150,0|0,1:0|1:0,0:0:0:0:
188,348,94139,1,0,0:0:0:0:
100,304,94373,6,0,L|88:216,1,75,0|0,1:0|0:0,0:0:0:0:
128,68,94842,2,0,L|140:156,1,75,0|0,1:0|0:0,0:0:0:0:
236,136,95311,2,0,P|316:152|372:88,1,150,0|4,1:0|1:0,0:0:0:0:
384,16,96014,1,0,0:0:0:0:
460,80,96248,6,0,P|472:120|468:168,1,75,0|0,1:0|0:0,0:0:0:0:
348,259,96717,2,0,L|420:236,1,75,0|0,1:0|0:0,0:0:0:0:
276,324,97186,2,0,L|192:352,1,75,0|0,1:0|0:0,0:0:0:0:
116,308,97654,2,0,P|104:268|108:220,1,75,0|0,1:0|0:0,0:0:0:0:
120,140,98123,5,0,1:0:0:0:
196,76,98358,1,0,0:0:0:0:
260,148,98592,1,0,1:0:0:0:
188,212,98826,1,0,0:0:0:0:
256,192,99061,12,0,103748,0:0:0:0:
384,156,105623,6,0,P|392:188|384:240,1,75,4|2,1:1|0:0,0:0:0:0:
379,237,105975,2,0,L|294:245,1,75,2|2,0:0|0:0,0:0:0:0:
296,252,106326,1,0,0:0:0:0:
208,295,106561,2,0,P|200:263|208:211,1,75,0|2,1:0|0:0,0:0:0:0:
208,124,107029,1,2,0:0:0:0:
288,64,107264,1,0,0:0:0:0:
292,68,107381,1,0,0:0:0:0:
296,72,107498,6,0,L|371:64,1,75
208,124,107967,2,0,L|133:116,1,75,0|0,0:0|0:0,0:0:0:0:
40,144,108436,2,0,P|28:220|56:304,1,150,0|0,1:0|0:0,0:0:0:0:
116,360,109139,1,0,0:0:0:0:
212,340,109373,6,0,B|264:321|286:338|316:358|364:340,1,150,2|0,2:0|0:0,0:1:0:0:
420,268,110076,1,2,0:0:0:0:
424,264,110194,1,2,0:0:0:0:
428,260,110311,2,0,L|420:184,1,75,0|2,1:0|0:0,0:0:0:0:
408,88,110779,1,4,0:3:0:0:
404,84,111248,6,0,L|324:92,1,75
232,100,111717,1,4,2:3:0:0:
228,96,111834,1,4,2:3:0:0:
224,92,111951,1,4,2:3:0:0:
127,109,112186,2,0,P|85:126|50:123,1,75,0|0,1:0|0:0,0:0:0:0:
3,43,112654,2,0,P|45:26|80:29,1,75,0|2,0:0|3:0,0:0:0:0:
131,113,113123,6,0,L|121:202,1,75
116,284,113592,1,2,0:0:0:0:
192,344,113826,1,2,0:0:0:0:
196,348,113943,1,2,0:0:0:0:
200,352,114061,2,0,L|283:343,1,75,0|0,1:0|0:0,0:0:0:0:
372,328,114529,1,2,0:0:0:0:
376,324,114998,6,0,P|384:288|380:248,1,75
311,181,115467,2,0,P|303:145|307:105,1,75
335,12,115936,2,0,P|389:63|398:136,1,150,0|0,1:0|0:0,0:0:0:0:
307,185,116639,1,0,0:0:0:0:
212,204,116873,6,0,B|152:197|152:197|129:183|129:183|62:176,1,150,2|0,0:0|0:0,0:0:0:0:
16,260,117576,1,0,0:0:0:0:
20,264,117694,1,0,0:0:0:0:
24,268,117811,2,0,L|107:276,1,75,0|0,1:0|0:0,0:0:0:0:
180,328,118279,2,0,L|263:336,1,75,4|0,3:0|0:0,0:0:0:0:
256,192,118748,12,0,120154,1:0:0:0:
256,192,120623,5,12,1:3:0:0:
400,208,135623,6,0,P|408:152|404:124,1,75,4|0,0:0|0:0,0:0:0:0:
314,167,136092,2,0,P|306:223|310:251,1,75
383,302,136561,2,0,P|297:339|235:307,1,150,0|8,0:0|0:0,0:0:0:0:
68,244,137498,6,0,L|59:160,1,75,0|0,0:0|0:0,2:0:0:0:
79,73,137967,1,0,0:0:0:0:
172,44,138201,1,0,0:0:0:0:
260,84,138436,2,0,P|300:88|339:75,1,75,0|0,0:0|0:0,2:0:0:0:
424,44,138904,1,8,0:0:0:0:
384,236,139373,6,0,P|347:245|310:241,1,75,0|0,0:0|0:0,2:0:0:0:
241,171,139842,2,0,P|204:161|167:165,1,75,0|0,0:0|0:0,2:0:0:0:
98,235,140311,2,0,P|74:200|108:88,1,150,0|8,0:0|0:0,0:0:0:0:
280,44,141248,6,0,L|363:35,1,75,0|0,0:0|0:0,2:0:0:0:
354,133,141717,2,0,L|437:124,1,75,0|0,0:0|0:0,2:0:0:0:
428,222,142186,2,0,P|440:268|360:332,1,150,0|10,0:0|0:0,0:0:0:0:
256,192,143123,12,0,146639,0:0:0:0:
256,192,146873,12,0,149569,0:0:0:0:
116,276,150623,6,0,L|276:280,1,150,4|0,1:1|0:0,0:0:0:0:
364,284,151326,1,4,0:3:0:0:
444,228,151561,2,0,P|452:192|440:148,1,75,0|0,1:0|0:0,0:0:0:0:
392,72,152029,1,4,0:3:0:0:
268,144,152264,1,0,0:0:0:0:
268,144,152381,1,0,0:0:0:0:
268,144,152498,6,0,P|216:160|156:128,1,112.5
136,104,152967,2,0,L|144:260,1,150,8|0,0:3|1:0,0:0:0:0:
152,352,153670,1,4,0:3:0:0:
240,316,153904,2,0,L|304:296,1,37.5,2|2,0:0|0:0,0:0:0:0:
324,328,154139,2,0,L|392:340,1,37.5,2|2,0:0|0:0,0:0:0:0:
404,308,154373,6,0,P|436:252|380:168,1,150,4|0,0:3|0:0,0:0:0:0:
312,140,155076,1,4,0:3:0:0:
312,140,155194,1,0,0:0:0:0:
312,140,155311,2,0,P|272:156|220:148,1,75,0|0,1:0|0:0,0:0:0:0:
160,104,155779,2,0,P|144:152|164:212,1,112.5,8|0,0:3|0:0,0:0:0:0:
204,236,156248,6,0,L|224:240,4,18.75
64,256,156717,2,0,L|80:312,3,37.5,4|0|0|0,0:3|0:0|0:0|0:0,0:0:0:0:
92,340,157186,1,0,1:0:0:0:
188,328,157420,1,4,3:0:0:0:
280,356,157654,2,0,P|320:364|368:360,1,75,2|4,0:3|0:0,0:0:0:0:
436,308,158123,6,0,L|440:152,1,150,4|2,0:3|0:0,0:0:0:0:
384,80,158826,1,4,0:3:0:0:
328,160,159061,2,0,P|288:168|240:164,1,75,0|0,1:0|0:0,0:0:0:0:
185,97,159529,2,0,P|161:133|189:237,1,150,8|0,0:3|0:0,0:0:0:0:
272,268,160233,5,0,0:0:0:0:
204,336,160467,2,0,L|120:348,1,75,4|0,0:3|0:0,0:0:0:0:
32,356,160936,1,0,1:0:0:0:
32,356,161170,1,4,0:3:0:0:
52,224,161404,2,0,L|40:164,2,50
124,264,161873,6,0,P|200:288|264:228,1,150,4|0,0:3|0:0,0:0:0:0:
296,164,162576,1,4,0:3:0:0:
296,164,162694,1,0,0:0:0:0:
296,164,162811,1,0,1:0:0:0:
216,108,163045,1,0,0:0:0:0:
136,160,163279,2,0,L|40:176,1,75,4|0,0:3|0:0,0:0:0:0:
256,192,163748,12,0,165154,1:0:0:0:
292,264,165623,6,0,P|328:220|319:118,1,150,4|0,1:0|0:0,0:0:0:0:
384,208,166326,1,0,0:0:0:0:
388,212,166561,2,0,L|471:203,1,75,0|0,1:0|0:0,0:0:0:0:
241,178,167029,2,0,L|157:169,1,75
90,232,167498,6,0,P|66:163|99:98,1,150
176,36,168201,1,0,0:0:0:0:
268,64,168436,2,0,P|324:72|360:64,1,75,2|2,1:0|0:1,0:0:0:0:
436,48,168904,1,2,0:1:0:0:
440,52,169022,1,2,0:0:0:0:
444,56,169139,1,2,0:0:0:0:
480,148,169373,6,0,P|488:200|436:280,1,150,4|0,3:0|0:0,0:0:0:0:
348,316,170076,1,0,0:0:0:0:
352,320,170311,2,0,L|276:312,1,75,0|0,1:0|0:0,0:0:0:0:
208,243,170779,2,0,L|132:250,1,75,0|0,0:0|0:0,0:0:0:0:
61,317,171248,6,0,P|40:270|67:179,1,150,0|0,0:0|0:0,0:0:0:0:
144,116,171951,1,0,0:0:0:0:
148,120,172069,1,0,0:0:0:0:
152,124,172186,2,0,L|231:115,1,75,0|0,1:0|0:0,0:0:0:0:
230,120,172537,1,0,0:0:0:0:
234,124,172654,1,2,3:0:0:0:
424,84,173123,6,0,P|420:144|472:224,1,150,4|0,3:0|0:0,0:0:0:0:
444,312,173826,1,0,0:0:0:0:
352,348,174061,2,0,P|312:348|280:332,1,75,0|0,1:0|0:0,0:0:0:0:
188,308,174529,2,0,B|179:228,1,75,2|0,0:1|0:0,0:0:0:0:
192,137,174998,6,0,P|172:80|172:56,1,75
268,76,175467,2,0,L|351:67,1,75
440,84,175936,1,0,1:0:0:0:
472,176,176170,1,0,0:0:0:0:
452,272,176404,2,0,P|408:280|376:272,1,75,0|0,0:0|1:0,0:0:0:0:
296,224,176873,6,0,P|252:216|155:272,1,150,2|0,0:1|0:0,0:0:0:0:
64,264,177576,1,0,0:0:0:0:
20,176,177811,2,0,P|16:124|24:92,1,75,0|0,1:0|0:0,0:0:0:0:
104,52,178279,2,0,L|187:43,1,75,0|0,0:0|0:0,0:0:0:0:
256,192,178748,12,4,180623,0:1:0:0:
