osu file format v12

[General]
AudioFilename: Girlfriend.mp3
AudioLeadIn: 1000
PreviewTime: 948
Countdown: 0
SampleSet: Normal
StackLeniency: 0.4
Mode: 0
LetterboxInBreaks: 0

[Editor]
DistanceSpacing: 0.6
BeatDivisor: 8
GridSize: 4

[Metadata]
Title:Girlfriend
TitleUnicode:
Artist:Avril Lavigne
ArtistUnicode:
Creator:-Baby Strawberry-
Version:Insane
Source:
Tags:the best damn thing punk tutuhaha
BeatmapID:139870
BeatmapSetID:44674

[Difficulty]
HPDrainRate:7
CircleSize:4
OverallDifficulty:7
ApproachRate:8
SliderMultiplier:2
SliderTickRate:2

[Events]
//Background and Video events
0,0,"BG.jpg",0,0
//Break Periods
2,83196,93588
2,164942,175905
//Storyboard Layer 0 (Background)
//Storyboard Layer 1 (Fail)
//Storyboard Layer 2 (Pass)
//Storyboard Layer 3 (Foreground)
//Storyboard Sound Samples
//Background Colour Transformations
3,100,0,0,0

[TimingPoints]
1040,365.853658536585,4,1,1,30,1,0
12755,365.853658536585,4,1,1,30,1,0
21530,365.853658536585,4,1,1,30,1,0
24460,365.853658536585,4,1,1,60,1,0
24505,-100,4,2,1,60,0,0
27020,-100,4,1,1,30,0,0
47874,-100,4,1,1,50,0,1
47966,-100,4,1,1,60,0,0
48240,-200,4,1,1,30,0,0
50801,-200,4,1,2,50,0,0
50847,-200,4,1,1,30,0,0
53728,-200,4,1,2,40,0,0
58118,-200,4,1,1,40,0,0
59581,-100,4,1,2,60,0,1
59627,-100,4,1,1,50,0,1
82996,-100,4,1,2,60,0,0
83042,-100,4,1,1,30,0,0
103484,-100,4,1,1,25,0,0
104216,-100,4,1,1,20,0,0
104947,-100,4,1,1,15,0,0
105679,-100,4,1,1,20,0,0
106045,-100,4,1,1,25,0,0
106411,-100,4,1,1,30,0,0
106777,-200,4,1,1,30,0,0
112264,-200,4,1,2,40,0,0
115191,-100,4,1,1,40,0,0
118118,-100,4,1,2,80,0,1
118164,-100,4,1,1,50,0,1
141533,-100,4,2,1,100,0,0
141578,-100,4,1,1,60,0,0
142630,-100,4,2,1,100,0,0
142676,-100,4,1,1,60,0,0
144094,-100,4,2,1,100,0,0
144139,-100,4,1,1,60,0,0
145557,-100,4,2,1,100,0,0
145603,-100,4,1,1,60,0,0
147020,-100,4,2,1,100,0,0
147066,-100,4,1,1,60,0,0
148484,-100,4,2,1,100,0,0
148530,-100,4,1,1,60,0,0
149947,-100,4,2,1,100,0,0
149993,-100,4,1,1,50,0,0
152508,-100,4,1,1,80,0,0
153240,-100,4,2,1,100,0,0
153286,-100,4,1,1,60,0,0
154338,-100,4,2,1,100,0,0
154383,-100,4,1,1,60,0,0
155801,-100,4,2,1,100,0,0
155847,-100,4,1,1,60,0,0
157264,-100,4,2,1,100,0,0
157310,-100,4,1,1,60,0,0
158728,-100,4,2,1,100,0,0
158774,-100,4,1,1,60,0,0
160191,-100,4,2,1,100,0,0
160237,-100,4,1,1,60,0,0
161655,-100,4,2,1,100,0,0
161700,-100,4,1,1,50,0,0
164216,-100,4,1,1,90,0,0
176655,-100,4,1,1,50,0,1
188316,-100,4,1,1,100,0,0
188362,-100,4,1,1,50,0,1
200024,-100,4,1,1,50,0,0
200069,-100,4,1,1,70,0,1
200115,-100,4,1,1,60,0,1
208850,-100,4,1,2,70,0,1
208895,-100,4,1,1,60,0,1
211731,-100,4,1,1,100,0,0
211777,-100,4,1,2,100,0,1
211822,-100,4,1,2,100,0,0

[Colours]
Combo1 : 250,253,104
Combo2 : 250,95,219
Combo3 : 200,112,248
SliderBorder : 0,0,0

[HitObjects]
106,80,1040,1,10,0:0:0:0:
106,80,1405,1,4,0:0:0:0:
404,295,1771,1,8,0:0:0:0:
404,295,2137,1,4,0:0:0:0:
408,144,2503,6,0,B|336:96|256:104|256:104|216:168,1,200,8|4,0:0|0:0,0:0:0:0:
256,192,3052,1,8,0:0:0:0:
104,240,3235,2,0,B|168:288|256:280|256:280|296:216,1,200,8|4,0:0|0:0,0:0:0:0:
384,56,3966,21,8,0:0:0:0:
127,319,4332,1,4,0:0:0:0:
384,56,4698,1,8,0:0:0:0:
127,319,5064,1,4,0:0:0:0:
440,264,5430,6,0,B|368:208|288:264|288:264|256:248,1,200,8|4,0:0|0:0,0:0:0:0:
256,192,5979,1,8,0:0:0:0:
72,120,6161,2,0,B|144:176|224:120|224:120|256:136,1,200,8|4,0:0|0:0,0:0:0:0:
440,192,6893,21,8,0:0:0:0:
440,192,7259,1,4,0:0:0:0:
72,192,7625,1,8,0:0:0:0:
72,192,7991,1,4,0:0:0:0:
304,96,8357,6,8,B|256:72|208:96,1,100
208,184,8722,2,8,B|256:208|304:184,1,100,4|8,0:0|0:0,0:0:0:0:
352,304,9088,2,4,B|288:304|256:280|256:280|224:304|152:304,1,200,8|4,0:0|0:0,0:0:0:0:
256,192,9820,12,0,12381,0:0:0:0:
405,303,12755,21,10,0:0:0:0:
405,303,13120,1,4,0:0:0:0:
107,88,13486,1,8,0:0:0:0:
107,88,13852,1,4,0:0:0:0:
104,240,14218,6,0,B|192:232|256:280|256:280|296:216,1,200,8|4,0:0|0:0,0:0:0:0:
256,192,14767,1,8,0:0:0:0:
408,144,14950,2,0,B|320:152|256:104|256:104|216:168,1,200,8|4,0:0|0:0,0:0:0:0:
128,328,15681,21,8,0:0:0:0:
385,65,16047,1,4,0:0:0:0:
128,328,16413,1,8,0:0:0:0:
385,65,16779,1,4,0:0:0:0:
72,120,17145,6,0,B|120:96|120:96|176:144|256:136,1,200,8|4,0:0|0:0,0:0:0:0:
256,192,17694,1,8,0:0:0:0:
440,264,17876,2,0,B|392:288|392:288|336:240|256:248,1,200,8|4,0:0|0:0,0:0:0:0:
72,192,18608,21,8,0:0:0:0:
72,192,18974,1,4,0:0:0:0:
440,192,19340,1,8,0:0:0:0:
440,192,19706,1,4,0:0:0:0:
192,240,20072,6,8,B|176:288|192:340,1,100
320,336,20437,2,0,B|334:285|320:236,1,100,4|8,0:0|0:0,0:0:0:0:
344,128,20803,2,0,B|312:124|312:184|276:184|276:128|256:108|236:128|236:184|192:184|192:120|168:128,1,200,8|4,0:0|0:0,0:0:0:0:
256,192,21530,12,8,24090,0:0:0:0:
256,192,24460,5,2,0:0:0:0:
40,72,24825,5,0,0:0:0:0:
104,24,25008,1,0,0:0:0:0:
120,104,25191,2,0,B|184:96|208:152,1,100,0|0,0:0|0:0,0:0:0:0:
136,184,25557,1,0,0:0:0:0:
208,224,25740,1,0,0:0:0:0:
204,143,25923,2,0,B|336:176,1,100,0|0,0:0|0:0,0:0:0:0:
328,88,26289,1,0,0:0:0:0:
392,144,26472,1,0,0:0:0:0:
408,72,26655,2,0,B|456:80|456:80|496:160|432:224,1,200,0|4,0:0|0:0,0:0:0:0:
384,272,27203,1,4,0:0:0:0:
352,256,27295,1,8,0:0:0:0:
312,264,27386,5,2,0:0:0:0:
336,344,27569,1,0,0:0:0:0:
256,208,27752,1,4,0:0:0:0:
176,344,27935,1,0,0:0:0:0:
96,328,28118,2,0,B|112:272|168:264,1,100
256,208,28484,1,4,0:0:0:0:
160,192,28667,1,0,0:0:0:0:
72,224,28850,2,0,B|32:128,1,100
40,48,29216,2,0,B|136:96,1,100,4|0,0:0|0:0,0:0:0:0:
200,120,29581,2,0,B|216:72|216:72|264:40,2,100,0|0|4,0:0|0:0|0:0,0:0:0:0:
280,120,30130,1,4,0:0:0:0:
304,152,30222,1,8,0:0:0:0:
328,184,30313,21,2,0:0:0:0:
368,112,30496,1,0,0:0:0:0:
416,48,30679,1,4,0:0:0:0:
448,120,30862,1,0,0:0:0:0:
501,177,31045,2,0,B|456:216|408:184,1,100
368,256,31411,1,4,0:0:0:0:
409,184,31594,1,0,0:0:0:0:
328,184,31777,6,0,B|264:168|244:232,1,100
288,288,32142,1,4,0:0:0:0:
208,296,32325,1,0,0:0:0:0:
248,224,32508,1,0,0:0:0:0:
136,280,32691,1,0,0:0:0:0:
136,152,32874,1,4,0:0:0:0:
136,152,33057,2,8,B|169:80|257:65|257:65|299:109,1,200,8|0,0:0|0:0,0:0:0:0:
376,232,33789,2,0,B|342:303|254:318|254:318|212:274,1,200,8|2,0:0|0:0,0:0:0:0:
112,112,34520,6,0,B|168:56|256:72|256:72|280:128,1,200,8|0,0:0|0:0,0:0:0:0:
400,272,35252,2,0,B|344:328|256:312|256:312|232:256,1,200,8|2,0:0|0:0,0:0:0:0:
256,192,35801,1,4,0:0:0:0:
256,192,35984,1,4,0:0:0:0:
256,192,36075,1,8,0:0:0:0:
256,192,36167,1,2,0:0:0:0:
472,64,36533,6,0,B|416:48|379:85,1,100,8|8,0:0|0:0,0:0:0:0:
344,152,36899,2,0,B|400:176|440:128,1,100,4|0,0:0|0:0,0:0:0:0:
379,85,37264,1,0,0:0:0:0:
360,224,37447,1,0,0:0:0:0:
496,184,37630,2,0,B|496:296,1,100,8|0,0:0|0:0,0:0:0:0:
496,284,37996,1,4,0:0:0:0:
256,336,38362,21,0,0:0:0:0:
256,48,38728,1,4,0:0:0:0:
40,320,39094,5,10,0:0:0:0:
40,320,39277,1,0,0:0:0:0:
40,320,39460,2,0,B|96:336|132:298,1,100,4|0,0:0|0:0,0:0:0:0:
168,232,39825,2,0,B|112:208|72:256,1,100
132,298,40191,1,4,0:0:0:0:
0,344,40374,1,0,0:0:0:0:
16,200,40557,2,0,B|12:144|44:96,1,100
96,168,40923,2,0,B|112:112|160:80,1,100,4|0,0:0|0:0,0:0:0:0:
256,48,41289,21,0,0:0:0:0:
256,336,41655,1,4,0:0:0:0:
336,344,41838,5,4,0:0:0:0:
376,336,41929,1,8,0:0:0:0:
416,320,42020,1,2,0:0:0:0:
472,256,42203,1,0,0:0:0:0:
388,236,42386,2,0,B|288:228,1,100,4|0,0:0|0:0,0:0:0:0:
220,188,42752,1,0,0:0:0:0:
296,152,42935,1,0,0:0:0:0:
376,152,43118,2,0,B|376:96|312:72,1,100,4|0,0:0|0:0,0:0:0:0:
240,80,43484,5,0,0:0:0:0:
160,88,43667,1,0,0:0:0:0:
96,44,43850,2,0,B|68:84|100:140,1,100,4|0,0:0|0:0,0:0:0:0:
144,200,44216,1,0,0:0:0:0:
144,200,44399,2,0,B|128:240|128:240|176:320|264:288,1,200,8|0,0:0|0:0,0:0:0:0:
368,184,45130,2,0,B|384:144|384:144|336:64|248:96,1,200,8|0,0:0|0:0,0:0:0:0:
261,288,45862,22,0,B|296:248|296:248|368:304|464:240,1,200,8|0,0:0|0:0,0:0:0:0:
250,95,46594,2,4,B|216:136|216:136|144:80|48:144,1,200,8|0,0:0|0:0,0:0:0:0:
136,192,47142,21,4,0:0:0:0:
160,220,47234,1,4,0:0:0:0:
196,232,47325,1,4,0:0:0:0:
232,220,47417,1,4,0:0:0:0:
256,192,47508,1,8,0:0:0:0:
280,164,47600,1,8,0:0:0:0:
316,152,47691,1,8,0:0:0:0:
352,164,47783,1,0,0:0:0:0:
376,191,47874,1,10,0:0:0:0:
256,340,48240,5,8,0:0:0:0:
308,276,48606,1,4,0:0:0:0:
388,264,48972,1,0,0:0:0:0:
452,216,49338,2,0,B|417:174|361:188,1,100,8|0,0:0|0:0,0:0:0:0:
324,176,49886,2,0,B|267:185|214:150|202:102,1,150,4|0,0:0|0:0,0:0:0:0:
256,44,50801,21,12,0:0:0:0:
256,44,51167,5,4,0:0:0:0:
224,68,51350,1,0,0:0:0:0:
184,76,51533,1,0,0:0:0:0:
104,88,51899,1,4,0:0:0:0:
104,88,52264,2,0,B|120:148|180:156,1,100,8|8,0:0|0:0,0:0:0:0:
212,148,52813,2,0,B|267:153|302:208|289:263,1,150,4|8,0:0|0:0,0:0:0:0:
256,328,53728,5,12,0:0:0:0:
256,292,54460,1,0,0:0:0:0:
256,260,55191,1,12,0:0:0:0:
256,224,55923,1,0,0:0:0:0:
256,192,56655,5,12,0:0:0:0:
256,160,57020,1,0,0:0:0:0:
256,124,57386,1,12,0:0:0:0:
256,88,57752,1,0,0:0:0:0:
316,88,58118,5,6,0:0:0:0:
196,88,58301,1,6,0:0:0:0:
344,144,58484,1,0,0:0:0:0:
168,144,58667,1,0,0:0:0:0:
256,200,58850,1,4,0:0:0:0:
256,200,59033,21,4,0:0:0:0:
256,220,59124,1,4,0:0:0:0:
256,240,59216,1,4,0:0:0:0:
256,260,59307,1,4,0:0:0:0:
256,280,59399,1,4,0:0:0:0:
256,300,59490,1,4,0:0:0:0:
256,320,59581,5,6,0:0:0:0:
256,320,59947,1,4,0:0:0:0:
256,64,60313,1,8,0:0:0:0:
256,64,60679,1,4,0:0:0:0:
436,208,61045,6,0,B|384:152|312:180|312:180|272:128,1,200,8|4,0:0|0:0,0:0:0:0:
256,192,61594,1,8,0:0:0:0:
76,176,61777,2,0,B|128:232|200:204|200:204|240:256,1,200,8|4,0:0|0:0,0:0:0:0:
408,292,62508,21,8,0:0:0:0:
128,100,62874,1,4,0:0:0:0:
384,100,63240,1,8,0:0:0:0:
104,292,63606,1,4,0:0:0:0:
400,76,63972,6,0,B|384:160|284:164|284:164|320:220,1,200,8|4,0:0|0:0,0:0:0:0:
256,192,64520,1,8,0:0:0:0:
112,308,64703,2,0,B|128:224|228:220|228:220|192:164,1,200,8|4,0:0|0:0,0:0:0:0:
364,272,65435,21,8,0:0:0:0:
112,96,65801,1,4,0:0:0:0:
400,96,66167,1,8,0:0:0:0:
148,272,66533,1,4,0:0:0:0:
256,96,66899,5,8,0:0:0:0:
192,144,67081,1,8,0:0:0:0:
256,96,67264,1,4,0:0:0:0:
320,144,67447,1,8,0:0:0:0:
324,224,67630,1,8,0:0:0:0:
256,268,67813,1,8,0:0:0:0:
188,224,67996,1,4,0:0:0:0:
248,62,68362,6,0,B|296:56|296:56|356:100|344:192,1,200,8|4,0:0|0:0,0:0:0:0:
264,321,68911,2,0,B|216:328|216:328|156:284|167:192,1,200,8|8,0:0|0:0,0:0:0:0:
256,192,69460,1,4,0:0:0:0:
368,304,69825,2,8,B|344:248|276:256,1,100
144,80,70191,2,0,B|168:136|236:128,1,100,4|8,0:0|0:0,0:0:0:0:
256,192,70557,1,8,0:0:0:0:
256,192,70740,1,8,0:0:0:0:
256,192,70923,1,4,0:0:0:0:
256,64,71289,21,10,0:0:0:0:
256,64,71655,1,4,0:0:0:0:
256,320,72020,1,8,0:0:0:0:
256,320,72386,1,4,0:0:0:0:
436,176,72752,22,0,B|375:216|300:193|300:193|272:256,1,200,8|4,0:0|0:0,0:0:0:0:
256,192,73301,1,8,0:0:0:0:
76,208,73484,2,0,B|136:169|212:192|212:192|239:128,1,200,8|4,0:0|0:0,0:0:0:0:
396,96,74216,5,8,0:0:0:0:
116,288,74581,1,4,0:0:0:0:
396,96,74947,1,8,0:0:0:0:
116,288,75313,1,4,0:0:0:0:
400,308,75679,22,0,B|384:224|284:220|284:220|320:164,1,200,8|4,0:0|0:0,0:0:0:0:
256,192,76228,1,8,0:0:0:0:
112,76,76411,2,0,B|128:160|228:164|228:164|192:220,1,200,8|4,0:0|0:0,0:0:0:0:
400,204,77142,5,8,0:0:0:0:
400,204,77508,1,4,0:0:0:0:
112,204,77874,1,8,0:0:0:0:
112,204,78240,1,4,0:0:0:0:
196,236,78423,21,4,0:0:0:0:
256,184,78606,1,8,0:0:0:0:
316,236,78789,1,8,0:0:0:0:
256,184,78972,1,4,0:0:0:0:
196,236,79155,1,4,0:0:0:0:
180,156,79338,2,0,P|256:100|332:156,1,200,8|0,0:0|0:0,0:0:0:0:
68,268,80069,22,0,B|148:228|236:264|236:264|276:216,1,200,8|4,0:0|0:0,0:0:0:0:
444,116,80618,2,0,B|364:156|276:120|276:120|236:168,1,200,8|8,0:0|0:0,0:0:0:0:
256,192,81167,1,4,0:0:0:0:
360,288,81533,6,4,B|336:188,1,100,8|8,0:0|0:0,0:0:0:0:
152,96,81899,2,4,B|176:196,1,100,4|8,0:0|0:0,0:0:0:0:
256,192,82264,1,8,0:0:0:0:
336,192,82447,1,8,0:0:0:0:
324,228,82539,1,8,0:0:0:0:
296,256,82630,1,4,0:0:0:0:
256,268,82722,1,4,0:0:0:0:
216,260,82813,1,4,0:0:0:0:
188,232,82905,1,4,0:0:0:0:
176,192,82996,1,12,0:0:0:0:
256,192,94338,21,0,0:0:0:0:
256,192,94429,1,0,0:0:0:0:
256,192,94520,1,0,0:0:0:0:
256,192,94612,1,0,0:0:0:0:
256,192,94703,1,0,0:0:0:0:
256,192,95069,5,4,0:0:0:0:
312,132,95252,1,4,0:0:0:0:
312,52,95435,2,0,B|376:56|388:112,1,100,8|8,0:0|0:0,0:0:0:0:
386,106,95801,1,4,0:0:0:0:
312,248,95984,1,8,0:0:0:0:
472,240,96167,6,0,B|412:228|376:280,1,100,8|8,0:0|0:0,0:0:0:0:
444,324,96533,2,0,B|404:364|352:344,1,100,4|8,0:0|0:0,0:0:0:0:
382,271,96899,1,8,0:0:0:0:
304,280,97081,1,8,0:0:0:0:
272,352,97264,1,4,0:0:0:0:
272,352,97447,1,4,0:0:0:0:
240,328,97539,1,8,0:0:0:0:
200,324,97630,1,0,0:0:0:0:
132,280,97813,1,0,0:0:0:0:
84,344,97996,21,0,0:0:0:0:
84,344,98179,1,8,0:0:0:0:
84,344,98362,1,4,0:0:0:0:
84,40,98728,5,4,0:0:0:0:
84,40,98911,1,8,0:0:0:0:
84,40,99094,2,8,B|135:25|135:25|200:36,1,100,4|8,0:0|0:0,0:0:0:0:
140,104,99459,2,0,B|88:116|88:116|40:164,1,100,0|8,0:0|0:0,0:0:0:0:
104,212,99825,1,8,0:0:0:0:
232,264,100008,1,8,0:0:0:0:
228,128,100191,1,4,0:0:0:0:
228,52,100374,1,8,0:0:0:0:
264,36,100466,1,8,0:0:0:0:
304,44,100557,2,0,B|324:96|384:112,1,100
420,44,100923,22,0,B|472:84|444:152,1,100,4|0,0:0|0:0,0:0:0:0:
508,188,101289,2,0,B|459:232|397:192,1,100,8|0,0:0|0:0,0:0:0:0:
334,225,101655,2,0,B|320:163|368:140,1,100,4|0,0:0|0:0,0:0:0:0:
415,202,102020,1,8,0:0:0:0:
396,280,102203,1,8,0:0:0:0:
320,304,102386,1,4,0:0:0:0:
256,252,102569,1,0,0:0:0:0:
268,172,102752,1,8,0:0:0:0:
228,104,102935,1,8,0:0:0:0:
148,88,103118,1,4,0:0:0:0:
80,128,103301,1,4,0:0:0:0:
229,191,103484,5,8,0:0:0:0:
170,226,103667,1,8,0:0:0:0:
156,295,103850,1,4,0:0:0:0:
191,354,104033,1,4,0:0:0:0:
255,213,104216,21,8,0:0:0:0:
284,262,104399,1,8,0:0:0:0:
341,274,104581,1,4,0:0:0:0:
390,245,104764,1,4,0:0:0:0:
272,192,104947,5,8,0:0:0:0:
310,170,105130,1,8,0:0:0:0:
319,125,105313,1,4,0:0:0:0:
297,88,105496,1,4,0:0:0:0:
192,232,105679,5,4,0:0:0:0:
200,250,105770,1,4,0:0:0:0:
216,263,105862,1,4,0:0:0:0:
234,270,105953,1,4,0:0:0:0:
256,273,106045,1,4,0:0:0:0:
275,268,106136,1,4,0:0:0:0:
293,260,106228,1,0,0:0:0:0:
310,245,106319,1,0,0:0:0:0:
318,229,106411,1,10,0:0:0:0:
256,180,106777,6,0,B|256:76,1,100,8|4,0:0|0:0,0:0:0:0:
256,80,107508,1,4,0:0:0:0:
176,80,107874,2,0,B|172:176|72:176|72:176|40:144,2,200,8|4|10,0:0|0:0|0:0,0:0:0:0:
256,36,109703,1,8,0:0:0:0:
256,76,109886,1,8,0:0:0:0:
256,116,110069,1,4,0:0:0:0:
336,80,110435,1,0,0:0:0:0:
336,80,110801,2,4,B|340:176|440:176|440:176|472:144,1,200,8|4,0:0|0:0,0:0:0:0:
430,283,112264,5,14,0:0:0:0:
156,383,112996,1,0,0:0:0:0:
56,109,113728,1,14,0:0:0:0:
330,9,114459,1,0,0:0:0:0:
417,277,115191,5,6,0:0:0:0:
162,370,115557,1,6,0:0:0:0:
69,115,115923,1,6,0:0:0:0:
324,22,116289,1,6,0:0:0:0:
351,242,116655,5,6,0:0:0:0:
200,297,116838,1,4,0:0:0:0:
145,146,117020,1,6,0:0:0:0:
296,92,117203,1,4,0:0:0:0:
256,192,117386,5,4,0:0:0:0:
256,192,117478,1,0,0:0:0:0:
256,192,117569,1,0,0:0:0:0:
256,192,117661,1,4,0:0:0:0:
256,192,117752,1,4,0:0:0:0:
256,192,117844,1,4,0:0:0:0:
256,192,117935,1,4,0:0:0:0:
256,192,118027,1,4,0:0:0:0:
256,192,118118,21,12,0:0:0:0:
104,84,118484,1,4,0:0:0:0:
256,352,118850,1,8,0:0:0:0:
408,84,119216,1,4,0:0:0:0:
320,292,119581,6,8,B|336:232|384:200,1,100
192,292,119947,2,0,B|176:232|128:200,1,100,4|8,0:0|0:0,0:0:0:0:
160,120,120313,2,0,B|184:144|228:156|244:144|268:144|284:156|328:144|352:116,1,200,8|4,0:0|0:0,0:0:0:0:
158,35,121045,21,8,0:0:0:0:
369,337,121411,1,4,0:0:0:0:
113,292,121777,1,8,0:0:0:0:
414,80,122142,1,4,0:0:0:0:
188,144,122508,6,8,B|164:192|188:240,1,100
324,240,122874,2,0,B|348:192|324:144,1,100,4|8,0:0|0:0,0:0:0:0:
256,120,123240,2,0,B|256:180|256:180|264:188|264:188|248:188|248:188|264:200|264:200|248:200|248:200|256:204|256:204|256:272,1,200,8|4,0:0|0:0,0:0:0:0:
404,304,123972,21,8,0:0:0:0:
404,304,124338,1,4,0:0:0:0:
108,304,124703,1,8,0:0:0:0:
108,304,125069,1,4,0:0:0:0:
336,120,125435,6,8,B|235:120|235:120|187:136|179:196,1,200,8|4,0:0|0:0,0:0:0:0:
256,192,125984,1,8,0:0:0:0:
176,264,126167,2,0,B|276:264|276:264|324:248|332:188,1,200,8|4,0:0|0:0,0:0:0:0:
376,290,126899,6,0,B|412:244|412:156|376:100,1,200,8|4,0:0|0:0,0:0:0:0:
135,100,127447,2,0,B|100:156|100:244|135:290,1,200,8|8,0:0|0:0,0:0:0:0:
256,192,127996,1,4,0:0:0:0:
460,288,128362,6,0,B|495:241|495:153|459:97,1,200,8|4,0:0|0:0,0:0:0:0:
51,98,128911,2,8,B|16:153|16:241|52:288,1,200,8|8,0:0|0:0,0:0:0:0:
256,192,129459,1,4,0:0:0:0:
428,324,129825,5,10,0:0:0:0:
428,324,130191,1,4,0:0:0:0:
84,324,130557,1,8,0:0:0:0:
84,324,130923,1,4,0:0:0:0:
320,92,131289,22,8,B|336:152|384:184,1,100
192,92,131655,2,0,B|176:152|128:184,1,100,4|8,0:0|0:0,0:0:0:0:
160,264,132020,2,0,B|184:240|228:228|244:240|268:240|284:228|328:240|352:268,1,200,8|4,0:0|0:0,0:0:0:0:
158,349,132752,5,8,0:0:0:0:
369,47,133118,1,4,0:0:0:0:
113,92,133484,1,8,0:0:0:0:
414,304,133850,1,4,0:0:0:0:
188,240,134216,22,8,B|164:192|188:144,1,100
324,144,134581,2,0,B|348:192|324:240,1,100,4|8,0:0|0:0,0:0:0:0:
256,263,134947,2,0,B|256:204|256:204|264:196|264:196|248:196|248:196|264:184|264:184|248:184|248:184|256:180|256:180|256:112,1,200,8|4,0:0|0:0,0:0:0:0:
404,80,135679,5,8,0:0:0:0:
404,80,136045,1,4,0:0:0:0:
108,80,136411,1,8,0:0:0:0:
108,80,136777,1,4,0:0:0:0:
256,192,136959,21,4,0:0:0:0:
336,264,137142,2,8,B|235:264|235:264|187:248|179:188,1,200,8|4,0:0|0:0,0:0:0:0:
256,192,137691,1,4,0:0:0:0:
176,120,137874,2,8,B|276:120|276:120|324:136|332:196,1,200,8|4,0:0|0:0,0:0:0:0:
448,296,138606,6,0,B|396:296|352:264,1,100,8|8,0:0|0:0,0:0:0:0:
332,344,138972,2,0,B|286:318|264:268,1,100,4|8,0:0|0:0,0:0:0:0:
204,324,139338,2,0,B|178:278|183:224,1,100,8|8,0:0|0:0,0:0:0:0:
256,192,139703,1,4,0:0:0:0:
64,88,140069,22,0,B|116:88|160:120,1,100,8|8,0:0|0:0,0:0:0:0:
180,40,140435,2,0,B|225:66|247:115,1,100,4|8,0:0|0:0,0:0:0:0:
328,120,140801,2,0,B|350:132|355:159,2,50,4|4|4,0:0|0:0|0:0,0:0:0:0:
256,192,141167,1,4,0:0:0:0:
256,192,141533,21,4,0:0:0:0:
368,308,141899,1,0,0:0:0:0:
368,308,142081,1,0,0:0:0:0:
144,76,142630,1,10,0:0:0:0:
288,184,142996,1,0,0:0:0:0:
211,346,143362,1,0,0:0:0:0:
211,346,143545,1,0,0:0:0:0:
300,37,144094,1,10,0:0:0:0:
280,216,144459,5,0,0:0:0:0:
99,230,144825,1,0,0:0:0:0:
99,230,145008,1,0,0:0:0:0:
412,153,145557,1,10,0:0:0:0:
244,224,145923,1,0,0:0:0:0:
144,75,146289,1,0,0:0:0:0:
144,75,146472,1,0,0:0:0:0:
368,308,147020,1,10,0:0:0:0:
224,200,147386,5,0,0:0:0:0:
300,37,147752,1,0,0:0:0:0:
300,37,147935,1,0,0:0:0:0:
211,346,148484,1,10,0:0:0:0:
232,168,148850,1,0,0:0:0:0:
412,153,149216,1,0,0:0:0:0:
412,153,149399,1,0,0:0:0:0:
99,230,149947,1,10,0:0:0:0:
275,233,150313,5,0,0:0:0:0:
275,233,150496,1,0,0:0:0:0:
210,188,150679,1,0,0:0:0:0:
280,152,150862,2,0,B|364:156|384:248|332:300,1,200,0|0,0:0|0:0,0:0:0:0:
256,312,151411,1,0,0:0:0:0:
192,264,151594,1,0,0:0:0:0:
256,216,151777,1,0,0:0:0:0:
192,168,151959,1,0,0:0:0:0:
256,120,152142,1,0,0:0:0:0:
464,216,152508,5,2,0:0:0:0:
48,216,152874,1,2,0:0:0:0:
256,192,153240,21,4,0:0:0:0:
119,51,153606,1,0,0:0:0:0:
119,51,153789,1,0,0:0:0:0:
392,332,154338,1,10,0:0:0:0:
148,240,154703,1,0,0:0:0:0:
328,24,155069,1,0,0:0:0:0:
328,24,155252,1,0,0:0:0:0:
202,380,155801,1,10,0:0:0:0:
184,120,156167,5,0,0:0:0:0:
446,145,156533,1,0,0:0:0:0:
446,145,156716,1,0,0:0:0:0:
66,239,157264,1,10,0:0:0:0:
284,96,157630,1,0,0:0:0:0:
392,334,157996,1,0,0:0:0:0:
392,334,158179,1,0,0:0:0:0:
119,51,158728,1,10,0:0:0:0:
352,164,159094,5,0,0:0:0:0:
202,380,159459,1,0,0:0:0:0:
202,380,159642,1,0,0:0:0:0:
312,24,160191,1,10,0:0:0:0:
324,264,160557,1,0,0:0:0:0:
66,239,160923,1,0,0:0:0:0:
66,239,161106,1,0,0:0:0:0:
446,145,161655,1,10,0:0:0:0:
232,142,162020,5,0,0:0:0:0:
232,142,162203,1,0,0:0:0:0:
311,196,162386,1,0,0:0:0:0:
226,240,162569,2,0,B|124:235|100:123|163:60,1,200,0|0,0:0|0:0,0:0:0:0:
256,46,163118,1,0,0:0:0:0:
333,104,163301,1,0,0:0:0:0:
256,162,163484,1,0,0:0:0:0:
333,221,163667,1,0,0:0:0:0:
256,279,163850,1,0,0:0:0:0:
3,162,164216,5,2,0:0:0:0:
508,162,164581,1,2,0:0:0:0:
312,40,176655,37,10,0:0:0:0:
312,40,177020,1,4,0:0:0:0:
200,344,177386,1,8,0:0:0:0:
200,344,177752,1,4,0:0:0:0:
104,136,178118,6,8,B|126:183|196:192,1,100
408,248,178484,2,0,B|385:200|316:192,1,100,4|4,0:0|0:0,0:0:0:0:
256,192,178850,1,8,0:0:0:0:
256,192,179033,1,8,0:0:0:0:
256,192,179216,1,4,0:0:0:0:
68,92,179581,21,8,0:0:0:0:
444,292,179947,1,4,0:0:0:0:
68,92,180313,1,8,0:0:0:0:
444,292,180679,1,4,0:0:0:0:
316,104,181045,6,8,B|412:48,1,100
196,280,181411,2,0,B|100:336,1,100,4|8,0:0|0:0,0:0:0:0:
232,160,181777,1,8,0:0:0:0:
280,224,181959,1,8,0:0:0:0:
232,160,182142,1,4,0:0:0:0:
76,292,182508,21,8,0:0:0:0:
76,292,182874,1,4,0:0:0:0:
436,92,183240,1,8,0:0:0:0:
436,92,183606,1,4,0:0:0:0:
332,248,183789,5,4,0:0:0:0:
332,248,183972,2,8,B|280:268|240:232,1,100
168,232,184338,2,0,B|176:176|227:160,1,100,4|4,0:0|0:0,0:0:0:0:
264,96,184703,2,8,B|307:131|296:183,1,100
296,184,185069,1,4,0:0:0:0:
164,320,185435,6,0,B|256:272|356:320,1,200,8|4,0:0|0:0,0:0:0:0:
52,216,186533,2,0,B|191:94|418:321|418:-35|256:-116|93:-35|93:321|320:94|458:214,1,800,8|4,0:0|0:0,0:0:0:0:
460,216,188362,5,10,0:0:0:0:
460,216,188728,1,4,0:0:0:0:
52,216,189094,1,8,0:0:0:0:
52,216,189459,1,4,0:0:0:0:
344,74,189825,6,8,B|328:72|328:104|328:104|328:168,1,100
167,74,190191,2,8,B|184:72|184:104|184:104|184:168,1,100,4|8,0:0|0:0,0:0:0:0:
160,280,190557,2,8,B|200:312|256:280|256:280|312:312|360:276,1,200,8|4,0:0|0:0,0:0:0:0:
408,88,191289,21,8,0:0:0:0:
361,353,191655,1,4,0:0:0:0:
95,306,192020,1,8,0:0:0:0:
142,41,192386,1,4,0:0:0:0:
256,52,192569,1,4,0:0:0:0:
256,52,192752,6,8,B|307:59|336:109,1,100
254,330,193118,2,0,B|200:320|174:273,1,100,4|4,0:0|0:0,0:0:0:0:
394,192,193484,2,8,B|384:248|337:273,1,100
116,190,193850,2,0,B|124:132|174:110,1,100,4|0,0:0|0:0,0:0:0:0:
172,112,194124,1,0,0:0:0:0:
173,112,194216,21,8,0:0:0:0:
312,276,194581,1,4,0:0:0:0:
256,64,194947,1,8,0:0:0:0:
200,276,195313,1,4,0:0:0:0:
432,272,195679,2,0,B|384:352|256:384|128:352|80:272,1,400,8|8,0:0|0:0,0:0:0:0:
80,112,196777,5,4,0:0:0:0:
80,112,197142,2,0,B|128:32|256:0|384:32|432:112,1,400,8|8,0:0|0:0,0:0:0:0:
432,272,198240,1,4,0:0:0:0:
432,272,198606,2,0,B|384:352|256:384|128:352|80:272,1,400,8|8,0:0|0:0,0:0:0:0:
80,112,199703,5,4,0:0:0:0:
80,112,199886,1,4,0:0:0:0:
112,136,199978,1,4,0:0:0:0:
152,136,200069,1,10,0:0:0:0:
136,56,200252,1,8,0:0:0:0:
272,24,200435,1,4,0:0:0:0:
232,160,200618,1,8,0:0:0:0:
168,216,200801,1,8,0:0:0:0:
88,208,200984,2,0,B|80:272|160:304,1,100,8|4,0:0|0:0,0:0:0:0:
132,290,201350,1,8,0:0:0:0:
216,280,201533,5,8,0:0:0:0:
280,336,201716,1,8,0:0:0:0:
360,328,201899,2,0,B|352:264|280:256,1,100,4|8,0:0|0:0,0:0:0:0:
248,192,202264,2,8,B|304:160|352:200,1,100
416,224,202630,1,4,0:0:0:0:
448,200,202722,1,4,0:0:0:0:
456,160,202813,1,4,0:0:0:0:
488,136,202905,1,4,0:0:0:0:
504,96,202996,22,0,B|448:96|416:40,1,100,10|8,0:0|0:0,0:0:0:0:
384,120,203362,2,0,B|350:81|350:81|302:82,1,100,4|8,0:0|0:0,0:0:0:0:
312,160,203728,1,8,0:0:0:0:
232,264,203911,1,8,0:0:0:0:
176,144,204094,1,4,0:0:0:0:
248,112,204277,1,8,0:0:0:0:
176,64,204459,6,8,B|120:64|96:128,1,100
24,104,204825,2,0,B|8:168|80:200,1,100,4|8,0:0|0:0,0:0:0:0:
72,272,205191,2,8,B|128:264|144:200,1,100
176,144,205557,1,4,0:0:0:0:
216,128,205649,1,4,0:0:0:0:
248,152,205740,1,4,0:0:0:0:
288,136,205831,1,4,0:0:0:0:
320,160,205923,21,10,0:0:0:0:
360,88,206106,1,8,0:0:0:0:
400,160,206289,1,4,0:0:0:0:
440,88,206472,1,8,0:0:0:0:
480,168,206655,2,0,B|440:272,1,100,0|8,0:0|0:0,0:0:0:0:
504,320,207020,2,0,B|384:360,1,100,4|8,0:0|0:0,0:0:0:0:
409,351,207386,5,8,0:0:0:0:
368,280,207569,1,8,0:0:0:0:
304,328,207752,1,4,0:0:0:0:
296,248,207935,1,8,0:0:0:0:
360,200,208118,1,8,0:0:0:0:
280,96,208301,1,8,0:0:0:0:
216,216,208484,5,4,0:0:0:0:
192,248,208575,1,4,0:0:0:0:
152,264,208667,1,4,0:0:0:0:
112,264,208758,1,4,0:0:0:0:
80,248,208850,1,12,0:0:0:0:
120,176,209033,1,8,0:0:0:0:
40,168,209216,1,4,0:0:0:0:
84,100,209399,1,8,0:0:0:0:
128,32,209581,1,8,0:0:0:0:
188,84,209764,1,8,0:0:0:0:
256,128,209947,1,4,0:0:0:0:
324,84,210130,1,0,0:0:0:0:
256,128,210313,5,0,0:0:0:0:
264,148,210405,1,0,0:0:0:0:
256,168,210496,1,8,0:0:0:0:
264,184,210588,1,8,0:0:0:0:
256,204,210679,5,4,0:0:0:0:
264,224,210770,1,4,0:0:0:0:
256,244,210862,1,4,0:0:0:0:
264,264,210953,1,4,0:0:0:0:
256,284,211045,5,0,0:0:0:0:
264,304,211136,1,0,0:0:0:0:
256,324,211228,1,0,0:0:0:0:
264,344,211319,1,0,0:0:0:0:
256,364,211411,1,6,0:0:0:0:
256,40,211777,21,4,0:0:0:0:
