osu file format v14

[General]
AudioFilename: Lucky Star.mp3
AudioLeadIn: 0
PreviewTime: 70910
Countdown: 0
SampleSet: Normal
StackLeniency: 0.7
Mode: 1
LetterboxInBreaks: 0
WidescreenStoryboard: 0

[Editor]
DistanceSpacing: 1.3
BeatDivisor: 4
GridSize: 32
TimelineZoom: 2.5

[Metadata]
Title:Lucky Star
TitleUnicode:Lucky Star
Artist:Avizura
ArtistUnicode:Avizura
Creator:Bearizm
Version:Ozzy's Oni
Source:
Tags:drum and bass dnb ep celcius recordings liquicity fort ozzyozrock
BeatmapID:770474
BeatmapSetID:130546

[Difficulty]
HPDrainRate:6
CircleSize:4
OverallDifficulty:6
ApproachRate:6
SliderMultiplier:1.4
SliderTickRate:2

[Events]
//Background and Video events
0,0,"BG Divine.jpg",0,0
//Break Periods
//Storyboard Layer 0 (Background)
//Storyboard Layer 1 (Fail)
//Storyboard Layer 2 (Pass)
//Storyboard Layer 3 (Foreground)
//Storyboard Sound Samples

[TimingPoints]
282,342.857142857143,4,1,0,90,1,0
27710,-133.333333333333,4,1,0,90,0,0
49653,-125,4,1,0,90,0,0
66110,-117.647058823529,4,1,0,90,0,0
67482,-111.111111111111,4,1,0,90,0,0
68853,-105.263157894737,4,1,0,90,0,0
71596,-100,4,1,0,90,0,1
93196,-100,4,1,0,90,0,0
93539,-80,4,1,0,90,0,1
109996,-80,4,1,0,90,0,0
111367,-133.333333333333,4,1,0,70,0,0

[HitObjects]
160,256,27710,5,0,0:0:0:0:
160,256,27882,1,0,0:0:0:0:
384,288,28053,1,8,0:0:0:0:
128,256,28224,1,0,0:0:0:0:
160,256,28396,1,0,0:0:0:0:
160,256,28567,1,0,0:0:0:0:
480,288,28739,1,8,0:0:0:0:
160,256,29082,5,0,0:0:0:0:
160,256,29254,1,0,0:0:0:0:
384,288,29425,1,8,0:0:0:0:
128,256,29596,1,0,0:0:0:0:
160,256,29768,1,0,0:0:0:0:
160,256,29939,1,0,0:0:0:0:
480,288,30111,1,8,0:0:0:0:
160,288,30453,1,0,0:0:0:0:
416,288,30624,1,8,0:0:0:0:
320,288,30795,1,8,0:0:0:0:
416,288,30967,1,8,0:0:0:0:
128,288,31138,1,0,0:0:0:0:
128,288,31310,1,0,0:0:0:0:
480,288,31481,1,8,0:0:0:0:
160,288,31825,1,0,0:0:0:0:
416,288,31996,1,8,0:0:0:0:
320,288,32167,1,8,0:0:0:0:
416,288,32339,1,8,0:0:0:0:
128,288,32510,1,0,0:0:0:0:
128,288,32682,1,0,0:0:0:0:
480,288,32853,1,8,0:0:0:0:
128,320,33196,1,0,0:0:0:0:
128,320,33367,1,0,0:0:0:0:
384,288,33539,1,8,0:0:0:0:
384,288,33710,1,8,0:0:0:0:
160,320,33882,1,0,0:0:0:0:
160,320,34053,1,0,0:0:0:0:
416,288,34225,1,8,0:0:0:0:
128,320,34567,1,0,0:0:0:0:
128,320,34738,1,0,0:0:0:0:
384,288,34910,1,8,0:0:0:0:
384,288,35081,1,8,0:0:0:0:
160,320,35253,1,0,0:0:0:0:
160,320,35424,1,0,0:0:0:0:
416,288,35596,1,8,0:0:0:0:
160,320,35939,5,0,0:0:0:0:
416,288,36111,1,8,0:0:0:0:
416,288,36282,5,8,0:0:0:0:
192,320,36454,1,0,0:0:0:0:
192,320,36625,1,0,0:0:0:0:
384,288,36797,1,8,0:0:0:0:
384,288,36968,1,8,0:0:0:0:
160,320,37310,5,0,0:0:0:0:
416,288,37482,1,8,0:0:0:0:
416,288,37653,1,8,0:0:0:0:
192,320,37825,1,0,0:0:0:0:
192,320,37996,1,0,0:0:0:0:
384,288,38168,1,8,0:0:0:0:
384,288,38339,1,8,0:0:0:0:
192,320,38682,5,0,0:0:0:0:
384,288,38853,1,0,0:0:0:0:
224,320,39025,5,8,0:0:0:0:
352,288,39196,1,0,0:0:0:0:
128,352,39368,1,8,0:0:0:0:
128,352,39539,1,0,0:0:0:0:
384,288,39710,1,8,0:0:0:0:
192,320,40054,5,0,0:0:0:0:
224,320,40225,1,0,0:0:0:0:
384,288,40397,1,8,0:0:0:0:
128,352,40568,1,0,0:0:0:0:
352,288,40740,1,8,0:0:0:0:
128,352,40911,1,0,0:0:0:0:
384,288,41082,1,8,0:0:0:0:
128,352,41424,5,0,0:0:0:0:
96,352,41596,1,0,0:0:0:0:
352,288,41767,5,8,0:0:0:0:
128,320,41939,1,0,0:0:0:0:
352,288,42110,1,8,0:0:0:0:
320,288,42281,1,8,0:0:0:0:
320,288,42453,1,8,0:0:0:0:
128,352,42795,5,0,0:0:0:0:
96,352,42967,1,0,0:0:0:0:
352,288,43138,1,8,0:0:0:0:
128,320,43310,1,0,0:0:0:0:
352,288,43481,1,8,0:0:0:0:
320,288,43652,1,8,0:0:0:0:
320,288,43824,1,8,0:0:0:0:
96,320,44167,5,0,0:0:0:0:
352,288,44338,1,8,0:0:0:0:
352,288,44510,5,8,0:0:0:0:
128,320,44681,1,0,0:0:0:0:
128,320,44852,1,0,0:0:0:0:
64,288,45024,1,0,0:0:0:0:
320,288,45195,1,8,0:0:0:0:
96,320,45539,5,0,0:0:0:0:
352,288,45710,1,8,0:0:0:0:
352,288,45882,1,8,0:0:0:0:
128,320,46053,1,0,0:0:0:0:
128,320,46224,1,0,0:0:0:0:
64,288,46396,1,0,0:0:0:0:
320,288,46567,1,8,0:0:0:0:
64,288,46910,1,0,0:0:0:0:
352,288,47253,5,8,0:0:0:0:
160,288,47767,1,0,0:0:0:0:
320,288,47939,1,8,0:0:0:0:
128,288,48282,1,0,0:0:0:0:
320,288,48624,1,8,0:0:0:0:
160,288,49139,1,0,0:0:0:0:
352,288,49310,1,8,0:0:0:0:
160,256,49653,5,0,0:0:0:0:
160,256,49739,1,0,0:0:0:0:
160,256,49825,1,0,0:0:0:0:
384,288,49996,1,8,0:0:0:0:
128,256,50167,1,0,0:0:0:0:
160,256,50339,1,0,0:0:0:0:
160,256,50510,1,0,0:0:0:0:
160,256,50596,1,0,0:0:0:0:
480,288,50682,1,8,0:0:0:0:
160,256,51025,5,0,0:0:0:0:
128,256,51110,1,0,0:0:0:0:
160,256,51197,1,0,0:0:0:0:
384,288,51368,1,8,0:0:0:0:
128,256,51539,1,0,0:0:0:0:
160,256,51711,1,0,0:0:0:0:
160,256,51882,1,0,0:0:0:0:
128,256,51967,1,0,0:0:0:0:
480,288,52054,1,8,0:0:0:0:
160,288,52396,1,0,0:0:0:0:
96,288,52482,1,0,0:0:0:0:
416,288,52567,1,8,0:0:0:0:
320,288,52738,1,8,0:0:0:0:
416,288,52910,1,8,0:0:0:0:
128,288,53081,1,0,0:0:0:0:
128,288,53253,1,0,0:0:0:0:
128,288,53339,1,0,0:0:0:0:
480,288,53424,1,8,0:0:0:0:
160,288,53768,1,0,0:0:0:0:
128,256,53853,1,0,0:0:0:0:
416,288,53939,1,8,0:0:0:0:
320,288,54110,1,8,0:0:0:0:
416,288,54282,1,8,0:0:0:0:
128,288,54453,1,0,0:0:0:0:
128,288,54625,1,0,0:0:0:0:
160,288,54710,1,0,0:0:0:0:
480,288,54796,1,8,0:0:0:0:
128,320,55139,1,0,0:0:0:0:
128,320,55224,1,0,0:0:0:0:
128,320,55310,1,0,0:0:0:0:
384,288,55482,1,8,0:0:0:0:
384,288,55653,1,8,0:0:0:0:
160,320,55825,1,0,0:0:0:0:
160,320,55996,1,0,0:0:0:0:
128,320,56082,1,0,0:0:0:0:
416,288,56168,1,8,0:0:0:0:
128,320,56510,1,0,0:0:0:0:
128,320,56596,1,0,0:0:0:0:
128,320,56681,1,0,0:0:0:0:
384,288,56853,1,8,0:0:0:0:
384,288,57024,1,8,0:0:0:0:
160,320,57196,1,0,0:0:0:0:
160,320,57367,1,0,0:0:0:0:
128,320,57453,1,0,0:0:0:0:
416,288,57539,1,8,0:0:0:0:
160,320,57882,5,0,0:0:0:0:
128,320,57967,1,0,0:0:0:0:
416,288,58054,1,8,0:0:0:0:
416,288,58225,5,8,0:0:0:0:
192,320,58397,1,0,0:0:0:0:
192,320,58568,1,0,0:0:0:0:
384,288,58740,1,8,0:0:0:0:
416,288,58824,1,8,0:0:0:0:
384,288,58911,1,8,0:0:0:0:
160,320,59253,5,0,0:0:0:0:
160,320,59339,1,0,0:0:0:0:
416,288,59425,1,8,0:0:0:0:
416,288,59596,1,8,0:0:0:0:
192,320,59768,1,0,0:0:0:0:
192,320,59939,1,0,0:0:0:0:
384,288,60111,1,8,0:0:0:0:
384,288,60196,1,8,0:0:0:0:
384,288,60282,1,8,0:0:0:0:
352,288,60453,1,8,0:0:0:0:
352,288,60539,1,8,0:0:0:0:
192,320,60625,5,0,0:0:0:0:
160,320,60710,1,0,0:0:0:0:
224,320,60796,1,0,0:0:0:0:
384,288,60968,5,8,0:0:0:0:
128,352,61139,1,0,0:0:0:0:
352,288,61311,1,8,0:0:0:0:
128,352,61482,1,0,0:0:0:0:
160,320,61567,1,0,0:0:0:0:
384,288,61653,1,8,0:0:0:0:
192,320,61997,5,0,0:0:0:0:
160,320,62082,1,0,0:0:0:0:
160,320,62168,1,0,0:0:0:0:
352,288,62340,1,8,0:0:0:0:
224,320,62510,1,0,0:0:0:0:
384,288,62683,1,8,0:0:0:0:
128,352,62854,1,0,0:0:0:0:
160,320,62939,1,0,0:0:0:0:
384,288,63025,1,8,0:0:0:0:
128,352,63367,5,0,0:0:0:0:
160,320,63453,1,0,0:0:0:0:
352,288,63539,1,8,0:0:0:0:
352,288,63710,5,8,0:0:0:0:
96,352,63882,1,0,0:0:0:0:
352,288,64053,1,8,0:0:0:0:
320,288,64224,1,8,0:0:0:0:
384,288,64310,1,8,0:0:0:0:
320,288,64396,1,8,0:0:0:0:
128,352,64738,5,0,0:0:0:0:
96,288,64824,1,0,0:0:0:0:
352,288,64910,1,8,0:0:0:0:
352,288,65081,1,8,0:0:0:0:
96,352,65253,1,0,0:0:0:0:
384,288,65424,1,8,0:0:0:0:
320,288,65595,1,8,0:0:0:0:
384,288,65682,1,8,0:0:0:0:
320,288,65767,1,8,0:0:0:0:
96,320,66110,5,0,0:0:0:0:
128,320,66196,1,0,0:0:0:0:
352,288,66281,1,8,0:0:0:0:
352,288,66453,5,8,0:0:0:0:
128,320,66624,1,0,0:0:0:0:
128,320,66795,1,0,0:0:0:0:
64,288,66967,1,0,0:0:0:0:
128,320,67053,1,0,0:0:0:0:
320,288,67138,1,8,0:0:0:0:
96,320,67310,1,0,0:0:0:0:
96,320,67482,5,0,0:0:0:0:
128,320,67567,1,0,0:0:0:0:
352,288,67653,1,8,0:0:0:0:
352,288,67825,1,8,0:0:0:0:
128,320,67996,1,0,0:0:0:0:
128,320,68167,1,0,0:0:0:0:
64,288,68339,1,0,0:0:0:0:
128,320,68424,1,0,0:0:0:0:
320,288,68510,1,8,0:0:0:0:
160,288,68682,1,0,0:0:0:0:
64,288,68853,1,0,0:0:0:0:
96,288,68939,1,0,0:0:0:0:
96,288,69024,1,0,0:0:0:0:
96,288,69110,1,0,0:0:0:0:
288,288,69196,1,8,0:0:0:0:
224,320,69282,1,0,0:0:0:0:
192,320,69367,1,0,0:0:0:0:
192,320,69539,1,0,0:0:0:0:
192,320,69624,1,0,0:0:0:0:
192,320,69710,1,0,0:0:0:0:
192,320,69796,1,0,0:0:0:0:
320,288,69882,1,8,0:0:0:0:
96,320,69967,1,0,0:0:0:0:
96,288,70053,1,0,0:0:0:0:
352,288,70224,1,8,0:0:0:0:
352,288,70310,1,8,0:0:0:0:
128,320,70482,1,0,0:0:0:0:
128,320,70567,1,0,0:0:0:0:
352,288,70739,1,8,0:0:0:0:
352,288,70824,1,8,0:0:0:0:
128,320,70996,1,0,0:0:0:0:
352,288,71082,1,8,0:0:0:0:
384,320,71253,1,8,0:0:0:0:
96,320,71424,1,0,0:0:0:0:
128,96,71596,1,4,0:0:0:0:
416,288,71939,1,8,0:0:0:0:
192,288,72110,1,0,0:0:0:0:
192,288,72196,1,0,0:0:0:0:
192,288,72282,1,0,0:0:0:0:
416,288,72367,1,8,0:0:0:0:
192,320,72453,1,0,0:0:0:0:
384,288,72624,1,8,0:0:0:0:
160,320,72796,1,0,0:0:0:0:
416,288,72882,1,8,0:0:0:0:
160,288,72967,1,0,0:0:0:0:
192,288,73139,1,0,0:0:0:0:
384,256,73310,1,8,0:0:0:0:
96,256,73482,1,0,0:0:0:0:
192,288,73567,1,0,0:0:0:0:
160,288,73653,1,0,0:0:0:0:
448,288,73739,1,8,0:0:0:0:
224,288,73824,1,0,0:0:0:0:
384,288,73996,1,8,0:0:0:0:
160,288,74339,1,0,0:0:0:0:
416,256,74682,1,8,0:0:0:0:
416,256,74853,1,8,0:0:0:0:
448,256,74939,1,8,0:0:0:0:
192,288,75024,1,0,0:0:0:0:
384,256,75110,1,8,0:0:0:0:
192,288,75196,1,0,0:0:0:0:
416,256,75367,1,8,0:0:0:0:
416,256,75539,1,8,0:0:0:0:
352,256,75624,1,8,0:0:0:0:
224,288,75710,1,0,0:0:0:0:
192,288,75882,1,0,0:0:0:0:
384,256,76053,1,8,0:0:0:0:
192,352,76224,1,8,0:0:0:0:
192,352,76310,1,8,0:0:0:0:
416,256,76396,1,0,0:0:0:0:
384,256,76482,1,8,0:0:0:0:
192,288,76567,1,0,0:0:0:0:
384,256,76739,1,8,0:0:0:0:
160,288,77082,1,0,0:0:0:0:
416,288,77424,1,8,0:0:0:0:
448,256,77596,1,8,0:0:0:0:
192,288,77682,1,0,0:0:0:0:
192,288,77767,1,0,0:0:0:0:
384,256,77853,1,8,0:0:0:0:
192,288,77939,1,0,0:0:0:0:
416,288,78110,1,8,0:0:0:0:
192,288,78282,1,0,0:0:0:0:
448,256,78367,1,8,0:0:0:0:
192,288,78453,1,0,0:0:0:0:
160,288,78624,1,0,0:0:0:0:
416,256,78796,1,8,0:0:0:0:
448,256,78967,1,8,0:0:0:0:
160,288,79053,1,0,0:0:0:0:
160,288,79139,1,0,0:0:0:0:
384,256,79224,1,8,0:0:0:0:
160,288,79310,1,0,0:0:0:0:
448,256,79482,1,8,0:0:0:0:
96,288,79824,1,0,0:0:0:0:
384,256,80167,1,8,0:0:0:0:
128,288,80339,1,0,0:0:0:0:
448,256,80424,1,8,0:0:0:0:
160,288,80510,1,0,0:0:0:0:
448,256,80596,1,8,0:0:0:0:
192,256,80682,1,0,0:0:0:0:
416,256,80853,1,8,0:0:0:0:
416,256,81024,1,8,0:0:0:0:
416,256,81110,1,8,0:0:0:0:
96,256,81196,1,0,0:0:0:0:
96,256,81367,1,0,0:0:0:0:
384,224,81539,1,8,0:0:0:0:
128,256,81710,1,0,0:0:0:0:
416,224,81796,1,8,0:0:0:0:
224,256,81882,1,0,0:0:0:0:
384,224,81967,1,8,0:0:0:0:
128,288,82053,1,0,0:0:0:0:
416,224,82224,1,8,0:0:0:0:
128,256,82567,1,0,0:0:0:0:
416,256,82910,1,8,0:0:0:0:
96,256,83082,1,0,0:0:0:0:
96,256,83167,1,0,0:0:0:0:
416,288,83253,1,8,0:0:0:0:
416,288,83339,1,8,0:0:0:0:
160,288,83424,1,0,0:0:0:0:
384,288,83596,1,8,0:0:0:0:
128,320,83767,1,0,0:0:0:0:
384,288,83853,1,8,0:0:0:0:
192,288,83939,1,0,0:0:0:0:
192,288,84110,1,0,0:0:0:0:
416,288,84282,1,8,0:0:0:0:
224,288,84453,1,0,0:0:0:0:
224,288,84539,1,0,0:0:0:0:
384,288,84624,1,8,0:0:0:0:
384,288,84710,1,8,0:0:0:0:
128,320,84796,1,0,0:0:0:0:
384,320,84967,1,8,0:0:0:0:
160,288,85310,1,0,0:0:0:0:
448,256,85653,1,8,0:0:0:0:
96,256,85825,1,0,0:0:0:0:
448,256,85910,1,8,0:0:0:0:
352,288,85996,1,8,0:0:0:0:
192,288,86082,1,0,0:0:0:0:
192,288,86167,1,0,0:0:0:0:
384,256,86339,1,8,0:0:0:0:
384,256,86510,1,8,0:0:0:0:
384,288,86596,1,8,0:0:0:0:
192,288,86682,1,0,0:0:0:0:
192,288,86853,1,0,0:0:0:0:
384,288,87025,1,8,0:0:0:0:
160,288,87196,1,0,0:0:0:0:
384,288,87282,1,8,0:0:0:0:
384,256,87367,1,8,0:0:0:0:
192,256,87453,1,0,0:0:0:0:
192,288,87539,1,0,0:0:0:0:
416,256,87710,1,8,0:0:0:0:
128,288,88053,1,0,0:0:0:0:
416,256,88396,1,8,0:0:0:0:
160,288,88567,1,0,0:0:0:0:
416,256,88653,1,8,0:0:0:0:
160,288,88739,1,0,0:0:0:0:
160,288,88824,1,0,0:0:0:0:
192,288,88910,1,0,0:0:0:0:
384,256,89082,1,8,0:0:0:0:
160,256,89253,1,0,0:0:0:0:
416,256,89339,1,8,0:0:0:0:
128,288,89424,1,0,0:0:0:0:
128,288,89596,1,0,0:0:0:0:
384,224,89767,1,8,0:0:0:0:
160,288,89939,1,0,0:0:0:0:
384,256,90024,1,8,0:0:0:0:
160,288,90110,1,0,0:0:0:0:
160,288,90196,1,0,0:0:0:0:
160,288,90282,1,0,0:0:0:0:
352,256,90453,1,8,0:0:0:0:
128,256,90796,1,0,0:0:0:0:
352,256,91139,1,8,0:0:0:0:
384,288,91310,1,8,0:0:0:0:
160,288,91396,1,0,0:0:0:0:
384,288,91482,1,8,0:0:0:0:
160,288,91567,1,0,0:0:0:0:
160,288,91653,1,0,0:0:0:0:
384,288,91824,1,8,0:0:0:0:
160,320,91996,1,0,0:0:0:0:
416,320,92082,1,8,0:0:0:0:
224,320,92167,1,0,0:0:0:0:
192,320,92339,1,0,0:0:0:0:
384,288,92510,1,8,0:0:0:0:
160,320,93024,1,0,0:0:0:0:
416,288,93196,1,8,0:0:0:0:
160,128,93539,1,4,0:0:0:0:
384,128,93710,1,12,0:0:0:0:
192,128,94053,1,4,0:0:0:0:
160,320,94396,1,0,0:0:0:0:
416,320,94567,1,8,0:0:0:0:
160,320,94739,1,0,0:0:0:0:
160,320,94824,1,0,0:0:0:0:
160,320,94910,1,0,0:0:0:0:
160,320,95082,1,0,0:0:0:0:
384,288,95253,1,8,0:0:0:0:
128,96,95596,1,4,0:0:0:0:
480,96,95939,1,12,0:0:0:0:
352,128,96110,1,12,0:0:0:0:
128,288,96282,1,0,0:0:0:0:
416,288,96624,1,8,0:0:0:0:
192,288,96796,1,0,0:0:0:0:
192,288,96882,1,0,0:0:0:0:
192,288,96967,1,0,0:0:0:0:
192,288,97139,1,0,0:0:0:0:
352,288,97310,1,8,0:0:0:0:
384,288,97481,1,8,0:0:0:0:
96,320,97653,1,0,0:0:0:0:
160,288,97824,1,0,0:0:0:0:
384,288,97996,1,8,0:0:0:0:
448,96,98339,1,12,0:0:0:0:
448,96,98510,1,12,0:0:0:0:
192,128,98682,1,4,0:0:0:0:
192,128,99024,1,4,0:0:0:0:
384,96,99196,1,12,0:0:0:0:
192,160,99539,1,4,0:0:0:0:
128,288,99882,1,0,0:0:0:0:
384,288,100053,1,8,0:0:0:0:
128,320,100224,1,0,0:0:0:0:
416,288,100310,1,8,0:0:0:0:
128,320,100396,1,0,0:0:0:0:
160,320,100567,1,0,0:0:0:0:
384,288,100739,1,8,0:0:0:0:
96,128,101082,1,4,0:0:0:0:
96,128,101424,1,4,0:0:0:0:
384,96,101767,1,12,0:0:0:0:
384,288,102110,1,8,0:0:0:0:
192,288,102282,1,0,0:0:0:0:
384,288,102367,1,8,0:0:0:0:
192,288,102453,1,0,0:0:0:0:
192,288,102624,1,0,0:0:0:0:
416,288,102796,1,8,0:0:0:0:
416,288,102967,1,8,0:0:0:0:
160,288,103139,1,0,0:0:0:0:
160,288,103310,1,0,0:0:0:0:
416,288,103482,1,8,0:0:0:0:
352,128,103824,1,12,0:0:0:0:
352,128,103996,1,12,0:0:0:0:
192,128,104167,1,4,0:0:0:0:
160,128,104510,1,4,0:0:0:0:
384,128,104681,1,12,0:0:0:0:
192,128,105024,1,4,0:0:0:0:
96,256,105367,1,0,0:0:0:0:
384,256,105539,1,8,0:0:0:0:
160,256,105710,1,0,0:0:0:0:
160,256,105796,1,0,0:0:0:0:
160,256,105882,1,0,0:0:0:0:
160,256,106053,1,0,0:0:0:0:
384,256,106224,1,8,0:0:0:0:
128,96,106567,5,4,0:0:0:0:
480,96,106910,1,12,0:0:0:0:
352,128,107081,1,12,0:0:0:0:
110,255,107253,1,0,0:0:0:0:
387,262,107596,1,8,0:0:0:0:
387,262,107767,1,8,0:0:0:0:
387,262,107853,1,8,0:0:0:0:
122,267,107939,1,0,0:0:0:0:
123,266,108110,1,0,0:0:0:0:
384,96,108282,1,12,0:0:0:0:
384,96,108453,1,12,0:0:0:0:
64,273,108796,1,0,0:0:0:0:
412,275,108967,1,8,0:0:0:0:
133,287,109139,1,0,0:0:0:0:
448,96,109310,1,12,0:0:0:0:
448,96,109481,1,12,0:0:0:0:
192,128,109653,1,4,0:0:0:0:
192,128,109995,1,4,0:0:0:0:
384,96,110167,1,12,0:0:0:0:
192,160,110510,1,4,0:0:0:0:
288,256,112053,1,8,0:0:0:0:
352,256,112224,1,8,0:0:0:0:
352,256,112396,1,8,0:0:0:0:
352,256,112567,1,8,0:0:0:0:
384,288,113767,1,8,0:0:0:0:
384,288,113939,1,8,0:0:0:0:
