osu file format v14

[General]
AudioFilename: Lucky Star.mp3
AudioLeadIn: 0
PreviewTime: 70910
Countdown: 0
SampleSet: Soft
StackLeniency: 0.7
Mode: 0
LetterboxInBreaks: 0
WidescreenStoryboard: 0

[Editor]
DistanceSpacing: 1
BeatDivisor: 4
GridSize: 4
TimelineZoom: 1.7

[Metadata]
Title:Lucky Star
TitleUnicode:Lucky Star
Artist:Avizura
ArtistUnicode:Avizura
Creator:Bearizm
Version:Normal
Source:
Tags:drum and bass dnb ep celcius recordings liquicity fort ozzyozrock
BeatmapID:757768
BeatmapSetID:130546

[Difficulty]
HPDrainRate:4
CircleSize:3.5
OverallDifficulty:4
ApproachRate:5
SliderMultiplier:1.1
SliderTickRate:1

[Events]
//Background and Video events
0,0,"BG Divine.jpg",0,0
//Break Periods
//Storyboard Layer 0 (Background)
//Storyboard Layer 1 (Fail)
//Storyboard Layer 2 (Pass)
//Storyboard Layer 3 (Foreground)
//Storyboard Sound Samples

[TimingPoints]
282,342.857142857143,4,2,1,40,1,0
27710,-100,4,2,1,40,0,0
49653,-100,4,2,1,60,0,0
60624,-100,4,2,1,70,0,0
66110,-100,4,2,1,80,0,0
71596,-100,4,2,1,90,0,1
93196,-100,4,2,1,90,0,0
93539,-100,4,2,1,90,0,1
109996,-100,4,2,1,5,0,0

[Colours]
Combo1 : 128,128,192
Combo2 : 192,192,192
Combo3 : 0,128,128
Combo4 : 128,128,255

[HitObjects]
432,316,27710,6,0,L|320:308,1,110,12|8,3:2|0:0,0:0:0:0:
232,248,28396,2,0,L|176:256,2,55,0|0|8,0:0|3:0|0:0,0:0:0:0:
324,188,29082,2,0,P|344:136|332:84,1,110,0|8,3:0|0:0,0:0:0:0:
238,26,29767,2,0,P|218:78|230:130,1,110,0|8,0:0|0:0,0:0:0:0:
224,184,30282,1,0,3:0:0:0:
224,184,30453,6,0,L|112:180,1,110,6|8,3:2|0:0,0:0:0:0:
56,272,31139,2,0,L|0:270,2,55,0|0|8,0:0|3:0|0:0,0:0:0:0:
164,276,31824,2,0,P|216:296|248:340,1,110,0|8,3:0|0:0,0:0:0:0:
356,356,32510,2,0,P|412:344|452:312,1,110,0|8,0:0|0:0,0:0:0:0:
476,264,33024,1,0,3:0:0:0:
476,264,33196,5,6,3:2:0:0:
364,244,33539,2,0,B|380:136|380:136|372:80,1,165,8|0,0:0|3:0,0:0:0:0:
356,28,34224,2,0,P|300:32|244:24,1,110,8|0,0:0|3:0,0:0:0:0:
140,54,34910,1,8,0:0:0:0:
91,152,35253,2,0,P|79:208|91:260,1,110,0|8,0:0|0:0,0:0:0:0:
136,360,35939,5,6,3:2:0:0:
212,280,36282,2,0,B|320:264|320:264|376:280,1,165,8|0,0:0|3:0,0:0:0:0:
420,248,36967,2,0,P|436:196|424:140,1,110,8|0,0:0|3:0,0:0:0:0:
344,68,37653,1,8,0:0:0:0:
232,68,37996,1,2,0:0:0:0:
232,68,38167,2,0,L|176:60,2,55,0|8|0,3:0|0:0|3:0,0:0:0:0:
268,112,38682,6,0,P|284:164|272:220,1,110,6|8,3:2|0:0,0:0:0:0:
168,248,39367,2,0,L|112:244,2,55,0|0|8,0:0|3:0|0:0,0:0:0:0:
202,352,40053,2,0,L|314:340,1,110,0|8,3:0|0:0,0:0:0:0:
400,276,40739,2,0,P|412:220|396:172,1,110,0|8,0:0|0:0,0:0:0:0:
360,128,41253,1,0,3:0:0:0:
360,128,41424,6,0,B|304:136|304:136|248:128,1,110,6|8,3:2|0:0,0:0:0:0:
156,72,42110,2,0,L|160:16,2,55,0|0|8,0:0|3:0|0:0,0:0:0:0:
68,136,42796,2,0,L|80:248,1,110,6|8,3:2|0:0,0:0:0:0:
176,296,43482,2,0,P|232:304|280:284,1,110,0|8,0:0|0:0,0:0:0:0:
316,244,43996,1,0,3:0:0:0:
316,244,44167,5,6,3:2:0:0:
416,292,44510,2,0,B|400:184|400:184|408:128,1,165,8|0,0:0|3:0,0:0:0:0:
428,76,45196,2,0,P|376:56|320:64,1,110,8|0,0:0|3:0,0:0:0:0:
212,52,45882,1,8,0:0:0:0:
104,76,46224,1,0,0:0:0:0:
104,76,46396,2,0,L|48:72,2,55,0|8|0,3:0|0:0|3:0,0:0:0:0:
152,104,46910,6,0,P|168:156|156:212,1,110,0|8,3:0|0:0,0:0:0:0:
68,276,47596,2,0,L|12:268,2,55,0|0|8,0:0|3:0|0:0,0:0:0:0:
156,344,48282,1,0,3:0:0:0:
248,284,48624,2,0,B|360:272|360:272|412:280,1,165,8|0,0:0|3:0,0:0:0:0:
464,292,49310,1,8,0:0:0:0:
508,192,49653,5,0,3:0:0:0:
424,120,49996,2,0,P|344:136|288:84,1,165,8|0,0:0|3:0,0:0:0:0:
272,32,50682,1,8,0:0:0:0:
164,36,51024,1,0,3:0:0:0:
70,93,51367,2,0,B|52:203|52:203|63:257,1,165,8|0,0:0|3:0,0:0:0:0:
84,308,52053,2,0,L|140:304,1,55,8|0,0:0|0:0,0:0:0:0:
193,300,52396,5,0,3:0:0:0:
204,192,52739,2,0,P|268:151|319:208,1,165,8|0,0:0|3:0,0:0:0:0:
320,264,53424,1,8,0:0:0:0:
428,280,53767,2,0,B|431:254|431:254|423:170,1,110,0|8,3:0|0:0,0:0:0:0:
364,76,54453,2,0,L|372:20,2,55,0|0|8,0:0|3:0|0:0,0:0:0:0:
264,128,55139,5,0,3:0:0:0:
160,92,55482,2,0,B|140:200|140:200|144:256,1,165,8|0,0:0|3:0,0:0:0:0:
156,308,56167,1,8,0:0:0:0:
240,236,56510,2,0,L|352:248,1,110,0|8,3:0|0:0,0:0:0:0:
444,192,57196,2,0,L|498:187,2,55,0|0|8,0:0|3:0|0:0,0:0:0:0:
404,88,57882,5,0,3:0:0:0:
308,32,58224,1,8,0:0:0:0:
200,60,58567,2,0,B|144:56|144:56|92:72,1,110,2|8,0:0|0:0,0:0:0:0:
32,164,59253,2,0,B|40:220|40:220|32:272,1,110,0|8,3:0|0:0,0:0:0:0:
56,324,59767,2,0,P|112:336|160:320,1,110,0|0,3:0|3:0,0:0:0:0:
204,284,60282,1,0,3:0:0:0:
268,196,60624,6,0,B|320:188|320:188|376:200,1,110,0|8,3:0|0:0,0:0:0:0:
452,280,61310,2,0,L|456:336,2,55,0|0|8,3:0|3:0|0:0,0:0:0:0:
484,176,61996,2,0,P|496:120|480:72,1,110,0|8,3:0|0:0,0:0:0:0:
388,12,62682,2,0,L|332:8,2,55,0|0|8,3:0|3:0|0:0,0:0:0:0:
388,124,63367,6,0,L|276:136,1,110,0|8,3:0|0:0,0:0:0:0:
188,196,64053,2,0,L|132:192,2,55,0|0|8,3:0|3:0|0:0,0:0:0:0:
268,272,64739,2,0,P|264:328|288:376,1,110,0|8,3:0|0:0,0:0:0:0:
372,304,65424,2,0,L|428:308,2,55,0|0|8,3:0|3:0|0:0,0:0:0:0:
348,196,66110,5,0,3:0:0:0:
412,108,66453,1,0,3:0:0:0:
328,36,66796,2,0,L|216:32,1,110,0|0,3:0|3:0,0:0:0:0:
160,124,67482,2,0,L|272:128,1,110,0|0,3:0|3:0,0:0:0:0:
360,188,68167,1,0,3:0:0:0:
292,276,68510,1,0,3:0:0:0:
256,192,68853,12,2,70224,3:0:0:0:
52,137,71596,5,4,1:0:0:0:
136,212,71939,2,0,B|244:196|244:196|300:204,1,165,8|0,1:0|1:0,0:0:0:0:
352,220,72624,1,8,1:0:0:0:
452,176,72967,2,0,P|464:120|448:72,1,110,0|8,1:0|1:0,0:0:0:0:
404,40,73482,2,0,L|348:32,1,55,2|2,0:0|0:0,0:0:0:0:
300,56,73824,2,0,L|244:60,1,55,0|8,1:0|1:0,0:0:0:0:
136,72,74339,5,0,1:0:0:0:
56,148,74682,2,0,B|68:204|68:204|60:256|60:256|72:312,1,165,8|0,1:0|1:0,0:0:0:0:
120,340,75367,1,8,1:0:0:0:
228,328,75710,1,0,1:0:0:0:
276,228,76053,2,0,B|302:222|330:226|356:237|356:237|370:261|390:279|421:287,1,165,8|0,1:0|1:0,0:0:0:0:
476,296,76739,1,8,1:0:0:0:
447,189,77082,5,0,1:0:0:0:
480,84,77424,2,0,B|368:96|368:96|312:84,1,165,8|0,1:0|1:0,0:0:0:0:
268,60,78110,1,8,1:0:0:0:
172,116,78453,2,0,B|168:200|168:200|160:224,1,110,0|8,1:0|1:0,0:0:0:0:
116,260,78967,2,0,L|60:252,2,55,2|2|0,0:0|0:0|1:0,0:0:0:0:
144,308,79482,1,8,1:0:0:0:
248,344,79824,5,0,1:0:0:0:
356,328,80167,1,8,1:0:0:0:
432,248,80510,2,0,L|488:256,2,55,2|0|8,0:0|1:0|1:0,0:0:0:0:
328,212,81196,2,0,P|312:160|324:104,1,110,0|8,1:0|1:0,0:0:0:0:
428,76,81882,2,0,L|484:72,2,55,2|0|8,0:0|1:0|1:0,0:0:0:0:
348,0,82567,5,0,1:0:0:0:
322,106,82910,2,0,B|280:112|240:88|240:88|196:88|164:120,1,165,8|0,1:0|1:0,0:0:0:0:
136,160,83596,1,8,1:0:0:0:
152,268,83939,2,0,L|264:256,1,110,0|8,1:0|1:0,0:0:0:0:
308,228,84453,1,2,0:0:0:0:
308,228,84624,2,0,L|364:236,2,55,2|0|8,0:0|1:0|1:0,0:0:0:0:
228,152,85310,5,0,1:0:0:0:
276,52,85653,2,0,B|332:44|332:44|440:60,1,165,8|0,1:0|1:0,0:0:0:0:
492,68,86339,1,8,1:0:0:0:
420,152,86682,1,0,1:0:0:0:
492,232,87024,2,0,P|508:288|496:340,2,110,8|2|8,1:0|0:0|1:0,0:0:0:0:
396,288,88053,5,0,1:0:0:0:
312,220,88396,2,0,B|272:200|232:216|232:216|188:200|152:216,1,165,8|0,1:0|1:0,0:0:0:0:
112,252,89082,2,0,L|120:364,2,110,8|0|8,1:0|1:0|1:0,0:0:0:0:
48,164,90110,2,0,L|20:212,2,55,2|0|8,0:0|1:0|1:0,0:0:0:0:
68,56,90796,5,0,1:0:0:0:
152,128,91139,2,0,B|264:140|264:140|316:124,1,165,8|0,1:0|1:0,0:0:0:0:
364,104,91824,2,0,P|332:180|368:248,1,165,8|0,1:0|1:0,0:0:0:0:
404,292,92510,2,0,B|348:288|348:288|296:300|296:300|240:296,1,165,8|0,1:0|1:0,0:0:0:0:
184,292,93196,1,8,1:0:0:0:
88,236,93539,5,4,1:0:0:0:
100,128,93882,2,0,P|168:88|240:124,1,165,8|0,1:0|1:0,0:0:0:0:
256,176,94567,2,0,L|248:288,2,110,8|0|8,1:0|1:0|1:0,0:0:0:0:
296,140,95424,2,0,L|292:84,2,55,2|2|0,0:0|0:0|1:0,0:0:0:0:
344,172,95939,1,8,1:0:0:0:
448,140,96282,5,0,1:0:0:0:
472,248,96624,2,0,B|364:280|364:280|312:280,1,165,8|0,1:0|1:0,0:0:0:0:
264,256,97310,2,0,P|244:204|256:148,1,110,8|0,1:0|1:0,0:0:0:0:
348,96,97996,2,0,P|297:120|205:76,1,165,8|0,1:0|1:0,0:0:0:0:
181,26,98682,1,8,1:0:0:0:
76,60,99024,6,0,L|84:172,1,110,0|8,1:0|1:0,0:0:0:0:
156,256,99710,2,0,L|144:312,2,55,2|0|8,0:0|1:0|1:0,0:0:0:0:
240,184,100396,2,0,P|296:172|348:184,1,110,0|8,1:0|1:0,0:0:0:0:
400,176,100910,2,0,L|412:120,2,55,2|2|0,0:0|0:0|1:0,0:0:0:0:
388,228,101424,1,8,1:0:0:0:
348,332,101767,5,0,1:0:0:0:
240,336,102110,1,8,1:0:0:0:
140,288,102453,2,0,L|84:284,2,55,2|0|8,0:0|1:0|1:0,0:0:0:0:
240,240,103139,2,0,P|252:184|236:136,1,110,0|8,1:0|1:0,0:0:0:0:
140,80,103824,2,0,L|148:24,2,55,2|0|8,0:0|1:0|1:0,0:0:0:0:
48,141,104510,5,0,1:0:0:0:
144,192,104853,2,0,B|256:180|256:180|308:192,1,165,8|0,1:0|1:0,0:0:0:0:
360,188,105539,2,0,P|392:140|392:88,2,110,8|0|8,1:0|1:0|1:0,0:0:0:0:
336,238,106396,2,0,L|344:292,2,55,2|2|0,0:0|0:0|1:0,0:0:0:0:
307,191,106910,1,8,1:0:0:0:
220,256,107253,5,0,1:0:0:0:
112,252,107596,1,8,1:0:0:0:
24,320,107939,2,0,L|16:376,2,55,2|0|8,0:0|1:0|1:0,0:0:0:0:
84,228,108624,1,0,1:0:0:0:
36,128,108967,1,8,1:0:0:0:
139,91,109310,2,0,L|147:35,2,55,2|0|8,0:0|1:0|1:0,0:0:0:0:
256,192,109996,12,0,115482,0:0:0:0:
