osu file format v14

[General]
AudioFilename: Lucky Star.mp3
AudioLeadIn: 0
PreviewTime: 70910
Countdown: 0
SampleSet: Soft
StackLeniency: 0.7
Mode: 0
LetterboxInBreaks: 0
WidescreenStoryboard: 0

[Editor]
DistanceSpacing: 1.2
BeatDivisor: 4
GridSize: 4
TimelineZoom: 1.7

[Metadata]
Title:Lucky Star
TitleUnicode:Lucky Star
Artist:Avizura
ArtistUnicode:Avizura
Creator:Bearizm
Version:Fort's Insane
Source:
Tags:drum and bass dnb ep celcius recordings liquicity fort ozzyozrock
BeatmapID:757984
BeatmapSetID:130546

[Difficulty]
HPDrainRate:6
CircleSize:4
OverallDifficulty:7
ApproachRate:9
SliderMultiplier:1.7
SliderTickRate:2

[Events]
//Background and Video events
0,0,"BG Divine.jpg",0,0
//Break Periods
//Storyboard Layer 0 (Background)
//Storyboard Layer 1 (Fail)
//Storyboard Layer 2 (Pass)
//Storyboard Layer 3 (Foreground)
//Storyboard Sound Samples

[TimingPoints]
282,342.857142857143,4,2,1,40,1,0
27710,-133.333333333333,4,2,1,40,0,0
49653,-133.333333333333,4,2,1,60,0,0
60624,-133.333333333333,4,2,1,70,0,0
66110,-100,4,2,1,80,0,0
71596,-100,4,2,1,90,0,1
93196,-100,4,2,1,90,0,0
93539,-100,4,2,1,90,0,1
109996,-100,4,2,1,5,0,0

[Colours]
Combo1 : 128,128,192
Combo2 : 192,192,192
Combo3 : 0,128,128
Combo4 : 128,128,255

[HitObjects]
124,71,27710,6,0,P|118:107|124:138,1,63.7500024318696,6|0,3:2|0:0,0:0:0:0:
152,204,28053,1,8,0:0:0:0:
108,264,28224,1,0,0:0:0:0:
108,264,28310,1,0,0:0:0:0:
108,264,28396,2,0,B|64:268|64:268|40:264,2,63.7500024318696,0|0|8,0:0|3:0|0:0,0:0:0:0:
224,164,29082,6,0,P|232:196|204:268,1,95.6250036478044,0|0,3:0|0:0,0:0:0:0:
204,268,29424,2,0,B|216:308|216:308|240:332,1,63.7500024318696,8|0,0:0|0:0,0:0:0:0:
231,323,29682,1,0,0:0:0:0:
231,323,29767,1,0,0:0:0:0:
300,288,29939,1,0,3:0:0:0:
368,320,30110,2,0,P|376:288|368:256,1,63.7500024318696,8|0,0:0|3:0,0:0:0:0:
296,116,30453,6,0,P|328:144|420:124,1,127.500004863739,6|8,3:2|0:0,0:0:0:0:
464,80,30967,1,0,0:0:0:0:
464,80,31053,1,0,0:0:0:0:
464,80,31139,2,0,B|468:48|468:48|456:16,2,63.7500024318696,0|0|8,0:0|3:0|0:0,0:0:0:0:
456,212,31824,6,0,P|448:248|460:304,1,95.6250036478044,0|0,3:0|0:0,0:0:0:0:
472,316,32167,1,8,0:0:0:0:
360,208,32339,2,0,P|368:172|376:156,2,31.8750012159348,0|0|0,0:0|0:0|0:0,0:0:0:0:
300,256,32682,1,0,3:0:0:0:
232,224,32853,2,0,L|152:216,1,63.7500024318696,8|0,0:0|3:0,0:0:0:0:
80,332,33196,6,0,L|160:340,1,63.7500024318696,6|0,3:2|0:0,0:0:0:0:
52,244,33539,1,8,0:0:0:0:
80,156,33710,1,0,0:0:0:0:
80,156,33796,1,0,0:0:0:0:
80,156,33882,2,0,P|84:120|72:80,2,63.7500024318696,0|0|8,0:0|3:0|0:0,0:0:0:0:
216,248,34567,6,0,B|248:252|248:252|276:244|276:244|336:252,1,95.6250036478044,0|0,3:0|0:0,0:0:0:0:
324,256,34910,2,0,P|332:296|328:324,1,63.7500024318696,8|0,0:0|0:0,0:0:0:0:
334,325,35167,1,0,0:0:0:0:
338,331,35253,1,0,0:0:0:0:
407,363,35424,1,0,3:0:0:0:
444,296,35596,2,0,P|444:256|436:224,1,63.7500024318696,8|0,0:0|3:0,0:0:0:0:
464,84,35939,6,0,P|444:120|352:120,1,127.500004863739,6|8,3:2|0:0,0:0:0:0:
304,80,36453,1,0,0:0:0:0:
304,80,36539,1,0,0:0:0:0:
304,80,36624,2,0,L|228:88,2,63.7500024318696,0|0|8,0:0|3:0|0:0,0:0:0:0:
64,44,37310,6,0,B|56:96|56:96|72:156,1,95.6250036478044,0|0,3:0|0:0,0:0:0:0:
72,152,37653,1,8,0:0:0:0:
52,260,37824,1,0,0:0:0:0:
52,260,37910,1,0,0:0:0:0:
52,260,37996,2,0,P|88:240|128:256,1,63.7500024318696,0|0,0:0|3:0,0:0:0:0:
236,144,38339,2,0,P|200:164|160:148,1,63.7500024318696,8|0,0:0|3:0,0:0:0:0:
268,312,38682,6,0,P|264:276|288:232,1,63.7500024318696,6|0,3:2|0:0,0:0:0:0:
320,192,39024,1,8,0:0:0:0:
368,251,39196,1,0,0:0:0:0:
375,258,39282,1,0,0:0:0:0:
382,267,39367,2,0,P|391:298|386:329,1,63.7500024318696,0|0,0:0|3:0,0:0:0:0:
320,156,39710,2,0,L|388:152,1,63.7500024318696,8|0,0:0|0:0,0:0:0:0:
200,40,40053,6,0,B|208:92|208:92|204:132|204:132|216:196,1,127.500004863739,0|8,3:0|0:0,0:0:0:0:
232,240,40567,1,0,0:0:0:0:
235,244,40653,1,0,0:0:0:0:
238,247,40739,1,0,0:0:0:0:
192,304,40910,1,0,3:0:0:0:
116,288,41082,2,0,P|116:324|128:352,1,63.7500024318696,8|0,0:0|3:0,0:0:0:0:
128,196,41424,6,0,B|80:204|80:204|0:184,1,127.500004863739,6|8,3:2|0:0,0:0:0:0:
164,120,41939,1,0,0:0:0:0:
164,120,42024,1,0,0:0:0:0:
164,120,42110,2,0,P|196:144|208:176,1,63.7500024318696,0|0,0:0|3:0,0:0:0:0:
72,128,42453,2,0,B|68:92|68:92|76:60,1,63.7500024318696,8|0,0:0|0:0,0:0:0:0:
100,36,42710,1,0,0:0:0:0:
132,16,42796,6,0,L|264:24,1,127.500004863739,6|8,3:2|0:0,0:0:0:0:
320,68,43310,1,0,0:0:0:0:
328,84,43396,1,0,0:0:0:0:
332,104,43482,1,0,0:0:0:0:
328,124,43567,1,0,0:0:0:0:
320,140,43653,1,0,3:0:0:0:
276,204,43824,2,0,L|284:280,1,63.7500024318696,8|0,0:0|3:0,0:0:0:0:
304,340,44167,6,0,P|268:316|216:328,1,95.6250036478044,6|0,3:2|0:0,0:0:0:0:
208,336,44510,2,0,B|184:348|184:348|144:344,1,63.7500024318696,8|0,0:0|0:0,0:0:0:0:
128,352,44767,1,0,0:0:0:0:
128,352,44853,1,0,0:0:0:0:
104,280,45024,1,0,3:0:0:0:
128,208,45196,2,0,P|136:176|128:132,1,63.7500024318696,8|0,0:0|0:0,0:0:0:0:
92,80,45539,6,0,P|128:96|184:80,1,95.6250036478044,0|0,3:0|0:0,0:0:0:0:
196,72,45882,1,8,0:0:0:0:
244,128,46053,1,0,0:0:0:0:
136,16,46224,1,0,0:0:0:0:
312,84,46396,2,0,P|324:116|320:156,1,63.7500024318696,0|8,3:0|0:0,0:0:0:0:
292,216,46739,1,0,3:0:0:0:
244,276,46910,6,0,B|240:308|240:308|248:352,1,63.7500024318696,0|0,3:0|0:0,0:0:0:0:
204,200,47253,2,0,P|180:184|160:120,1,95.6250036478044,8|0,0:0|0:0,0:0:0:0:
164,104,47596,1,0,0:0:0:0:
244,128,47767,1,0,3:0:0:0:
144,264,47939,1,8,0:0:0:0:
168,336,48110,1,0,0:0:0:0:
68,300,48282,6,0,P|60:272|68:228,1,63.7500024318696,0|0,3:0|0:0,0:0:0:0:
36,168,48624,2,0,P|60:192|128:176,1,95.6250036478044,8|0,0:0|0:0,0:0:0:0:
132,176,48967,1,0,0:0:0:0:
232,276,49139,1,0,3:0:0:0:
280,144,49310,1,8,0:0:0:0:
276,152,49653,6,0,B|364:144|364:144|408:156,1,127.500004863739,6|8,3:2|0:0,0:0:0:0:
428,228,50167,2,0,P|456:212|472:112,1,127.500004863739,0|0,0:0|3:0,0:0:0:0:
344,224,50682,2,0,P|344:256|356:288,1,63.7500024318696,8|0,0:0|0:0,0:0:0:0:
248,232,51024,6,0,B|160:240|160:240|116:228,1,127.500004863739,0|8,3:0|0:0,0:0:0:0:
96,156,51539,2,0,P|68:172|56:280,1,127.500004863739,0|0,0:0|3:0,0:0:0:0:
180,160,52053,2,0,P|180:128|168:96,1,63.7500024318696,8|0,0:0|3:0,0:0:0:0:
100,68,52396,5,0,3:0:0:0:
160,20,52567,1,0,0:0:0:0:
236,28,52739,2,0,L|376:44,1,127.500004863739,8|0,0:0|0:0,0:0:0:0:
436,60,53253,1,0,3:0:0:0:
328,188,53424,2,0,P|320:168|320:124,1,63.7500024318696,8|0,0:0|0:0,0:0:0:0:
484,188,53767,6,0,P|484:216|456:280,1,95.6250036478044,0|0,3:0|0:0,0:0:0:0:
440,288,54110,2,0,B|404:284|404:284|372:292,1,63.7500024318696,8|0,0:0|0:0,0:0:0:0:
364,300,54367,1,0,0:0:0:0:
364,300,54453,1,0,0:0:0:0:
296,264,54624,1,0,3:0:0:0:
244,320,54796,2,0,P|224:300|220:256,1,63.7500024318696,8|0,0:0|3:0,0:0:0:0:
224,120,55139,6,0,P|192:144|112:116,1,127.500004863739,0|8,3:0|0:0,0:0:0:0:
96,44,55653,2,0,L|28:40,1,63.7500024318696,0|0,0:0|0:0,0:0:0:0:
240,88,55996,1,0,3:0:0:0:
48,176,56167,2,0,P|48:204|56:240,1,63.7500024318696,8|0,0:0|0:0,0:0:0:0:
248,236,56510,6,0,P|252:264|240:336,1,95.6250036478044,0|0,3:0|0:0,0:0:0:0:
232,344,56853,2,0,L|304:332,1,63.7500024318696,8|0,0:0|0:0,0:0:0:0:
408,304,57196,1,0,0:0:0:0:
224,216,57367,1,0,3:0:0:0:
356,212,57539,2,0,P|360:184|352:148,1,63.7500024318696,8|0,0:0|3:0,0:0:0:0:
304,64,57882,6,0,P|356:104|416:80,1,127.500004863739,0|8,3:0|0:0,0:0:0:0:
476,44,58396,1,0,0:0:0:0:
232,112,58567,2,0,P|220:84|220:48,1,63.7500024318696,2|0,0:0|3:0,0:0:0:0:
320,196,58910,2,0,P|320:228|308:260,1,63.7500024318696,8|0,0:0|0:0,0:0:0:0:
224,348,59253,6,0,L|92:332,1,127.500004863739,0|8,3:0|0:0,0:0:0:0:
212,260,59767,2,0,L|80:244,1,127.500004863739,0|0,3:0|3:0,0:0:0:0:
146,92,60282,2,0,P|150:120|150:160,1,63.7500024318696,0|0,3:0|3:0,0:0:0:0:
146,164,60539,1,0,3:0:0:0:
138,172,60624,6,0,P|130:144|142:36,1,127.500004863739,0|8,3:0|0:0,0:0:0:0:
206,12,61139,2,0,L|274:24,1,63.7500024318696
272,164,61482,1,0,3:0:0:0:
344,136,61653,2,0,P|352:164|344:200,1,63.7500024318696,8|0,0:0|0:0,0:0:0:0:
220,280,61996,6,0,P|240:272|280:280,1,63.7500024318696,0|0,3:0|0:0,0:0:0:0:
436,328,62339,2,0,P|416:336|376:328,1,63.7500024318696,8|2,0:0|0:0,0:0:0:0:
248,352,62682,1,2,0:0:0:0:
408,256,62853,1,0,3:0:0:0:
248,352,63024,1,8,0:0:0:0:
488,208,63196,1,0,0:0:0:0:
488,208,63367,6,0,B|480:180|456:164|456:164|444:128|464:84,1,127.500004863739,0|8,3:0|0:0,0:0:0:0:
496,28,63882,1,2,0:0:0:0:
383,101,64053,2,0,P|376:132|380:164,1,63.7500024318696,2|0,3:2|3:0,0:0:0:0:
420,20,64396,1,8,0:0:0:0:
303,175,64567,2,0,P|314:205|332:232,1,63.7500024318696,2|0,0:0|3:0,0:0:0:0:
484,260,64910,2,0,P|473:289|455:316,1,63.7500024318696,2|8,0:0|0:0,0:0:0:0:
356,360,65253,1,2,0:0:0:0:
356,360,65339,1,0,0:0:0:0:
356,360,65424,1,2,3:2:0:0:
244,308,65596,1,0,3:0:0:0:
216,192,65767,2,0,P|216:160|232:124,1,63.7500024318696,8|2,0:0|0:0,0:0:0:0:
408,72,66110,5,0,3:0:0:0:
344,152,66282,1,2,3:2:0:0:
292,64,66453,2,0,L|208:48,1,85,0|2,3:0|3:2,0:0:0:0:
360,176,66796,2,0,L|444:160,1,85,2|0,3:2|3:0,0:0:0:0:
268,296,67139,2,0,L|184:280,1,85,0|2,3:0|3:2,0:0:0:0:
100,336,67482,5,0,3:0:0:0:
116,236,67653,1,2,3:2:0:0:
96,136,67824,2,0,L|8:116,1,85,0|2,3:0|3:2,0:0:0:0:
160,44,68167,2,0,L|248:24,1,85,2|0,3:2|3:0,0:0:0:0:
316,184,68510,2,0,L|228:164,1,85,0|2,3:0|3:2,0:0:0:0:
392,128,68853,5,0,3:0:0:0:
408,148,68939,1,0,3:0:0:0:
416,172,69024,1,0,3:0:0:0:
416,196,69110,1,0,3:0:0:0:
404,220,69196,2,0,B|388:248|388:248|384:272,3,42.5,0|0|0|0,3:0|3:0|3:0|3:0,0:0:0:0:
380,284,69539,5,0,3:0:0:0:
368,316,69624,1,0,3:0:0:0:
340,336,69710,1,0,3:0:0:0:
308,340,69796,1,0,3:0:0:0:
276,324,69882,1,0,3:0:0:0:
256,296,69967,1,0,3:0:0:0:
228,276,70053,1,0,3:0:0:0:
192,272,70139,1,0,3:0:0:0:
160,284,70224,1,2,3:0:0:0:
256,192,70310,12,4,71253,3:0:0:0:
68,216,71596,5,4,1:0:0:0:
112,124,71767,2,0,P|144:140|200:144,1,85,2|8,0:0|1:0,0:0:0:0:
288,112,72110,1,2,0:0:0:0:
288,112,72196,1,0,0:0:0:0:
288,112,72282,2,0,P|296:76|288:24,1,85,2|0,0:0|1:0,0:0:0:0:
244,212,72624,1,8,1:0:0:0:
316,284,72796,2,0,L|404:276,1,85,2|0,0:0|1:0,0:0:0:0:
164,256,73139,2,0,L|76:248,1,85,2|8,0:0|1:0,0:0:0:0:
264,192,73482,1,2,0:0:0:0:
216,332,73653,1,2,0:0:0:0:
176,152,73824,1,0,1:0:0:0:
340,248,73996,1,8,1:0:0:0:
88,164,74339,6,0,P|92:128|196:60,1,170,0|8,1:0|1:0,0:0:0:0:
296,84,74853,1,2,0:0:0:0:
296,84,74939,1,0,0:0:0:0:
296,84,75024,2,0,P|336:100|388:92,1,85,2|0,0:0|1:0,0:0:0:0:
472,52,75367,1,8,1:0:0:0:
368,208,75539,2,0,P|364:240|368:296,1,85,2|0,0:0|1:0,0:0:0:0:
488,164,75882,2,0,P|492:132|488:76,1,85,2|8,0:0|1:0,0:0:0:0:
348,16,76224,1,2,0:0:0:0:
232,152,76396,2,0,L|252:324,1,170,2|8,0:0|1:0,0:0:0:0:
64,56,77082,5,0,1:0:0:0:
152,108,77253,2,0,P|180:112|248:88,1,85,2|8,0:0|1:0,0:0:0:0:
64,160,77596,1,2,0:0:0:0:
64,160,77682,1,0,0:0:0:0:
64,160,77767,2,0,P|80:192|132:224,1,85,2|0,0:0|1:0,0:0:0:0:
68,308,78110,1,8,1:0:0:0:
256,168,78282,2,0,P|264:200|264:260,1,85,2|0,0:0|1:0,0:0:0:0:
192,348,78624,2,0,P|184:316|184:256,1,85,2|8,0:0|1:0,0:0:0:0:
356,224,78967,1,2,0:0:0:0:
292,324,79139,1,2,0:0:0:0:
156,204,79310,1,0,1:0:0:0:
404,168,79482,1,8,1:0:0:0:
100,268,79824,6,0,P|136:284|240:212,1,170,0|8,1:0|1:0,0:0:0:0:
260,120,80339,1,2,0:0:0:0:
260,120,80424,1,0,0:0:0:0:
260,120,80510,2,0,L|240:24,1,85,2|0,0:0|1:0,0:0:0:0:
156,204,80853,1,8,1:0:0:0:
68,156,81024,2,0,L|76:64,1,85,2|0,0:0|1:0,0:0:0:0:
280,140,81367,2,0,L|272:48,1,85,2|8,0:0|1:0,0:0:0:0:
168,216,81710,1,2,0:0:0:0:
168,216,81796,1,0,0:0:0:0:
168,216,81882,1,2,0:0:0:0:
260,256,82053,1,0,1:0:0:0:
356,228,82224,1,8,1:0:0:0:
160,304,82567,5,0,1:0:0:0:
256,344,82739,2,0,L|344:336,1,85,2|8,0:0|1:0,0:0:0:0:
88,352,83082,1,2,0:0:0:0:
88,352,83167,1,0,0:0:0:0:
88,352,83253,2,0,P|72:316|80:260,1,85,2|0,0:0|1:0,0:0:0:0:
120,180,83596,1,8,1:0:0:0:
36,52,83767,2,0,L|44:148,1,85,2|0,0:0|1:0,0:0:0:0:
184,324,84110,2,0,L|192:228,1,85,2|8,0:0|1:0,0:0:0:0:
208,88,84453,1,2,0:0:0:0:
136,156,84624,1,2,0:0:0:0:
280,180,84796,1,0,1:0:0:0:
196,104,84967,2,0,L|200:0,1,85,8|2,1:0|0:0,0:0:0:0:
356,40,85310,6,0,B|352:128|352:128|363:170|363:170|364:224,1,170,0|8,1:0|1:0,0:0:0:0:
316,300,85824,1,2,0:0:0:0:
316,300,85910,1,0,0:0:0:0:
316,300,85996,2,0,P|284:276|264:232,1,85,2|0,0:0|1:0,0:0:0:0:
440,120,86339,1,8,1:0:0:0:
456,220,86510,2,0,L|436:308,1,85,2|0,0:0|1:0,0:0:0:0:
272,148,86853,2,0,L|180:160,1,85,2|8,0:0|1:0,0:0:0:0:
88,180,87196,1,2,0:0:0:0:
88,180,87282,1,0,0:0:0:0:
88,180,87367,1,2,0:0:0:0:
176,288,87539,1,0,1:0:0:0:
48,292,87710,1,8,1:0:0:0:
236,228,88053,5,0,1:0:0:0:
208,360,88224,2,0,P|180:368|124:348,1,85,2|8,0:0|1:0,0:0:0:0:
260,196,88567,2,0,B|268:248|268:248|280:280,1,85,2|2,0:0|0:0,0:0:0:0:
120,196,88910,1,0,1:0:0:0:
180,116,89082,1,8,1:0:0:0:
120,36,89253,2,0,L|32:32,1,85,2|0,0:0|1:0,0:0:0:0:
300,116,89596,2,0,P|308:84|304:28,1,85,2|8,0:0|1:0,0:0:0:0:
188,128,89939,1,2,0:0:0:0:
368,224,90110,2,0,L|456:216,2,85,2|0|8,0:0|1:0|1:0,0:0:0:0:
320,312,90624,1,2,0:0:0:0:
320,312,90796,5,0,1:0:0:0:
276,220,90967,1,2,0:0:0:0:
412,316,91139,1,8,1:0:0:0:
232,292,91310,1,2,0:0:0:0:
232,292,91396,1,0,0:0:0:0:
232,292,91482,2,0,P|196:252|236:140,1,170,2|8,0:0|1:0,0:0:0:0:
421,172,91996,2,0,P|454:246|411:315,1,170,2|0,0:0|1:0,0:0:0:0:
316,352,92510,1,8,1:0:0:0:
368,56,92853,5,2,0:0:0:0:
388,156,93024,1,0,1:0:0:0:
292,116,93196,1,8,1:0:0:0:
288,136,93539,5,4,1:0:0:0:
256,232,93710,2,0,L|276:320,1,85,2|8,0:0|1:0,0:0:0:0:
188,152,94053,2,0,P|160:160|96:140,1,85,2|2,0:0|0:0,0:0:0:0:
284,156,94396,1,0,1:0:0:0:
152,80,94567,1,8,1:0:0:0:
364,76,94739,2,0,P|376:104|368:160,1,85,2|0,0:0|1:0,0:0:0:0:
176,288,95082,2,0,L|80:272,1,85,2|8,0:0|1:0,0:0:0:0:
376,248,95424,1,2,0:0:0:0:
324,336,95596,1,2,0:0:0:0:
356,212,95767,1,0,1:0:0:0:
424,352,95939,1,8,1:0:0:0:
272,264,96110,1,2,0:0:0:0:
464,268,96282,6,0,P|472:236|432:96,1,170,0|8,1:0|1:0,0:0:0:0:
496,20,96796,1,2,0:0:0:0:
336,120,96967,2,0,B|300:128|300:128|236:124,1,85,2|0,0:0|1:0,0:0:0:0:
288,28,97310,1,8,1:0:0:0:
168,184,97482,2,0,P|164:216|168:280,2,85,2|0|2,0:0|1:0|0:0,0:0:0:0:
192,84,97996,1,8,1:0:0:0:
248,248,98167,1,2,0:0:0:0:
64,172,98339,1,2,0:0:0:0:
256,152,98510,1,0,1:0:0:0:
108,96,98682,1,8,1:0:0:0:
292,336,99024,5,0,1:0:0:0:
192,320,99196,2,0,P|168:308|104:312,1,85,2|8,0:0|1:0,0:0:0:0:
224,228,99539,1,2,0:0:0:0:
304,164,99710,2,0,L|404:172,1,85,2|0,0:0|1:0,0:0:0:0:
432,264,100053,1,8,1:0:0:0:
492,184,100224,2,0,P|496:144|468:88,1,85,2|0,0:0|1:0,0:0:0:0:
256,184,100567,1,2,0:0:0:0:
280,56,100739,1,8,1:0:0:0:
364,136,100910,1,2,0:0:0:0:
184,40,101082,2,0,P|159:47|111:87,1,85,2|0,0:0|1:0,0:0:0:0:
88,280,101424,2,0,P|112:272|160:232,1,85,8|2,1:0|0:0,0:0:0:0:
232,176,101767,5,0,1:0:0:0:
212,320,101939,1,0,0:0:0:0:
296,248,102110,1,8,1:0:0:0:
128,288,102282,1,2,0:0:0:0:
364,300,102453,2,0,P|376:268|364:204,1,85,2|0,0:0|1:0,0:0:0:0:
324,128,102796,2,0,L|340:36,1,85,8|2,1:0|0:0,0:0:0:0:
480,160,103139,2,0,L|464:252,1,85,0|2,1:0|0:0,0:0:0:0:
312,136,103482,2,0,L|304:44,1,85,8|2,1:0|0:0,0:0:0:0:
428,56,103824,2,0,L|440:236,1,170,2|8,0:0|1:0,0:0:0:0:
204,76,104510,5,0,1:0:0:0:
220,176,104682,2,0,L|232:272,1,85,2|8,0:0|1:0,0:0:0:0:
136,136,105024,1,2,0:0:0:0:
280,108,105196,2,0,P|288:80|268:24,1,85,2|0,0:0|1:0,0:0:0:0:
120,52,105539,1,8,1:0:0:0:
328,172,105710,2,0,P|360:144|376:96,1,85,2|0,0:0|1:0,0:0:0:0:
136,136,106053,2,0,P|112:200|120:252,1,85,2|8,0:0|1:0,0:0:0:0:
120,316,106396,1,2,0:0:0:0:
208,368,106567,2,0,L|304:352,1,85,2|0,0:0|1:0,0:0:0:0:
392,328,106910,1,8,1:0:0:0:
488,364,107082,1,2,0:0:0:0:
500,264,107253,6,0,P|504:232|476:96,1,170,0|8,1:0|1:0,0:0:0:0:
400,32,107767,1,2,0:0:0:0:
300,40,107939,2,0,L|212:60,1,85,2|0,0:0|1:0,0:0:0:0:
360,172,108282,1,8,1:0:0:0:
260,144,108453,2,0,P|248:184|256:240,1,85,2|0,0:0|1:0,0:0:0:0:
324,296,108796,1,2,0:0:0:0:
324,296,108967,1,8,1:0:0:0:
136,196,109139,1,2,0:0:0:0:
344,192,109310,1,2,0:0:0:0:
224,276,109482,1,0,1:0:0:0:
256,112,109653,1,8,1:0:0:0:
256,192,109996,12,0,115482,0:0:0:0:
