osu file format v14

[General]
AudioFilename: Lucky Star.mp3
AudioLeadIn: 0
PreviewTime: 70910
Countdown: 0
SampleSet: Soft
StackLeniency: 0.7
Mode: 0
LetterboxInBreaks: 0
WidescreenStoryboard: 0

[Editor]
DistanceSpacing: 0.5
BeatDivisor: 4
GridSize: 4
TimelineZoom: 1.7

[Metadata]
Title:Lucky Star
TitleUnicode:Lucky Star
Artist:Avizura
ArtistUnicode:Avizura
Creator:Bearizm
Version:Divine
Source:
Tags:drum and bass dnb ep celcius recordings liquicity fort ozzyozrock
BeatmapID:724474
BeatmapSetID:130546

[Difficulty]
HPDrainRate:6.5
CircleSize:4.2
OverallDifficulty:9
ApproachRate:9.2
SliderMultiplier:2
SliderTickRate:2

[Events]
//Background and Video events
0,0,"BG Divine.jpg",0,0
//Break Periods
//Storyboard Layer 0 (Background)
//Storyboard Layer 1 (Fail)
//Storyboard Layer 2 (Pass)
//Storyboard Layer 3 (Foreground)
//Storyboard Sound Samples

[TimingPoints]
282,342.857142857143,4,2,1,40,1,0
27710,-133.333333333333,4,2,1,40,0,0
49310,-200,4,2,1,40,0,0
49396,-200,4,2,1,5,0,0
49653,-133.333333333333,4,2,1,60,0,0
60624,-133.333333333333,4,2,1,70,0,0
66110,-100,4,2,1,80,0,0
71596,-100,4,2,1,90,0,1
93196,-200,4,2,1,90,0,0
93282,-200,4,2,1,5,0,0
93539,-100,4,2,1,90,0,1
109996,-100,4,2,1,5,0,0

[Colours]
Combo1 : 128,128,192
Combo2 : 192,192,192
Combo3 : 0,128,128
Combo4 : 128,128,255

[HitObjects]
164,92,27710,5,6,3:2:0:0:
96,140,27882,2,0,L|88:214,1,75.0000028610231,0|8,0:0|0:0,0:0:0:0:
128,288,28224,1,0,0:0:0:0:
192,340,28396,1,0,0:0:0:0:
248,280,28567,1,0,3:0:0:0:
184,228,28739,1,8,0:0:0:0:
176,352,28910,1,0,0:0:0:0:
272,276,29082,6,0,L|348:268,2,75.0000028610231,0|0|8,3:0|0:0|0:0,0:0:0:0:
192,248,29596,1,0,0:0:0:0:
181,232,29681,1,0,0:0:0:0:
173,215,29767,1,0,0:0:0:0:
170,197,29853,1,0,0:0:0:0:
170,178,29938,1,0,3:0:0:0:
228,116,30110,1,8,0:0:0:0:
84,200,30282,1,0,3:0:0:0:
248,196,30453,6,0,L|324:204,1,75.0000028610231,6|0,3:2|0:0,0:0:0:0:
372,136,30796,1,8,0:0:0:0:
404,212,30967,1,0,0:0:0:0:
384,120,31139,1,0,0:0:0:0:
460,151,31310,1,0,3:0:0:0:
500,80,31482,2,0,P|496:40|484:8,1,75.0000028610231,8|0,0:0|0:0,0:0:0:0:
452,172,31824,6,0,L|460:252,1,75.0000028610231,0|0,3:0|0:0,0:0:0:0:
416,316,32167,1,8,0:0:0:0:
352,264,32339,1,0,0:0:0:0:
334,258,32424,1,0,0:0:0:0:
315,256,32510,1,0,0:0:0:0:
296,256,32596,1,0,0:0:0:0:
278,259,32681,1,0,3:0:0:0:
196,248,32853,1,8,0:0:0:0:
310,341,33024,1,0,3:0:0:0:
184,236,33196,6,0,L|192:160,1,75.0000028610231,6|0,3:2|0:0,0:0:0:0:
152,88,33539,1,8,0:0:0:0:
208,148,33710,1,0,0:0:0:0:
264,88,33882,1,0,0:0:0:0:
208,28,34053,1,0,3:0:0:0:
191,161,34224,1,8,0:0:0:0:
136,100,34396,1,0,0:0:0:0:
280,104,34567,5,0,3:0:0:0:
272,188,34739,1,0,0:0:0:0:
264,268,34910,1,8,0:0:0:0:
340,236,35082,1,0,0:0:0:0:
358,239,35167,1,0,0:0:0:0:
377,240,35253,1,0,0:0:0:0:
395,237,35339,1,0,0:0:0:0:
413,232,35424,1,0,3:0:0:0:
374,159,35596,1,8,0:0:0:0:
456,300,35767,1,0,3:0:0:0:
360,140,35939,5,6,3:2:0:0:
300,196,36110,2,0,L|296:276,1,75.0000028610231,0|8,0:0|0:0,0:0:0:0:
236,328,36453,1,0,0:0:0:0:
188,260,36624,1,0,0:0:0:0:
224,344,36796,1,0,3:0:0:0:
100,284,36967,2,0,P|100:244|112:212,1,75.0000028610231,8|0,0:0|0:0,0:0:0:0:
188,176,37310,5,0,3:0:0:0:
144,108,37482,1,0,0:0:0:0:
112,211,37653,1,8,0:0:0:0:
43,166,37824,1,0,0:0:0:0:
43,147,37909,1,0,0:0:0:0:
44,128,37995,1,0,0:0:0:0:
45,109,38081,1,0,0:0:0:0:
46,91,38166,1,0,3:0:0:0:
107,33,38339,1,8,0:0:0:0:
34,72,38510,1,0,3:0:0:0:
160,168,38682,5,6,3:2:0:0:
241,181,38853,2,0,P|245:141|245:105,1,75.0000028610231,0|8,0:0|0:0,0:0:0:0:
240,24,39196,1,0,0:0:0:0:
316,52,39367,1,0,0:0:0:0:
388,16,39539,1,0,3:0:0:0:
344,84,39710,1,8,0:0:0:0:
380,160,39882,1,0,0:0:0:0:
344,236,40053,6,0,P|352:276|364:308,1,75.0000028610231,0|0,3:0|0:0,0:0:0:0:
436,352,40396,1,8,0:0:0:0:
500,260,40567,1,0,0:0:0:0:
502,241,40652,1,0,0:0:0:0:
503,222,40738,1,0,0:0:0:0:
504,203,40824,1,0,0:0:0:0:
504,185,40909,1,0,3:0:0:0:
424,92,41082,1,8,0:0:0:0:
504,184,41253,1,0,3:0:0:0:
400,108,41424,6,0,P|364:120|328:124,1,75.0000028610231,6|0,3:2|0:0,0:0:0:0:
256,84,41767,1,8,0:0:0:0:
308,148,41939,1,0,0:0:0:0:
292,228,42110,1,0,0:0:0:0:
212,248,42282,1,0,3:0:0:0:
296,248,42453,2,0,P|332:256|368:272,1,75.0000028610231,8|0,0:0|0:0,0:0:0:0:
184,240,42796,6,0,P|160:212|144:176,1,75.0000028610231,6|0,3:2|0:0,0:0:0:0:
160,96,43139,1,8,0:0:0:0:
44,160,43310,1,0,0:0:0:0:
48,178,43395,1,0,0:0:0:0:
52,196,43481,1,0,0:0:0:0:
54,215,43567,1,0,0:0:0:0:
55,233,43652,1,0,3:0:0:0:
192,264,43824,2,0,L|196:188,1,75.0000028610231,8|0,0:0|3:0,0:0:0:0:
144,320,44167,6,0,P|180:292|272:320,1,150.000005722046,6|8,3:2|0:0,0:0:0:0:
352,336,44682,1,0,0:0:0:0:
368,256,44853,1,0,0:0:0:0:
336,180,45024,1,0,3:0:0:0:
388,244,45196,1,8,0:0:0:0:
468,256,45367,1,0,0:0:0:0:
460,340,45539,5,0,3:0:0:0:
488,240,45710,2,0,P|488:200|480:164,1,75.0000028610231,0|8,0:0|0:0,0:0:0:0:
412,120,46053,1,0,0:0:0:0:
393,123,46138,1,0,0:0:0:0:
374,124,46224,1,0,0:0:0:0:
356,121,46310,1,0,0:0:0:0:
338,116,46395,1,0,3:0:0:0:
260,140,46567,1,8,0:0:0:0:
280,60,46739,1,0,3:0:0:0:
240,156,46910,6,0,P|244:196|256:232,2,75.0000028610231,0|0|8,3:0|0:0|0:0,0:0:0:0:
188,92,47424,1,0,0:0:0:0:
108,72,47596,1,0,0:0:0:0:
28,96,47767,1,0,3:0:0:0:
48,16,47939,1,8,0:0:0:0:
108,72,48110,1,0,0:0:0:0:
88,152,48282,5,0,3:0:0:0:
148,208,48453,2,0,P|144:248|136:284,1,75.0000028610231,0|8,0:0|0:0,0:0:0:0:
200,336,48796,1,0,0:0:0:0:
218,331,48881,1,0,0:0:0:0:
236,327,48967,1,0,0:0:0:0:
255,326,49053,1,0,0:0:0:0:
273,327,49138,1,0,3:0:0:0:
340,260,49310,6,0,L|328:184,1,75,8|0,0:0|0:0,0:0:0:0:
322,160,49653,5,6,3:2:0:0:
208,156,49824,2,0,P|172:144|140:124,1,75.0000028610231,0|8,0:0|0:0,0:0:0:0:
28,144,50167,1,0,0:0:0:0:
21,171,50252,1,0,0:0:0:0:
18,199,50338,1,0,0:0:0:0:
19,227,50424,1,0,0:0:0:0:
23,255,50509,1,0,3:0:0:0:
136,356,50682,2,0,L|212:344,1,75.0000028610231,8|0,0:0|0:0,0:0:0:0:
288,264,51024,5,0,3:0:0:0:
176,268,51196,1,0,0:0:0:0:
216,136,51367,1,8,0:0:0:0:
300,244,51539,1,0,0:0:0:0:
326,254,51624,1,0,0:0:0:0:
354,255,51710,1,0,0:0:0:0:
380,247,51796,1,0,0:0:0:0:
404,231,51881,1,0,3:0:0:0:
460,132,52053,1,8,0:0:0:0:
480,280,52224,1,0,3:0:0:0:
448,108,52396,6,0,P|456:72|472:36,1,75.0000028610231,0|0,3:0|0:0,0:0:0:0:
364,76,52739,1,8,0:0:0:0:
260,116,52910,1,0,0:0:0:0:
232,110,52995,1,0,0:0:0:0:
206,100,53081,1,0,0:0:0:0:
181,86,53167,1,0,0:0:0:0:
160,68,53252,1,0,3:0:0:0:
60,120,53424,2,0,P|52:156|56:196,1,75.0000028610231,8|0,0:0|0:0,0:0:0:0:
168,216,53767,5,0,3:0:0:0:
116,316,53939,1,0,0:0:0:0:
72,212,54110,1,8,0:0:0:0:
116,340,54282,1,0,0:0:0:0:
34,274,54453,1,0,0:0:0:0:
36,251,54539,1,0,0:0:0:0:
38,228,54624,1,0,3:0:0:0:
124,168,54796,1,8,0:0:0:0:
116,316,54967,1,0,3:0:0:0:
120,152,55139,6,0,P|108:116|84:84,1,75.0000028610231,0|0,3:0|0:0,0:0:0:0:
178,21,55482,1,8,0:0:0:0:
232,144,55653,1,0,0:0:0:0:
255,129,55738,1,0,0:0:0:0:
282,122,55824,1,0,0:0:0:0:
310,122,55910,1,0,0:0:0:0:
337,130,55995,1,0,3:0:0:0:
448,104,56167,2,0,P|468:72|476:36,1,75.0000028610231,8|0,0:0|0:0,0:0:0:0:
360,148,56510,6,0,L|368:224,1,75.0000028610231,0|0,3:0|0:0,0:0:0:0:
380,336,56853,1,8,0:0:0:0:
284,276,57024,1,0,0:0:0:0:
284,276,57110,1,0,0:0:0:0:
284,276,57196,2,0,P|248:284|216:304,1,75.0000028610231,0|0,0:0|3:0,0:0:0:0:
384,244,57539,2,0,P|420:252|460:252,1,75.0000028610231,8|0,0:0|3:0,0:0:0:0:
356,320,57882,6,0,L|360:168,1,150.000005722046,0|8,3:0|0:0,0:0:0:0:
296,76,58396,1,0,0:0:0:0:
208,148,58567,2,0,L|132:160,1,75.0000028610231,0|0,0:0|3:0,0:0:0:0:
296,76,58910,2,0,L|372:88,1,75.0000028610231,8|0,0:0|0:0,0:0:0:0:
256,140,59253,6,0,P|284:72|240:16,1,150.000005722046,0|8,3:0|0:0,0:0:0:0:
84,88,59767,2,0,P|96:124|120:156,1,75.0000028610231,0|0,3:0|0:0,0:0:0:0:
184,244,60110,1,0,3:0:0:0:
158,354,60282,1,0,3:0:0:0:
136,168,60453,1,0,3:0:0:0:
136,168,60539,1,0,3:0:0:0:
136,168,60624,6,0,L|288:172,1,150.000005722046,0|8,3:0|0:0,0:0:0:0:
392,128,61139,1,0,0:0:0:0:
396,121,61224,1,0,0:0:0:0:
400,114,61310,2,0,L|396:76,1,37.5000014305115
484,44,61482,1,0,3:0:0:0:
496,208,61653,6,0,L|416:204,1,75.0000028610231,8|0,0:0|0:0,0:0:0:0:
328,224,61996,2,0,L|404:216,1,75.0000028610231,0|0,3:0|0:0,0:0:0:0:
500,192,62339,1,8,0:0:0:0:
488,288,62510,1,2,0:0:0:0:
487,297,62595,1,0,0:0:0:0:
486,306,62681,1,2,3:2:0:0:
485,315,62767,1,0,0:0:0:0:
484,325,62852,1,0,3:0:0:0:
308,300,63024,6,0,L|232:312,1,75.0000028610231,8|2,0:0|0:0,0:0:0:0:
124,280,63367,2,0,L|200:292,1,75.0000028610231,0|2,3:0|0:0,0:0:0:0:
312,284,63710,1,8,0:0:0:0:
364,192,63882,1,2,0:0:0:0:
360,173,63967,1,0,0:0:0:0:
355,154,64053,1,2,3:2:0:0:
351,135,64139,1,0,0:0:0:0:
347,116,64224,1,0,3:0:0:0:
212,200,64396,6,0,L|220:124,1,75.0000028610231,8|2,0:0|0:0,0:0:0:0:
152,8,64739,2,0,L|159:83,1,75.0000028610231,0|2,3:0|0:0,0:0:0:0:
192,208,65082,1,8,0:0:0:0:
44,160,65253,1,2,0:0:0:0:
46,187,65338,1,0,0:0:0:0:
49,215,65424,1,2,3:2:0:0:
52,243,65510,1,0,0:0:0:0:
55,271,65595,1,0,3:0:0:0:
160,211,65767,1,8,0:0:0:0:
156,324,65939,1,2,0:0:0:0:
144,176,66110,5,0,3:0:0:0:
228,184,66282,1,2,3:2:0:0:
292,136,66453,1,0,3:0:0:0:
304,56,66624,1,2,3:2:0:0:
228,88,66796,5,2,3:2:0:0:
292,136,66967,1,0,3:0:0:0:
372,128,67139,1,0,3:0:0:0:
428,68,67310,1,2,3:2:0:0:
348,52,67482,5,0,3:0:0:0:
372,128,67653,1,2,3:2:0:0:
448,148,67824,1,0,3:0:0:0:
504,92,67996,1,2,3:2:0:0:
428,68,68167,5,2,3:2:0:0:
448,148,68339,1,0,3:0:0:0:
396,208,68510,1,0,3:0:0:0:
420,284,68682,1,2,3:2:0:0:
332,372,68853,5,0,3:0:0:0:
331,358,68939,1,0,3:0:0:0:
330,344,69025,1,0,3:0:0:0:
329,330,69110,1,0,3:0:0:0:
356,288,69196,5,0,3:0:0:0:
357,274,69282,1,0,3:0:0:0:
358,260,69368,1,0,3:0:0:0:
359,246,69453,1,0,3:0:0:0:
332,204,69539,5,0,3:0:0:0:
331,190,69625,1,0,3:0:0:0:
330,176,69710,1,0,3:0:0:0:
329,162,69796,1,0,3:0:0:0:
360,120,69882,5,0,3:0:0:0:
361,106,69968,1,0,3:0:0:0:
362,92,70053,1,0,3:0:0:0:
363,78,70139,1,0,3:0:0:0:
339,33,70225,5,2,3:0:0:0:
335,13,70310,1,2,3:0:0:0:
232,185,70482,5,8,3:0:0:0:
212,193,70567,1,4,3:0:0:0:
410,161,70739,5,2,3:0:0:0:
425,173,70824,1,2,3:0:0:0:
440,185,70910,1,4,3:0:0:0:
335,13,71082,5,2,3:0:0:0:
328,103,71253,1,4,3:0:0:0:
322,192,71425,1,0,1:0:0:0:
148,300,71596,5,4,1:0:0:0:
52,200,71767,2,0,L|60:100,1,100,2|8,0:0|1:0,0:0:0:0:
180,184,72110,1,2,0:0:0:0:
24,288,72282,1,2,0:0:0:0:
164,316,72453,1,0,1:0:0:0:
112,144,72624,1,8,1:0:0:0:
76,352,72796,1,2,0:0:0:0:
112,144,72967,6,0,L|100:44,1,100,0|2,1:0|0:0,0:0:0:0:
84,24,73224,1,0,0:0:0:0:
84,24,73310,1,8,1:0:0:0:
29,204,73482,1,2,0:0:0:0:
56,230,73567,1,0,0:0:0:0:
91,244,73653,1,2,0:0:0:0:
128,244,73739,1,0,0:0:0:0:
163,231,73824,1,0,1:0:0:0:
360,116,73996,2,0,L|348:16,1,100,8|2,1:0|0:0,0:0:0:0:
512,196,74339,6,0,B|412:188|412:188|364:204,1,150,0|0,1:0|0:0,0:0:0:0:
364,203,74682,1,8,1:0:0:0:
200,88,74853,1,2,0:0:0:0:
165,102,74938,1,0,0:0:0:0:
128,105,75024,1,2,0:0:0:0:
93,94,75110,1,0,0:0:0:0:
63,72,75195,1,0,1:0:0:0:
16,164,75367,1,8,1:0:0:0:
140,19,75539,1,2,0:0:0:0:
236,152,75710,5,0,1:0:0:0:
11,188,75882,1,2,0:0:0:0:
11,188,75967,1,0,0:0:0:0:
11,188,76053,1,8,1:0:0:0:
228,228,76224,1,2,0:0:0:0:
250,257,76309,1,0,0:0:0:0:
260,293,76395,1,2,0:0:0:0:
256,330,76481,1,0,0:0:0:0:
239,364,76566,1,0,1:0:0:0:
0,288,76739,2,0,L|12:188,1,100,8|2,1:0|0:0,0:0:0:0:
144,40,77082,5,0,1:0:0:0:
264,108,77253,2,0,L|364:96,1,100,2|8,0:0|1:0,0:0:0:0:
232,24,77596,1,2,0:0:0:0:
176,176,77767,2,0,L|188:276,1,100,2|0,0:0|1:0,0:0:0:0:
288,196,78110,1,8,1:0:0:0:
88,148,78282,1,2,0:0:0:0:
176,312,78453,6,0,L|274:299,1,100,0|2,1:0|0:0,0:0:0:0:
300,304,78710,1,0,0:0:0:0:
300,304,78796,1,8,1:0:0:0:
476,328,78967,1,2,0:0:0:0:
460,294,79052,1,0,0:0:0:0:
452,257,79139,2,0,L|464:208,1,50,2|0,0:0|0:0,0:0:0:0:
496,128,79310,1,0,1:0:0:0:
332,24,79482,2,0,L|328:124,1,100,8|0,1:0|0:0,0:0:0:0:
452,257,79824,6,0,P|408:232|320:264,1,150,0|0,1:0|0:0,0:0:0:0:
304,284,80167,2,0,P|268:320|220:340,1,100,8|2,1:0|0:0,0:0:0:0:
28,168,80510,6,0,L|36:68,1,100,2|0,0:0|1:0,0:0:0:0:
208,140,80853,2,0,L|216:240,1,100,8|2,1:0|0:0,0:0:0:0:
20,148,81196,6,0,L|28:48,1,100,0|2,1:0|0:0,0:0:0:0:
220,160,81539,2,0,L|228:260,1,100,8|2,1:0|0:0,0:0:0:0:
12,128,81882,6,0,L|20:28,1,100,2|0,0:0|1:0,0:0:0:0:
232,180,82224,2,0,L|240:280,1,100,8|2,1:0|0:0,0:0:0:0:
4,108,82567,5,0,1:0:0:0:
120,20,82739,2,0,L|220:28,1,100,2|8,0:0|1:0,0:0:0:0:
328,208,83082,1,2,0:0:0:0:
328,24,83253,1,2,0:0:0:0:
184,116,83424,1,0,1:0:0:0:
400,152,83596,1,8,1:0:0:0:
240,248,83767,1,2,0:0:0:0:
248,36,83939,5,0,1:0:0:0:
108,192,84110,2,0,L|56:200,2,50,2|0|8,0:0|0:0|1:0,0:0:0:0:
332,120,84453,1,2,0:0:0:0:
351,152,84538,1,0,0:0:0:0:
362,187,84624,1,2,0:0:0:0:
364,225,84710,1,0,0:0:0:0:
356,261,84795,1,0,1:0:0:0:
208,144,84967,1,8,1:0:0:0:
440,96,85139,1,2,0:0:0:0:
356,261,85310,5,0,1:0:0:0:
316,36,85482,1,2,0:0:0:0:
316,36,85567,1,0,0:0:0:0:
316,36,85653,1,8,1:0:0:0:
425,285,85824,1,2,0:0:0:0:
392,267,85909,1,0,0:0:0:0:
356,261,85995,1,2,0:0:0:0:
318,265,86081,1,0,0:0:0:0:
284,280,86166,1,0,1:0:0:0:
144,192,86339,1,8,1:0:0:0:
348,136,86510,1,2,0:0:0:0:
352,368,86682,5,0,1:0:0:0:
504,192,86853,1,2,0:0:0:0:
504,192,86939,1,0,0:0:0:0:
504,192,87024,1,8,1:0:0:0:
280,200,87196,1,2,0:0:0:0:
260,168,87281,1,0,0:0:0:0:
254,131,87367,1,2,0:0:0:0:
263,95,87453,1,0,0:0:0:0:
286,65,87538,1,0,1:0:0:0:
100,136,87710,2,0,L|0:116,1,100,8|2,1:0|0:0,0:0:0:0:
152,24,88053,5,0,1:0:0:0:
188,200,88224,2,0,L|176:300,1,100,2|8,0:0|1:0,0:0:0:0:
322,318,88567,1,2,0:0:0:0:
506,236,88739,1,2,0:0:0:0:
308,194,88910,1,0,1:0:0:0:
444,344,89082,1,8,1:0:0:0:
423,143,89253,1,2,0:0:0:0:
240,296,89424,5,0,1:0:0:0:
444,344,89596,1,2,0:0:0:0:
440,319,89682,1,0,0:0:0:0:
436,294,89767,1,8,1:0:0:0:
300,172,89939,1,2,0:0:0:0:
300,172,90024,1,0,0:0:0:0:
300,172,90110,2,0,L|304:120,1,50,2|0,0:0|0:0,0:0:0:0:
320,16,90282,1,0,1:0:0:0:
388,228,90453,1,8,1:0:0:0:
196,80,90624,1,2,0:0:0:0:
396,60,90796,5,0,1:0:0:0:
240,228,90967,1,2,0:0:0:0:
238,248,91053,1,0,0:0:0:0:
236,268,91139,1,8,1:0:0:0:
56,184,91310,1,2,0:0:0:0:
45,148,91395,1,0,0:0:0:0:
45,110,91481,1,2,0:0:0:0:
55,75,91567,1,0,0:0:0:0:
76,43,91652,1,0,1:0:0:0:
276,28,91824,5,8,1:0:0:0:
352,212,91996,1,2,0:0:0:0:
349,249,92081,1,0,0:0:0:0:
346,286,92167,1,2,0:0:0:0:
343,324,92253,1,0,0:0:0:0:
340,361,92338,1,0,1:0:0:0:
144,248,92510,5,8,1:0:0:0:
268,88,92682,1,2,0:0:0:0:
299,67,92767,1,0,0:0:0:0:
335,59,92853,1,2,0:0:0:0:
372,66,92939,1,0,0:0:0:0:
403,87,93024,1,0,1:0:0:0:
464,316,93196,6,0,L|456:240,1,75,8|0,1:0|0:0,0:0:0:0:
452,216,93539,5,4,1:0:0:0:
305,272,93710,2,0,L|205:268,1,100,2|8,0:0|1:0,0:0:0:0:
100,132,94053,1,2,0:0:0:0:
260,184,94224,1,2,0:0:0:0:
112,300,94396,1,0,1:0:0:0:
176,88,94567,1,8,1:0:0:0:
205,268,94739,1,2,0:0:0:0:
32,192,94910,5,0,1:0:0:0:
108,340,95082,1,2,0:0:0:0:
110,320,95167,1,0,0:0:0:0:
112,300,95253,1,8,1:0:0:0:
260,184,95424,1,2,0:0:0:0:
256,146,95509,1,0,0:0:0:0:
252,109,95595,1,2,0:0:0:0:
248,72,95681,1,0,0:0:0:0:
244,34,95766,1,0,1:0:0:0:
72,140,95939,2,0,L|176:144,1,100,8|2,1:0|0:0,0:0:0:0:
340,212,96282,6,0,L|188:228,1,150,0|0,1:0|0:0,0:0:0:0:
190,227,96624,1,8,1:0:0:0:
28,348,96796,2,0,L|32:296,1,50,2|0,0:0|0:0,0:0:0:0:
116,236,96967,2,0,L|108:184,1,50,2|0,0:0|0:0,0:0:0:0:
20,136,97139,1,0,1:0:0:0:
108,316,97310,2,0,L|208:306,1,100,8|2,1:0|0:0,0:0:0:0:
396,224,97653,5,0,1:0:0:0:
256,124,97824,1,2,0:0:0:0:
256,124,97910,1,0,0:0:0:0:
256,124,97996,1,8,1:0:0:0:
278,313,98167,1,2,0:0:0:0:
277,323,98253,1,0,0:0:0:0:
276,333,98339,1,2,0:0:0:0:
275,342,98424,1,0,0:0:0:0:
274,352,98510,1,0,1:0:0:0:
408,204,98682,2,0,L|396:104,1,100,8|2,1:0|0:0,0:0:0:0:
208,28,99024,5,0,1:0:0:0:
112,132,99196,2,0,L|12:124,1,100,2|8,0:0|1:0,0:0:0:0:
164,220,99539,1,2,0:0:0:0:
80,40,99710,1,2,0:0:0:0:
4,228,99882,1,0,1:0:0:0:
72,20,100053,1,8,1:0:0:0:
100,192,100224,1,2,0:0:0:0:
236,112,100396,6,0,B|184:104|184:104|136:108,1,100,0|2,1:0|0:0,0:0:0:0:
112,112,100653,1,0,0:0:0:0:
112,112,100739,1,8,1:0:0:0:
168,324,100910,2,0,L|160:272,1,50,2|0,0:0|0:0,0:0:0:0:
284,224,101082,2,0,L|291:174,2,50,2|0|0,0:0|0:0|1:0,0:0:0:0:
400,336,101424,2,0,B|448:328|448:328|500:336,1,100,8|2,1:0|0:0,0:0:0:0:
512,88,101767,6,0,P|476:122|384:106,1,150,0|0,1:0|0:0,0:0:0:0:
365,89,102110,2,0,P|316:67|266:70,1,100,8|2,1:0|0:0,0:0:0:0:
48,124,102453,6,0,L|56:224,1,100,2|0,0:0|1:0,0:0:0:0:
260,332,102796,2,0,L|264:228,1,100,8|2,1:0|0:0,0:0:0:0:
60,132,103139,6,0,L|68:232,1,100,0|2,1:0|0:0,0:0:0:0:
252,324,103482,2,0,L|256:220,1,100,8|2,1:0|0:0,0:0:0:0:
72,140,103824,6,0,L|80:240,1,100,2|0,0:0|1:0,0:0:0:0:
244,316,104167,2,0,L|248:212,1,100,8|2,1:0|0:0,0:0:0:0:
84,148,104510,5,0,1:0:0:0:
236,196,104682,2,0,B|288:188|288:188|328:160,1,100,2|8,0:0|1:0,0:0:0:0:
176,120,105024,1,2,0:0:0:0:
328,256,105196,1,2,0:0:0:0:
232,48,105367,1,0,1:0:0:0:
164,248,105539,1,8,1:0:0:0:
326,160,105710,1,2,0:0:0:0:
84,148,105882,5,0,1:0:0:0:
232,48,106053,1,2,0:0:0:0:
232,48,106139,1,0,0:0:0:0:
232,48,106224,1,8,1:0:0:0:
272,284,106396,1,2,0:0:0:0:
301,306,106481,1,0,0:0:0:0:
337,314,106567,1,2,0:0:0:0:
373,304,106653,1,0,0:0:0:0:
401,279,106738,1,0,1:0:0:0:
316,88,106910,1,8,1:0:0:0:
336,232,107082,1,2,0:0:0:0:
388,24,107253,5,0,1:0:0:0:
504,224,107424,1,2,0:0:0:0:
504,224,107510,1,0,0:0:0:0:
504,224,107596,1,8,1:0:0:0:
472,68,107767,1,2,0:0:0:0:
446,95,107852,1,0,0:0:0:0:
413,111,107938,1,2,0:0:0:0:
376,114,108024,1,0,0:0:0:0:
340,103,108109,1,0,1:0:0:0:
336,232,108282,1,8,1:0:0:0:
388,24,108453,1,2,0:0:0:0:
248,136,108624,5,0,1:0:0:0:
480,108,108796,1,2,0:0:0:0:
476,88,108882,1,0,0:0:0:0:
472,68,108967,1,8,1:0:0:0:
184,76,109139,1,2,0:0:0:0:
167,109,109224,1,0,0:0:0:0:
163,146,109310,1,2,0:0:0:0:
173,182,109396,1,0,0:0:0:0:
196,212,109481,1,0,1:0:0:0:
268,52,109653,1,8,1:0:0:0:
256,192,109996,12,0,115482,0:0:0:0:
