osu file format v12

[General]
AudioFilename: Wake Me Up.mp3
AudioLeadIn: 0
PreviewTime: 53877
Countdown: 0
SampleSet: Soft
StackLeniency: 0.7
Mode: 0
LetterboxInBreaks: 1
WidescreenStoryboard: 0

[Editor]
DistanceSpacing: 1
BeatDivisor: 4
GridSize: 4

[Metadata]
Title:Wake Me Up
TitleUnicode:Wake Me Up
Artist:Avicii
ArtistUnicode:Avicii
Creator:SuperMICrophone
Version:Insane
Source:
Tags:techno dubstep electronic house phaZ
BeatmapID:283897
BeatmapSetID:108633

[Difficulty]
HPDrainRate:7
CircleSize:4
OverallDifficulty:7
ApproachRate:8
SliderMultiplier:2.1
SliderTickRate:1

[Events]
//Background and Video events
0,0,"don-t-wake-me-up.jpg",0,0
//Break Periods
2,70290,79986
2,178678,189340
//Storyboard Layer 0 (Background)
//Storyboard Layer 1 (Fail)
//Storyboard Layer 2 (Pass)
//Storyboard Layer 3 (Foreground)
//Storyboard Sound Samples
//Background Colour Transformations
3,100,163,162,255

[TimingPoints]
6220,483.870967741935,4,2,0,60,1,0
10816,-100,4,2,0,45,0,0
12509,-100,4,2,0,60,0,0
14445,-100,4,2,0,45,0,0
16380,-100,4,2,0,60,0,0
19283,-100,4,2,0,45,0,0
20412,-100,4,2,0,60,0,0
22186,-100,4,2,0,45,0,0
24002,-100,4,2,0,60,0,0
26542,-100,4,2,0,45,0,0
27873,-100,4,2,0,60,0,0
30050,-100,4,2,0,45,0,0
31744,-100,4,2,0,60,0,0
37187,-100,4,2,0,45,0,0
38397,-100,4,2,0,20,0,0
38639,-100,4,2,0,40,0,0
38881,-100,4,2,0,60,0,0
39123,-100,4,2,1,60,0,0
83639,-100,4,2,0,60,0,0
85574,-83.3333333333333,4,2,2,60,0,1
99123,-83.3333333333333,4,2,2,60,0,0
101058,-83.3333333333333,4,2,2,60,0,1
116542,-100,4,2,0,60,0,0
119929,-100,4,2,0,45,0,0
120897,-100,4,2,0,60,0,0
122590,-100,4,2,0,45,0,0
124768,-100,4,2,0,60,0,0
127671,-100,4,2,0,45,0,0
128518,-100,4,2,0,60,0,0
130574,-100,4,2,0,45,0,0
132026,-100,4,2,0,60,0,0
137832,-100,4,2,0,45,0,0
139768,-100,4,2,0,60,0,0
145816,-100,4,2,0,10,0,0
145937,-100,4,2,0,20,0,0
146058,-100,4,2,0,30,0,0
146179,-100,4,2,0,40,0,0
146300,-100,4,2,0,50,0,0
146421,-100,4,2,0,60,0,0
146542,-100,4,2,0,70,0,0
146784,-100,4,2,0,20,0,0
147026,-100,4,2,0,40,0,0
147268,-100,4,2,1,60,0,0
193478,-100,4,2,1,5,0,0
193719,-100,4,2,1,60,0,0
197832,-90.9090909090909,4,2,1,60,0,0
201703,-83.3333333333333,4,2,1,60,0,0
207510,-66.6666666666667,4,2,0,60,0,0
209445,-66.6666666666667,4,2,2,60,0,1
222994,-66.6666666666667,4,2,2,60,0,0
224929,-66.6666666666667,4,2,2,60,0,1
239929,-66.6666666666667,4,2,0,60,0,1
240413,-66.6666666666667,4,2,2,60,0,0

[Colours]
Combo1 : 255,159,64
Combo2 : 255,255,64
Combo3 : 64,255,64
Combo4 : 64,64,255

[HitObjects]
72,152,8155,2,0,P|124:144|176:128,1,105,4|0,0:0|0:0,0:0:0:0:
272,88,8639,2,0,P|300:128|352:144,1,105,2|0,0:0|0:0,0:0:0:0:
408,92,9002,2,0,B|396:160|396:160|432:192|424:240,1,157.5,2|0,0:0|0:0,0:0:0:0:
340,324,9607,2,0,P|320:284|336:228,1,105,0|0,0:0|0:0,0:0:0:0:
272,176,9969,2,0,P|224:244|156:244,1,157.5,2|0,0:0|0:0,0:0:0:0:
64,180,10574,1,2,0:0:0:0:
144,52,10816,5,2,0:0:0:0:
144,52,10937,1,2,0:0:0:0:
144,52,11058,2,0,B|184:63|184:63|188:95|216:115,1,105
368,52,11542,1,0,0:0:0:0:
368,52,11663,2,0,B|327:63|327:63|323:95|295:115,1,105,2|0,0:0|0:0,0:0:0:0:
256,184,12026,6,0,P|300:204|356:212,1,105,0|0,0:0|0:0,0:0:0:0:
456,280,12510,2,0,B|428:300|420:336|420:336|384:352,1,105,2|0,0:0|0:0,0:0:0:0:
337,285,12873,2,0,B|309:305|301:341|301:341|256:328|216:352,1,157.5,2|0,0:0|0:0,0:0:0:0:
204,264,13357,2,0,P|152:292|128:332,1,105
56,204,13840,2,0,P|108:158|112:72,1,157.5,2|0,0:0|0:0,0:0:0:0:
16,108,14445,5,0,0:0:0:0:
200,84,14687,1,2,0:0:0:0:
200,84,14808,1,2,0:0:0:0:
200,84,14929,2,0,P|256:100|304:96,1,105
344,216,15413,1,0,0:0:0:0:
360,188,15534,1,2,0:0:0:0:
384,168,15655,1,0,0:0:0:0:
416,160,15776,1,2,0:0:0:0:
448,164,15897,6,0,B|464:204|464:204|500:224|504:264,1,105
388,300,16381,2,0,L|431:270,1,52.5,2|0,0:0|0:0,0:0:0:0:
336,360,16744,2,0,B|304:328|312:280|312:280|244:260,1,157.5,2|0,0:0|0:0,0:0:0:0:
144,236,17349,2,0,P|116:284|68:304,1,105
60,216,17711,2,0,B|80:156|136:148|136:148|160:104,1,157.5,2|0,0:0|0:0,0:0:0:0:
248,48,18316,2,0,P|292:80|340:76,1,105,2|0,0:0|0:0,0:0:0:0:
404,28,18679,2,0,P|392:104|448:160,1,157.5,2|0,0:0|0:0,0:0:0:0:
376,348,19284,5,0,0:0:0:0:
344,340,19405,1,2,0:0:0:0:
312,332,19526,1,0,0:0:0:0:
280,324,19647,1,2,0:0:0:0:
248,316,19768,6,0,B|238:305|238:305|234:321|234:321|224:310|224:310|166:297,1,105
64,268,20252,2,0,P|64:236|72:200,1,70,0|2,0:0|0:0,0:0:0:0:
84,164,20494,1,0,0:0:0:0:
156,72,20736,2,0,L|260:56,1,105,2|0,0:0|0:0,0:0:0:0:
352,24,21219,2,0,P|396:56|452:56,1,105,0|0,0:0|0:0,0:0:0:0:
332,116,21582,2,0,P|368:184|356:260,1,157.5,2|0,0:0|0:0,0:0:0:0:
488,276,22187,5,0,0:0:0:0:
488,308,22308,1,0,0:0:0:0:
476,336,22429,1,2,0:0:0:0:
448,348,22550,1,2,0:0:0:0:
416,348,22671,2,0,L|308:348,1,105
24,276,23155,1,0,0:0:0:0:
24,308,23276,1,2,0:0:0:0:
36,336,23397,1,0,0:0:0:0:
64,348,23518,1,2,0:0:0:0:
96,348,23639,2,0,L|204:348,1,105
232,328,24002,5,0,0:0:0:0:
232,328,24123,2,0,P|232:276|216:224,1,105,2|0,0:0|0:0,0:0:0:0:
140,244,24486,2,0,P|188:188|188:108,1,157.5,2|0,0:0|0:0,0:0:0:0:
280,56,25090,2,0,P|280:108|296:160,1,105,2|0,0:0|0:0,0:0:0:0:
372,140,25453,2,0,P|324:196|324:276,1,157.5,2|0,0:0|0:0,0:0:0:0:
344,308,25937,1,0,0:0:0:0:
376,328,26058,1,2,0:0:0:0:
492,276,26300,1,0,0:0:0:0:
460,256,26421,1,2,0:0:0:0:
428,236,26542,6,0,P|424:184|432:132,1,105
292,44,27026,1,0,0:0:0:0:
260,48,27147,1,2,0:0:0:0:
228,52,27268,1,0,0:0:0:0:
196,56,27389,1,2,0:0:0:0:
164,60,27510,6,0,P|168:112|160:164,1,105
152,196,27873,2,0,P|148:224|152:252,2,52.5,0|2|0,0:0|0:0|0:0,0:0:0:0:
60,148,28357,1,2,0:0:0:0:
36,252,28599,1,0,0:0:0:0:
100,336,28840,1,2,0:0:0:0:
204,328,29082,1,0,0:0:0:0:
268,244,29324,2,0,P|364:168|468:244,1,262.5,2|0,0:0|0:0,0:0:0:0:
476,268,30050,5,0,0:0:0:0:
480,300,30171,1,2,0:0:0:0:
472,332,30292,1,0,0:0:0:0:
448,352,30413,2,0,P|396:368|344:352,1,105
176,36,31139,1,2,0:0:0:0:
176,36,31260,1,2,0:0:0:0:
176,36,31381,2,0,P|156:84|148:140,1,105
152,172,31744,5,0,0:0:0:0:
168,204,31865,2,0,P|160:256|124:292,1,105,2|0,0:0|0:0,0:0:0:0:
96,304,32228,1,4,0:0:0:0:
188,356,32469,1,2,0:0:0:0:
256,276,32711,1,2,0:0:0:0:
324,356,32953,1,2,0:0:0:0:
416,304,33195,5,0,0:0:0:0:
416,80,33437,1,2,0:0:0:0:
324,28,33679,1,0,0:0:0:0:
256,108,33921,1,2,0:0:0:0:
188,28,34163,1,0,0:0:0:0:
96,80,34405,1,2,0:0:0:0:
166,204,34647,1,0,0:0:0:0:
166,204,34768,2,0,B|188:156|256:169|256:192|256:214|324:228|345:179,1,210,2|2,0:0|0:0,0:0:0:0:
472,348,35736,5,0,0:0:0:0:
472,348,35857,2,0,L|420:336,1,52.5,2|0,0:0|0:0,0:0:0:0:
296,312,36219,2,0,P|240:368|168:348,1,157.5,2|0,0:0|0:0,0:0:0:0:
132,368,36703,2,0,P|128:288|80:228,1,157.5,2|2,0:0|0:0,0:0:0:0:
40,228,37187,6,0,P|68:176|68:128,1,105,0|2,0:0|0:0,0:0:0:0:
200,48,37671,1,0,0:0:0:0:
232,56,37792,1,2,0:0:0:0:
256,76,37913,1,0,0:0:0:0:
288,84,38034,1,2,0:0:0:0:
312,104,38155,1,0,0:0:0:0:
472,228,38397,5,4,0:0:0:0:
256,336,38639,1,4,0:0:0:0:
40,228,38881,1,4,0:0:0:0:
200,48,39123,6,0,L|184:152,1,105,4|8,0:1|0:0,0:0:0:0:
312,336,39607,2,0,L|328:232,1,105,2|8,0:0|0:0,0:0:0:0:
416,88,40090,2,0,L|308:104,1,105,2|8,0:0|0:0,0:0:0:0:
96,296,40574,2,0,L|204:280,1,105,2|8,0:0|0:0,0:0:0:0:
288,264,40937,2,0,P|336:212|416:220,1,157.5,0|8,0:0|0:0,0:0:0:0:
416,88,41542,1,2,0:0:0:0:
212,152,41784,1,8,0:0:0:0:
212,152,41905,1,0,0:0:0:0:
212,152,42026,1,2,0:0:0:0:
440,16,42268,1,8,0:0:0:0:
440,16,42389,1,0,0:0:0:0:
440,16,42510,5,2,0:0:0:0:
224,16,42752,1,8,0:0:0:0:
72,208,42994,2,0,L|20:304,1,105,2|8,0:0|0:0,0:0:0:0:
196,260,43478,2,0,L|176:364,1,105,2|8,0:0|0:0,0:0:0:0:
316,260,43961,2,0,L|336:364,1,105,2|8,0:0|0:0,0:0:0:0:
440,208,44445,2,0,L|490:300,1,105,2|8,0:0|0:0,0:0:0:0:
408,312,44808,2,0,B|369:239|369:239|354:200|375:166,1,157.5,0|8,0:0|0:0,0:0:0:0:
324,64,45413,1,2,0:0:0:0:
296,32,45534,1,0,0:0:0:0:
256,20,45655,1,8,0:0:0:0:
216,32,45776,1,0,0:0:0:0:
188,64,45897,1,2,0:0:0:0:
152,256,46139,1,8,0:0:0:0:
152,256,46260,1,0,0:0:0:0:
152,256,46381,6,0,P|136:204|92:176,1,105,2|8,0:0|0:0,0:0:0:0:
360,256,46865,2,0,P|376:204|416:177,1,105,2|8,0:0|0:0,0:0:0:0:
256,124,47349,2,0,L|256:16,1,105,2|8,0:0|0:0,0:0:0:0:
492,232,47832,2,0,P|508:180|496:128,1,105,2|8,0:0|0:0,0:0:0:0:
476,244,48195,2,0,P|460:296|472:348,1,105
368,356,48558,2,0,P|328:324|276:324,1,105,8|2,0:0|0:0,0:0:0:0:
256,124,49042,1,8,0:0:0:0:
112,320,49284,1,2,0:0:0:0:
176,80,49526,1,8,0:0:0:0:
176,80,49647,2,0,P|144:140|60:172,1,157.5,0|8,0:0|0:0,0:0:0:0:
336,80,50252,2,0,P|356:128|396:160,1,105,2|8,0:0|0:0,0:0:0:0:
288,332,50736,6,0,P|320:292|368:272,1,105,2|8,0:0|0:0,0:0:0:0:
480,240,51219,1,2,0:0:0:0:
256,192,51461,1,8,0:0:0:0:
32,240,51703,1,2,0:0:0:0:
256,192,51945,1,8,0:0:0:0:
256,192,52066,2,0,B|292:136|292:136|340:128|364:80,1,157.5,0|8,0:0|0:0,0:0:0:0:
276,44,52671,1,2,0:0:0:0:
276,44,52913,1,8,0:0:0:0:
108,172,53155,1,2,0:0:0:0:
108,172,53397,1,8,0:0:0:0:
236,340,53639,1,2,0:0:0:0:
404,212,53881,5,8,0:0:0:0:
236,340,54123,1,2,0:0:0:0:
404,212,54365,1,8,0:0:0:0:
208,140,54607,6,0,P|180:92|136:64,1,105,4|8,0:1|0:0,0:0:0:0:
204,240,55090,2,0,P|156:268|128:312,1,105,2|8,0:0|0:0,0:0:0:0:
304,244,55574,2,0,P|332:292|376:320,1,105,2|8,0:0|0:0,0:0:0:0:
308,144,56058,2,0,P|356:116|384:72,1,105,2|8,0:0|0:0,0:0:0:0:
468,100,56421,2,0,P|444:168|476:248,1,157.5,0|8,0:0|0:0,0:0:0:0:
372,318,57026,1,2,0:0:0:0:
139,318,57268,1,8,0:0:0:0:
139,318,57389,1,0,0:0:0:0:
139,318,57510,1,2,0:0:0:0:
412,248,57752,1,8,0:0:0:0:
412,248,57873,1,0,0:0:0:0:
412,248,57994,5,2,0:0:0:0:
100,248,58236,1,8,0:0:0:0:
456,320,58478,1,2,0:0:0:0:
412,160,58719,1,8,0:0:0:0:
456,312,58961,1,2,0:0:0:0:
336,108,59203,1,8,0:0:0:0:
456,304,59445,1,2,0:0:0:0:
256,56,59687,1,8,0:0:0:0:
456,296,59929,1,2,0:0:0:0:
172,16,60171,1,8,0:0:0:0:
172,16,60292,6,0,P|112:52|68:132,1,157.5,0|8,0:0|0:0,0:0:0:0:
80,316,60897,1,2,0:0:0:0:
96,276,61018,1,0,0:0:0:0:
128,248,61139,1,8,0:0:0:0:
168,232,61260,1,0,0:0:0:0:
208,236,61381,1,2,0:0:0:0:
432,316,61623,1,8,0:0:0:0:
416,276,61744,1,0,0:0:0:0:
384,248,61865,5,2,0:0:0:0:
344,232,61986,1,0,0:0:0:0:
304,236,62107,1,8,0:0:0:0:
256,44,62349,2,0,L|256:148,1,105,2|8,0:0|0:0,0:0:0:0:
256,340,62832,2,0,L|256:236,1,105,2|8,0:0|0:0,0:0:0:0:
52,160,63316,2,0,P|104:156|144:120,1,105,2|8,0:0|0:0,0:0:0:0:
208,64,63679,2,0,P|256:44|304:64,1,105
369,122,64042,2,0,P|408:156|460:160,1,105,8|2,0:0|0:0,0:0:0:0:
384,300,64526,1,8,0:0:0:0:
128,300,64768,1,2,0:0:0:0:
304,204,65010,1,8,0:0:0:0:
304,204,65131,2,0,P|256:109|208:204,1,262.5,0|2,0:0|0:0,0:0:0:0:
60,56,66219,6,0,P|112:84|128:128,1,105,2|8,0:0|0:0,0:0:0:0:
212,284,66703,2,0,P|256:260|300:284,1,105,2|8,0:0|0:0,0:0:0:0:
384,124,67187,2,0,P|405:77|452:56,1,105,2|8,0:0|0:0,0:0:0:0:
468,136,67550,2,0,P|448:184|404:212,1,105,0|0,0:0|0:0,0:0:0:0:
320,184,67913,2,0,P|292:140|244:124,1,105,8|2,0:0|3:0,0:0:0:0:
256,192,68276,12,4,70090,0:0:0:0:
256,192,80736,12,0,83397,0:0:0:0:
256,192,83639,5,2,0:0:0:0:
256,192,84123,1,0,0:0:0:0:
166,110,84486,1,2,0:1:0:0:
220,64,84607,1,2,0:1:0:0:
292,64,84728,1,2,0:1:0:0:
346,110,84849,1,2,0:1:0:0:
108,300,85090,1,4,0:0:0:0:
404,300,85332,1,4,0:0:0:0:
192,248,85574,6,0,P|144:204|80:200,1,125.999996154785,4|2,1:0|0:0,0:0:0:0:
320,248,86058,2,0,P|368:204|432:200,1,125.999996154785,8|2,1:0|0:0,0:0:0:0:
460,160,86421,1,0,0:0:0:0:
456,108,86542,1,0,1:0:0:0:
424,68,86663,1,0,0:0:0:0:
376,56,86784,1,2,0:0:0:0:
256,124,87026,1,8,1:0:0:0:
256,124,87147,2,0,L|256:52,2,62.9999980773926,0|2|0,0:0|0:0|0:0,0:0:0:0:
212,148,87510,6,0,P|152:116|96:128,1,125.999996154785,0|2,1:0|0:0,0:0:0:0:
300,148,87994,2,0,P|360:116|416:128,1,125.999996154785,8|2,1:0|0:0,0:0:0:0:
456,156,88357,1,2,0:1:0:0:
480,200,88478,1,2,1:0:0:0:
472,248,88599,1,2,0:0:0:0:
440,284,88719,1,2,0:1:0:0:
144,256,88961,1,10,1:0:0:0:
428,360,89203,1,2,0:1:0:0:
96,320,89445,6,0,P|64:264|84:204,1,125.999996154785,0|2,1:0|0:0,0:0:0:0:
200,24,89929,2,0,P|232:80|212:140,1,125.999996154785,8|2,1:0|0:0,0:0:0:0:
188,180,90292,1,0,0:0:0:0:
188,232,90413,1,0,1:0:0:0:
224,264,90534,1,0,0:0:0:0:
276,260,90655,1,2,0:0:0:0:
92,100,90897,1,8,1:0:0:0:
92,100,91018,2,0,L|156:88,2,62.9999980773926,0|2|0,0:0|0:0|0:0,0:0:0:0:
44,112,91381,5,0,1:0:0:0:
468,112,91865,1,4,1:2:0:0:
304,64,92228,1,2,0:1:0:0:
292,112,92349,1,2,1:0:0:0:
304,160,92469,1,2,0:0:0:0:
344,192,92590,1,2,0:1:0:0:
492,352,92832,1,10,1:0:0:0:
256,352,93074,1,2,0:1:0:0:
20,352,93316,6,0,L|60:232,1,125.999996154785,0|2,1:0|0:0,0:0:0:0:
208,40,93800,2,0,L|220:172,1,125.999996154785,8|2,1:0|0:0,0:0:0:0:
216,216,94163,1,0,0:0:0:0:
240,260,94284,1,0,1:0:0:0:
228,308,94405,1,0,0:0:0:0:
256,352,94526,1,2,0:0:0:0:
388,288,94768,1,8,1:0:0:0:
420,248,94889,1,0,0:0:0:0:
432,200,95010,1,2,0:0:0:0:
424,152,95131,1,0,0:0:0:0:
396,108,95252,6,0,B|368:52|368:52|340:68|304:52,1,125.999996154785,0|2,1:0|0:0,0:0:0:0:
116,108,95736,2,0,B|144:52|144:52|172:68|208:52,1,125.999996154785,8|2,1:0|0:0,0:0:0:0:
256,64,96099,1,2,0:1:0:0:
256,112,96219,1,2,1:0:0:0:
256,164,96340,1,2,0:0:0:0:
256,216,96461,1,2,0:1:0:0:
388,288,96703,1,10,1:0:0:0:
124,288,96945,1,2,0:1:0:0:
400,272,97187,6,0,L|460:160,1,125.999996154785,0|2,1:0|0:0,0:0:0:0:
112,272,97671,2,0,L|52:160,1,125.999996154785,8|2,1:0|0:0,0:0:0:0:
28,116,98034,1,0,0:0:0:0:
20,64,98155,1,0,1:0:0:0:
48,20,98276,1,0,0:0:0:0:
100,12,98397,1,2,0:0:0:0:
256,148,98639,1,8,1:0:0:0:
256,148,98760,2,0,L|256:84,2,62.9999980773926,0|2|0,0:0|0:0|0:0,0:0:0:0:
256,192,99123,1,4,0:0:0:0:
256,192,99244,12,4,101058,1:0:0:0:
256,192,101542,5,12,1:0:0:0:
108,264,101905,1,0,0:0:0:0:
92,216,102026,1,0,1:0:0:0:
92,168,102147,1,0,0:0:0:0:
108,120,102268,1,2,0:0:0:0:
404,120,102510,1,8,1:0:0:0:
420,168,102631,1,0,0:0:0:0:
420,216,102752,1,2,0:0:0:0:
404,264,102873,1,0,0:0:0:0:
368,328,102994,6,0,P|332:276|348:216,1,125.999996154785,0|2,1:0|0:0,0:0:0:0:
144,56,103478,2,0,P|180:108|164:168,1,125.999996154785,8|2,1:0|0:0,0:0:0:0:
176,216,103840,1,2,0:1:0:0:
208,252,103961,1,2,1:0:0:0:
256,264,104082,1,2,0:0:0:0:
304,252,104203,1,2,0:1:0:0:
412,28,104445,1,10,1:1:0:0:
336,216,104687,1,2,0:1:0:0:
448,252,104929,5,0,1:0:0:0:
320,104,105171,1,2,0:0:0:0:
64,252,105413,1,8,1:0:0:0:
192,104,105655,1,2,0:0:0:0:
232,76,105776,2,0,L|244:12,2,62.9999980773926,0|0|0,0:0|1:0|0:0,0:0:0:0:
256,120,106139,1,2,0:0:0:0:
320,280,106381,1,8,1:0:0:0:
280,308,106502,2,0,L|268:372,2,62.9999980773926,0|2|0,0:0|0:0|0:0,0:0:0:0:
256,264,106865,6,0,P|192:260|144:220,1,125.999996154785,0|2,1:0|0:0,0:0:0:0:
256,120,107349,2,0,P|320:124|368:164,1,125.999996154785,8|2,1:0|0:0,0:0:0:0:
396,204,107711,1,2,0:1:0:0:
412,252,107832,1,2,1:1:0:0:
416,304,107953,1,2,0:0:0:0:
416,356,108074,1,2,0:1:0:0:
145,222,108316,1,10,1:1:0:0:
367,162,108558,1,2,0:1:0:0:
117,121,108800,5,0,1:0:0:0:
180,320,109042,1,2,0:0:0:0:
49,251,109284,1,8,1:0:0:0:
248,189,109526,1,2,0:0:0:0:
288,160,109647,1,0,0:0:0:0:
304,112,109768,1,0,1:0:0:0:
344,84,109889,1,0,0:0:0:0:
396,88,110010,1,2,0:0:0:0:
488,268,110252,2,0,L|436:312,1,62.9999980773926,8|0,1:0|0:0,0:0:0:0:
340,276,110494,2,0,L|388:235,1,62.9999980773926,2|0,0:0|0:0,0:0:0:0:
452,184,110736,5,0,1:0:0:0:
372,356,110978,1,2,0:0:0:0:
60,184,111219,1,8,1:0:0:0:
140,356,111461,1,2,0:0:0:0:
72,308,111582,2,0,L|24:268,1,62.9999980773926,2|2,0:1|1:0,0:0:0:0:
123,235,111824,2,0,L|172:276,1,62.9999980773926,2|2,0:0|0:1,0:0:0:0:
400,88,112187,1,10,1:0:0:0:
112,88,112429,1,2,0:1:0:0:
256,192,112671,12,4,116542,0:0:0:0:
144,160,116905,2,0,L|108:44,1,105,2|0,0:0|0:0,0:0:0:0:
220,52,117389,1,0,0:0:0:0:
220,52,117510,2,0,P|248:96|296:112,1,105,2|0,0:0|0:0,0:3:0:0:
384,104,117873,2,0,P|372:160|336:192,1,105
300,220,118236,1,0,0:0:0:0:
300,220,118357,2,0,P|292:300|352:348,1,157.5,2|0,0:0|0:0,0:0:0:0:
448,328,118961,1,0,0:0:0:0:
368,268,119203,1,0,0:0:0:0:
368,268,119324,2,0,P|300:276|260:352,1,157.5,2|0,0:0|0:0,0:0:0:0:
112,260,119929,5,0,0:0:0:0:
108,228,120050,1,2,0:0:0:0:
104,196,120171,1,0,0:0:0:0:
100,164,120292,1,2,0:0:0:0:
96,132,120413,6,0,P|140:100|168:56,1,105
336,40,120897,2,0,L|320:112,1,70,2|0,0:0|0:0,0:0:0:0:
296,216,121260,2,0,P|320:264|368:284,1,105,0|0,0:0|0:0,0:0:0:0:
216,216,121744,2,0,P|192:264|144:284,1,105,2|0,0:0|0:0,0:0:0:0:
336,40,122349,2,0,P|296:64|236:56,1,105,4|2,0:0|0:0,0:0:0:0:
140,28,122832,5,0,0:0:0:0:
112,60,122953,2,0,L|56:48,2,52.5,2|0|2,0:0|0:0|0:0,0:0:0:0:
116,104,123316,2,0,P|128:160|120:208,1,105,0|0,0:0|0:0,0:0:0:0:
391,177,124042,1,2,0:0:0:0:
391,177,124163,1,2,0:0:0:0:
391,177,124284,6,0,B|396:192|396:192|412:196|412:196|440:268,1,105
304,340,124768,2,0,P|276:296|224:280,1,105,2|0,0:0|0:0,0:0:0:0:
160,336,125131,2,0,P|140:284|152:236,1,105,2|0,0:0|0:0,0:0:0:0:
172,200,125494,1,0,0:0:0:0:
172,200,125615,2,0,P|244:164|260:92,1,157.5
240,12,126099,2,0,P|176:52|88:64,1,157.5,2|0,0:0|0:0,0:0:0:0:
20,136,126703,1,0,0:0:0:0:
76,224,126945,1,0,0:0:0:0:
76,224,127066,2,0,P|124:288|196:300,1,157.5,2|0,0:0|0:0,0:0:0:0:
376,312,127671,5,0,0:0:0:0:
380,280,127792,1,2,0:0:0:0:
392,252,127913,1,0,0:0:0:0:
416,232,128034,1,2,0:0:0:0:
448,224,128155,6,0,L|468:120,1,105
476,92,128518,1,0,0:0:0:0:
472,60,128639,2,0,P|460:40|432:28,1,52.5,2|0,0:0|0:0,0:0:0:0:
304,72,129002,2,0,P|248:120|168:124,1,157.5,2|0,0:0|0:0,0:0:0:0:
64,200,129607,2,0,P|80:252|120:280,1,105
148,200,129969,2,0,P|200:256|184:336,1,157.5,2|0,0:0|0:0,0:0:0:0:
288,344,130574,5,0,0:0:0:0:
304,316,130695,1,2,0:0:0:0:
328,296,130816,1,0,0:0:0:0:
360,288,130937,1,2,0:0:0:0:
392,292,131058,2,0,P|444:300|488:272,1,105
232,32,131784,1,2,0:0:0:0:
232,32,131905,1,2,0:0:0:0:
232,32,132026,6,0,L|132:160,1,157.5
116,180,132510,2,0,P|140:228|132:280,1,105,2|0,0:0|0:0,0:0:0:0:
120,308,132873,1,2,0:0:0:0:
208,364,133115,1,0,0:0:0:0:
312,344,133357,1,2,0:0:0:0:
380,264,133599,2,0,P|408:216|452:196,1,105
488,124,133961,2,0,L|472:16,1,105,2|0,0:0|0:0,0:0:0:0:
368,64,134445,2,0,L|376:116,1,52.5
200,120,134929,6,0,P|156:84|104:72,1,105,2|0,0:0|0:0,0:0:0:0:
52,200,135413,1,0,0:0:0:0:
108,324,135655,1,2,0:0:0:0:
108,324,135776,1,2,0:0:0:0:
108,324,135897,6,0,P|148:284|196:288,1,105
296,360,136381,1,2,0:0:0:0:
296,360,136502,1,0,0:0:0:0:
440,264,136744,2,0,P|388:240|360:196,1,105,2|0,0:0|0:0,0:0:0:0:
352,172,137107,1,0,0:0:0:0:
344,140,137228,2,0,P|296:76|220:60,1,157.5,2|0,0:0|0:0,0:0:0:0:
88,252,137832,6,0,P|84:200|72:148,1,105,4|2,0:0|0:0,0:0:0:0:
180,208,138316,1,0,0:0:0:0:
192,236,138437,1,2,0:0:0:0:
212,260,138558,1,0,0:0:0:0:
240,276,138679,1,2,0:0:0:0:
272,280,138800,2,0,P|324:292|360:332,1,105,0|2,0:0|0:0,0:0:0:0:
464,136,139526,1,2,0:0:0:0:
464,136,139647,1,2,0:0:0:0:
464,136,139768,6,0,P|396:120|336:56,1,157.5
264,16,140252,2,0,P|216:44|200:92,1,105,2|0,0:0|0:0,0:0:0:0:
272,132,140615,2,0,P|284:208|244:276,1,157.5,2|0,0:0|0:0,0:0:0:0:
216,288,141099,1,2,0:0:0:0:
116,316,141340,1,0,0:0:0:0:
36,248,141582,1,0,0:0:0:0:
36,248,141703,2,0,L|48:72,1,175,2|0,0:0|0:0,0:0:0:0:
132,64,142187,2,0,L|120:248,1,175,2|0,0:0|0:0,0:0:0:0:
116,316,142671,2,0,L|224:312,1,105,2|0,0:0|0:0,0:0:0:0:
253,311,143034,5,2,0:0:0:0:
285,309,143155,1,0,0:0:0:0:
456,224,143397,1,2,0:0:0:0:
424,220,143518,1,0,0:0:0:0:
392,216,143639,6,0,P|348:200|308:156,1,105,0|2,0:0|0:0,0:0:0:0:
156,44,144123,1,0,0:0:0:0:
309,158,144365,1,2,0:0:0:0:
156,44,144607,2,0,P|96:96|80:172,1,157.5
96,252,145090,2,0,P|140:284|156:336,1,105,2|0,0:0|0:0,0:0:0:0:
232,300,145453,2,0,P|268:344|320:356,1,105,2|0,0:0|0:0,0:0:0:0:
344,356,145816,1,2,0:0:0:0:
376,348,145937,1,2,0:0:0:0:
400,328,146058,1,2,0:0:0:0:
420,304,146179,1,2,0:0:0:0:
432,276,146300,1,2,0:0:0:0:
436,244,146421,1,2,0:0:0:0:
428,204,146542,1,2,0:0:0:0:
256,40,146784,5,4,0:0:0:0:
16,260,147026,1,4,0:0:0:0:
496,260,147268,1,4,0:0:0:0:
172,140,147510,2,0,P|136:100|120:40,1,105,4|8,0:1|0:0,0:0:0:0:
391,51,147994,2,0,P|376:100|340:140,1,105,2|8,0:0|0:0,0:0:0:0:
172,244,148478,2,0,P|136:284|120:332,1,105,2|8,0:0|0:0,0:0:0:0:
391,332,148961,2,0,P|376:284|340:244,1,105,2|8,0:0|0:0,0:0:0:0:
260,200,149324,2,0,P|208:140|208:64,1,157.5,0|8,0:0|0:0,0:0:0:0:
428,124,149929,1,2,0:0:0:0:
424,164,150050,1,0,0:0:0:0:
412,204,150171,1,8,0:0:0:0:
380,232,150292,1,0,0:0:0:0:
340,244,150413,1,2,0:0:0:0:
148,344,150655,1,8,0:0:0:0:
140,304,150776,1,0,0:0:0:0:
132,264,150897,6,0,P|120:212|84:160,1,105,2|8,0:0|0:0,0:0:0:0:
180,44,151381,2,0,L|288:36,1,105,2|8,0:0|0:0,0:0:0:0:
428,124,151865,2,0,L|323:131,1,105,2|8,0:0|0:0,0:0:0:0:
236,252,152349,2,0,L|344:244,1,105,2|8,0:0|0:0,0:0:0:0:
484,332,152832,2,0,L|379:339,1,105,2|8,0:0|0:0,0:0:0:0:
296,344,153195,2,0,P|216:356|152:320,1,157.5,0|8,0:0|0:0,0:0:0:0:
64,100,153800,1,2,0:0:0:0:
72,140,153921,1,0,0:0:0:0:
96,176,154042,1,8,0:0:0:0:
136,188,154163,1,0,0:0:0:0:
176,184,154284,1,2,0:0:0:0:
380,40,154526,1,8,0:0:0:0:
380,40,154647,1,0,0:0:0:0:
380,40,154768,6,0,P|376:92|388:144,1,105,2|8,0:0|0:0,0:0:0:0:
452,228,155252,2,0,B|448:272|448:272|456:288|456:288|452:336,1,105,2|8,0:0|0:0,0:0:0:0:
72,140,155736,2,0,P|88:88|128:56,1,105,2|8,0:0|0:0,0:0:0:0:
248,40,156219,2,0,P|256:92|292:132,1,105,2|8,0:0|0:0,0:0:0:0:
372,168,156582,2,0,P|396:216|396:272,1,105
368,344,156945,2,0,B|320:352|320:352|300:328|272:324,1,105,8|2,0:0|0:0,0:0:0:0:
193,139,157429,1,8,0:0:0:0:
73,299,157671,1,2,0:0:0:0:
272,324,157913,1,8,0:0:0:0:
272,324,158034,2,0,P|316:256|388:248,1,157.5,0|8,0:0|0:0,0:0:0:0:
424,264,158518,1,0,2:0:0:0:
452,296,158639,1,2,0:0:0:0:
500,136,158881,1,8,0:0:0:0:
460,120,159002,1,0,0:0:0:0:
436,88,159123,6,0,P|404:44|356:24,1,105,2|8,0:0|0:0,0:0:0:0:
93,196,159607,2,0,L|73:304,2,105,2|8|2,0:0|0:0|0:0,0:0:0:0:
172,108,160332,1,8,0:0:0:0:
172,108,160453,2,0,B|184:64|184:64|212:48|224:20,1,105,0|2,0:0|3:0,0:0:0:0:
256,192,161058,12,0,162026,3:0:0:0:
64,48,162994,6,0,L|168:72,1,105,6|8,0:2|0:0,0:0:0:0:
440,120,163478,2,0,L|336:144,1,105,6|8,0:2|0:0,0:0:0:0:
104,228,163961,2,0,L|208:252,1,105,6|8,0:0|0:0,0:0:0:0:
472,304,164445,2,0,L|368:328,1,105,2|8,0:0|0:0,0:0:0:0:
280,336,164808,2,0,B|272:300|296:280|312:248|284:200|264:188,1,157.5,0|8,0:0|0:0,0:0:0:0:
60,100,165413,1,2,0:0:0:0:
80,64,165534,1,0,0:0:0:0:
116,40,165655,1,8,0:0:0:0:
160,40,165776,1,0,0:0:0:0:
200,56,165897,1,2,0:0:0:0:
452,100,166139,1,8,0:0:0:0:
432,64,166260,1,0,0:0:0:0:
396,40,166381,6,0,P|336:32|300:68,1,105,2|8,0:0|0:0,0:0:0:0:
420,184,166865,2,0,P|463:204|483:257,1,105,2|8,0:0|0:0,0:0:0:0:
328,272,167349,2,0,P|356:314|347:365,1,105,2|8,0:0|0:0,0:0:0:0:
180,272,167832,2,0,P|181:323|149:363,1,105,2|8,0:0|0:0,0:0:0:0:
71,176,168316,2,0,P|48:221|0:239,1,105,2|8,0:0|0:0,0:0:0:0:
76,152,168679,2,0,P|108:80|176:48,1,157.5,0|8,0:0|0:0,0:0:0:0:
388,40,169284,2,0,L|396:96,1,52.5,2|0,0:0|0:0,0:0:0:0:
476,120,169526,2,0,L|468:68,1,52.5,8|0,0:0|0:0,0:0:0:0:
408,172,169768,1,2,0:0:0:0:
312,344,170010,1,8,0:0:0:0:
272,332,170131,1,0,0:0:0:0:
232,320,170252,6,0,B|192:304|192:304|156:288|160:252,1,105,2|8,0:0|0:0,0:0:0:0:
280,64,170736,2,0,B|320:80|320:80|356:96|352:132,1,105,2|8,0:0|0:0,0:0:0:0:
348,216,171099,2,0,P|388:244|452:232,1,105
441,238,171461,1,8,0:0:0:0:
140,44,171703,2,0,P|120:96|76:116,1,105,2|8,0:0|0:0,0:0:0:0:
28,192,172066,2,0,P|48:244|36:296,1,105
38,290,172429,1,8,0:0:0:0:
103,147,172671,1,2,0:0:0:0:
246,214,172913,1,8,0:0:0:0:
180,357,173155,1,2,0:0:0:0:
448,64,173397,1,8,0:0:0:0:
448,64,173518,2,0,B|420:172|448:192|476:212|448:324,1,262.5,0|2,0:0|0:0,0:0:0:0:
92,48,174607,6,0,P|152:88|160:168,1,157.5,2|0,0:0|0:0,0:0:0:0:
72,140,175090,2,0,L|88:248,1,105,2|8,0:0|0:0,0:0:0:0:
304,340,175574,2,0,P|356:332|392:292,1,105,2|8,0:0|0:0,0:0:0:0:
316,252,175937,2,0,P|348:208|344:152,1,105
260,180,176300,2,0,P|256:128|220:92,1,105,8|2,0:0|3:0,0:0:0:0:
256,192,176663,12,4,178478,0:0:0:0:
256,192,190090,12,2,193478,0:0:0:0:
184,80,193719,5,2,0:0:0:0:
328,304,193961,1,6,0:0:0:0:
80,304,194445,6,0,L|104:200,1,105,6|0,0:0|0:0,0:0:0:0:
196,152,194929,2,0,L|172:254,1,105,2|0,0:0|0:0,0:0:0:0:
264,204,195413,2,0,L|288:100,1,105,2|0,0:0|0:0,0:0:0:0:
380,52,195897,2,0,L|356:154,2,105,2|0|2,0:0|0:0|0:0,0:0:0:0:
488,164,196623,1,0,0:0:0:0:
484,204,196744,1,0,0:0:0:0:
468,244,196865,1,2,0:0:0:0:
432,264,196986,1,0,0:0:0:0:
388,264,197107,2,0,B|344:252|344:252|332:256|332:256|284:248,2,105,0|2|0,0:0|0:0|0:0,0:0:0:0:
108,332,197832,6,0,P|64:292|52:232,1,115.50000352478,2|0,0:0|0:0,0:0:0:0:
108,136,198316,2,0,P|152:176|164:236,1,115.50000352478,2|0,0:0|0:0,0:0:0:0:
212,336,198800,1,2,0:0:0:0:
256,348,198921,1,0,0:0:0:0:
300,332,199042,1,0,0:0:0:0:
347,228,199284,2,0,P|361:173|404:136,1,115.50000352478,2|0,0:0|0:0,0:0:0:0:
460,239,199768,2,0,P|446:294|404:332,1,115.50000352478,2|0,0:0|0:0,0:0:0:0:
256,216,200252,2,0,L|256:100,1,115.50000352478,2|0,0:0|0:0,0:0:0:0:
144,64,200736,2,0,L|104:20,2,57.7500017623902,2|0|0,0:0|0:0|0:0,0:0:0:0:
368,64,201219,1,2,0:0:0:0:
368,64,201461,1,0,0:0:0:0:
440,344,201703,6,0,P|376:332|328:284,1,125.999996154785,8|0,0:0|0:0,0:0:0:0:
72,344,202187,2,0,P|136:332|184:284,1,125.999996154785,8|0,0:0|0:0,0:0:0:0:
256,216,202671,1,8,0:0:0:0:
256,164,202792,1,0,0:0:0:0:
256,112,202913,1,0,0:0:0:0:
152,40,203155,2,0,B|92:52|92:52|64:112,2,125.999996154785,8|0|8,0:0|0:0|0:0,0:0:0:0:
360,40,203881,2,0,B|420:52|420:52|448:112,2,125.999996154785,0|8|0,0:0|0:0|0:0,0:0:0:0:
256,112,204607,1,8,0:0:0:0:
256,164,204728,1,0,0:0:0:0:
256,216,204849,1,0,0:0:0:0:
156,344,205090,1,8,0:0:0:0:
356,344,205332,1,8,0:0:0:0:
72,264,205574,5,8,0:0:0:0:
440,264,205816,1,8,0:0:0:0:
72,184,206058,1,8,0:0:0:0:
440,184,206300,1,8,0:0:0:0:
120,52,206542,1,8,0:0:0:0:
164,36,206663,1,0,0:0:0:0:
212,44,206784,1,8,0:0:0:0:
240,84,206905,1,0,0:0:0:0:
248,132,207026,1,8,0:0:0:0:
272,176,207147,1,0,0:0:0:0:
320,192,207268,1,8,0:0:0:0:
368,180,207389,1,0,0:0:0:0:
404,148,207510,5,2,0:0:0:0:
108,236,207994,1,0,0:0:0:0:
336,336,208358,1,2,0:1:0:0:
408,320,208479,1,2,0:1:0:0:
452,260,208599,1,2,0:1:0:0:
448,184,208720,1,2,0:1:0:0:
266,26,208961,2,0,P|186:46|138:102,1,157.500006008148,4|4,0:0|0:0,0:0:0:0:
88,316,209445,6,0,P|112:240|176:204,1,157.500006008148,4|2,1:1|0:0,0:0:0:0:
256,192,209808,1,0,0:0:0:0:
335,180,209929,2,0,P|401:141|424:68,1,157.500006008148,8|2,1:0|0:0,0:0:0:0:
372,16,210292,1,0,0:0:0:0:
300,16,210413,2,0,P|268:24|232:52,1,78.7500030040742,0|0,1:0|0:0,0:0:0:0:
192,112,210655,1,2,0:0:0:0:
472,328,210897,2,0,L|408:280,1,78.7500030040742,8|0,1:0|0:0,0:0:0:0:
336,336,211139,2,0,L|256:332,1,78.7500030040742,2|0,0:0|0:0,0:0:0:0:
172,328,211381,6,0,P|104:312|48:248,1,157.500006008148,0|2,1:0|0:0,0:0:0:0:
36,168,211744,1,0,0:0:0:0:
52,92,211865,2,0,B|112:40|112:40|140:68|184:64,1,157.500006008148,8|2,1:0|0:0,0:0:0:0:
256,56,212228,1,2,0:1:0:0:
324,32,212349,1,2,1:1:0:0:
392,48,212469,1,2,0:0:0:0:
440,100,212590,1,2,0:1:0:0:
112,144,212832,1,10,1:1:0:0:
400,240,213074,1,2,0:1:0:0:
120,325,213316,6,0,P|106:239|48:205,1,157.500006008148,0|2,1:0|0:0,0:0:0:0:
180,52,213800,2,0,P|193:137|251:171,1,157.500006008148,8|2,1:0|0:0,0:0:0:0:
324,196,214163,1,0,0:0:0:0:
400,221,214284,2,0,L|388:301,2,78.7500030040742,0|0|2,1:0|0:0|0:0,0:0:0:0:
112,221,214768,1,8,1:0:0:0:
112,221,214889,2,0,L|124:301,2,78.7500030040742,0|2|0,0:0|0:0|0:0,0:0:0:0:
96,132,215252,6,0,B|115:89|104:55|104:55|138:66|180:47,1,157.500006008148,0|2,1:0|0:0,0:0:0:0:
256,32,215615,1,0,0:0:0:0:
331,47,215736,2,0,B|373:66|407:55|407:55|396:89|416:132,1,157.500006008148,8|2,1:0|0:0,0:0:0:0:
448,196,216099,1,2,0:1:0:0:
452,268,216219,1,2,1:1:0:0:
412,328,216340,1,2,0:0:0:0:
340,336,216461,1,2,0:1:0:0:
184,208,216703,2,0,P|104:228|56:288,1,157.500006008148,10|2,1:0|0:1,0:0:0:0:
164,320,217187,5,0,1:0:0:0:
76,72,217429,1,2,0:0:0:0:
272,280,217671,1,8,1:0:0:0:
184,32,217913,1,2,0:0:0:0:
184,32,218034,1,0,0:0:0:0:
184,32,218155,2,0,P|212:60|252:64,1,78.7500030040742,0|0,1:0|0:0,0:0:0:0:
328,52,218397,1,2,0:0:0:0:
424,336,218639,1,8,1:0:0:0:
400,268,218760,1,0,0:0:0:0:
352,216,218881,2,0,P|324:192|284:180,1,78.7500030040742,2|0,0:0|0:0,0:0:0:0:
212,180,219123,6,0,P|164:244|88:268,1,157.500006008148,0|2,1:0|0:0,0:0:0:0:
184,32,219607,2,0,L|342:39,1,157.500006008148,8|2,1:0|0:0,0:0:0:0:
412,44,219969,1,2,0:1:0:0:
476,76,220090,1,2,1:1:0:0:
496,144,220211,1,2,0:0:0:0:
464,208,220332,1,2,0:1:0:0:
270,369,220574,1,10,1:1:0:0:
226,120,220816,1,2,0:1:0:0:
464,208,221058,6,0,P|392:248|356:312,1,157.500006008148,0|2,1:0|0:0,0:0:0:0:
48,176,221542,2,0,P|120:136|156:72,1,157.500006008148,8|2,1:0|0:0,0:0:0:0:
232,32,221905,1,0,0:0:0:0:
312,40,222026,2,0,P|352:64|376:88,1,78.7500030040742,0|0,1:0|0:0,0:0:0:0:
412,156,222268,1,2,0:0:0:0:
256,288,222510,2,0,L|256:366,2,78.7500030040742,8|0|2,1:0|0:0|0:0,0:0:0:0:
256,240,222873,1,0,0:0:0:0:
256,192,222994,1,4,0:0:0:0:
256,192,223115,12,4,224929,1:0:0:0:
256,192,225413,5,12,1:0:0:0:
164,68,225776,1,0,0:0:0:0:
144,136,225897,1,0,1:0:0:0:
80,168,226018,1,0,0:0:0:0:
12,148,226139,1,2,0:0:0:0:
348,316,226381,1,8,1:0:0:0:
368,248,226502,1,0,0:0:0:0:
432,216,226623,1,2,0:0:0:0:
500,236,226744,2,0,L|508:152,1,78.7500030040742,0|0,0:0|1:0,0:0:0:0:
308,48,227107,5,2,0:0:0:0:
204,336,227349,1,8,1:0:0:0:
4,226,227590,1,2,0:0:0:0:
12,148,227711,1,2,0:1:0:0:
56,84,227832,2,0,P|84:68|132:64,1,78.7500030040742,2|2,1:0|0:0,0:0:0:0:
208,72,228074,1,2,0:1:0:0:
328,320,228316,2,0,P|397:286|431:216,1,157.500006008148,10|2,1:0|0:1,0:0:0:0:
248,48,228800,6,0,B|236:121|236:121|194:133|183:180,1,157.500006008148,0|2,1:0|0:0,0:0:0:0:
256,192,229163,1,0,0:0:0:0:
329,204,229284,2,0,B|318:251|276:263|276:263|264:336,1,157.500006008148,8|2,1:0|0:0,0:0:0:0:
176,344,229647,2,0,L|136:272,1,78.7500030040742,0|0,0:0|1:0,0:0:0:0:
52,296,229889,2,0,L|56:216,1,78.7500030040742,0|2,0:0|0:0,0:0:0:0:
336,40,230252,2,0,L|376:112,1,78.7500030040742,8|0,1:0|0:0,0:0:0:0:
460,88,230494,2,0,L|456:168,1,78.7500030040742,2|0,0:0|0:0,0:0:0:0:
452,252,230736,6,0,B|448:317|448:317|443:370|383:374,1,157.500006008148,0|2,1:0|0:0,0:0:0:0:
125,10,231219,2,0,B|69:14|64:67|64:67|60:132,1,157.500006008148,8|2,1:0|0:0,0:0:0:0:
60,212,231582,1,2,0:1:0:0:
84,288,231703,2,0,P|112:316|156:320,1,78.7500030040742,2|2,1:0|0:0,0:0:0:0:
228,308,231945,1,2,0:1:0:0:
436,76,232187,2,0,P|428:112|400:144,1,78.7500030040742,10|0,1:0|0:0,0:0:0:0:
332,180,232429,1,2,0:1:0:0:
204,36,232671,6,0,P|148:92|76:76,1,157.500006008148,0|2,1:0|0:0,0:0:0:0:
308,36,233155,2,0,P|364:92|436:76,1,157.500006008148,8|2,1:0|0:0,0:0:0:0:
500,108,233518,1,0,0:0:0:0:
504,180,233639,1,0,1:0:0:0:
476,244,233760,1,0,0:0:0:0:
408,260,233881,1,2,0:0:0:0:
164,336,234123,2,0,P|132:304|96:296,1,78.7500030040742,8|0,1:0|0:0,0:0:0:0:
12,304,234365,2,0,P|16:260|36:232,1,78.7500030040742,2|0,0:0|0:0,0:0:0:0:
104,180,234607,5,0,1:0:0:0:
256,36,234849,1,2,0:0:0:0:
408,180,235090,1,8,1:0:0:0:
256,36,235332,1,2,0:0:0:0:
256,108,235453,1,2,0:1:0:0:
256,180,235574,1,2,1:1:0:0:
256,252,235695,1,2,0:0:0:0:
256,324,235816,1,2,0:1:0:0:
468,48,236058,1,10,1:1:0:0:
44,48,236300,1,2,0:1:0:0:
480,260,236542,6,0,P|408:288|336:260,1,157.500006008148,4|2,0:1|0:0,0:0:0:0:
56,264,237026,2,0,P|128:292|200:264,1,157.500006008148,10|2,1:0|0:0,0:0:0:0:
148,196,237389,2,0,L|100:132,1,78.7500030040742,2|0,0:1|0:0,0:0:0:0:
180,100,237631,2,0,L|160:24,1,78.7500030040742,2|2,0:1|0:0,0:0:0:0:
372,44,237994,1,8,1:0:0:0:
432,80,238115,1,2,0:1:0:0:
464,144,238236,1,2,0:0:0:0:
468,216,238357,1,2,0:1:0:0:
444,284,238478,6,0,L|372:336,1,78.7500030040742,2|0,1:0|0:0,0:0:0:0:
324,268,238719,2,0,P|304:236|300:196,1,78.7500030040742
211,195,238961,2,0,P|208:234|188:268,1,78.7500030040742,10|0,1:0|0:0,0:0:0:0:
131,330,239203,2,0,L|68:284,1,78.7500030040742,0|2,0:0|0:1,0:0:0:0:
24,216,239445,1,2,0:1:0:0:
16,136,239566,1,2,0:1:0:0:
32,60,239687,1,2,0:1:0:0:
437,230,239929,5,2,0:0:0:0:
198,15,240171,1,2,0:3:0:0:
131,330,240413,1,0,0:0:0:0:
