osu file format v12

[General]
AudioFilename: Wake Me Up.mp3
AudioLeadIn: 0
PreviewTime: 53877
Countdown: 0
SampleSet: Soft
StackLeniency: 0.7
Mode: 0
LetterboxInBreaks: 1
WidescreenStoryboard: 1

[Editor]
DistanceSpacing: 1.4
BeatDivisor: 4
GridSize: 4

[Metadata]
Title:Wake Me Up
TitleUnicode:Wake Me Up
Artist:Avicii
ArtistUnicode:Avicii
Creator:SuperMICrophone
Version:Hard
Source:
Tags:techno dubstep electronic house phaZ
BeatmapID:315922
BeatmapSetID:108633

[Difficulty]
HPDrainRate:6
CircleSize:4
OverallDifficulty:6
ApproachRate:7
SliderMultiplier:1.7
SliderTickRate:1

[Events]
//Background and Video events
0,0,"don-t-wake-me-up.jpg",0,0
//Break Periods
2,70290,79836
2,116742,131126
2,178678,189190
//Storyboard Layer 0 (Background)
//Storyboard Layer 1 (Fail)
//Storyboard Layer 2 (Pass)
//Storyboard Layer 3 (Foreground)
//Storyboard Sound Samples
//Background Colour Transformations
3,100,163,162,255

[TimingPoints]
6220,483.870967741935,4,2,0,60,1,0
10816,-100,4,2,0,45,0,0
12509,-100,4,2,0,60,0,0
14445,-100,4,2,0,45,0,0
16380,-100,4,2,0,60,0,0
19283,-100,4,2,0,45,0,0
20412,-100,4,2,0,60,0,0
22186,-100,4,2,0,45,0,0
24002,-100,4,2,0,60,0,0
26542,-100,4,2,0,45,0,0
27873,-100,4,2,0,60,0,0
30050,-100,4,2,0,45,0,0
31744,-100,4,2,0,60,0,0
37187,-100,4,2,0,45,0,0
38397,-100,4,2,0,20,0,0
38639,-100,4,2,0,40,0,0
38881,-100,4,2,0,60,0,0
39123,-100,4,2,1,60,0,0
67550,-100,4,2,0,60,0,0
68155,-100,4,2,1,60,0,0
83639,-100,4,2,0,60,0,0
85574,-83.3333333333333,4,2,2,60,0,1
99123,-83.3333333333333,4,2,2,60,0,0
101058,-83.3333333333333,4,2,2,60,0,1
116542,-100,4,2,0,60,0,0
132026,-100,4,2,0,60,0,0
137832,-100,4,2,0,45,0,0
139768,-100,4,2,0,60,0,0
146784,-100,4,2,0,20,0,0
147026,-100,4,2,0,40,0,0
147268,-100,4,2,1,60,0,0
160453,-100,4,2,0,60,0,0
162994,-100,4,2,1,60,0,0
171099,-100,4,2,0,60,0,0
171461,-100,4,2,1,60,0,0
172066,-100,4,2,0,60,0,0
172429,-100,4,2,1,60,0,0
193478,-100,4,2,1,5,0,0
193719,-100,4,2,1,60,0,0
207510,-83.3333333333333,4,2,0,60,0,0
209445,-83.3333333333333,4,2,2,60,0,1
222994,-83.3333333333333,4,2,2,60,0,0
224929,-83.3333333333333,4,2,2,60,0,1
239929,-83.3333333333333,4,2,0,60,0,1
240413,-83.3333333333333,4,2,2,60,0,0

[Colours]
Combo1 : 255,159,64
Combo2 : 255,255,64
Combo3 : 64,255,64
Combo4 : 64,64,255

[HitObjects]
76,188,8155,2,0,L|140:124,1,85,4|0,0:0|0:0,0:0:0:0:
212,60,8639,2,0,P|248:84|292:80,1,85,2|0,0:0|0:0,0:0:0:0:
320,68,9002,2,0,B|352:119|352:119|388:127|408:159,1,127.5,2|0,0:0|0:0,0:0:0:0:
324,220,9607,2,0,P|360:252|400:260,1,85,0|0,0:0|0:0,0:0:0:0:
428,256,9969,2,0,P|428:352|328:360,1,212.5,2|0,0:0|0:0,0:0:0:0:
236,324,10816,6,0,P|192:320|152:336,2,85,2|0|2,0:0|0:0|0:0,0:0:0:0:
76,92,11784,1,2,0:0:0:0:
76,92,12026,2,0,P|116:108|160:108,1,85,0|0,0:0|0:0,0:0:0:0:
292,60,12510,6,0,P|336:48|372:60,1,85,2|0,0:0|0:0,0:0:0:0:
396,80,12873,2,0,L|416:208,1,127.5,2|0,0:0|0:0,0:0:0:0:
360,204,13357,2,0,L|376:292,1,85
456,316,13840,2,0,P|416:364|352:372,1,127.5,2|0,0:0|0:0,0:0:0:0:
164,232,14687,5,2,0:0:0:0:
164,208,14808,1,0,0:0:0:0:
184,188,14929,2,0,P|212:156|220:112,1,85,0|2,0:0|0:0,0:0:0:0:
424,84,15655,1,2,0:0:0:0:
424,84,15897,6,0,P|456:104|476:148,1,85
472,248,16381,2,0,L|468:296,1,42.5,2|0,0:0|0:0,0:0:0:0:
384,352,16744,2,0,L|248:348,1,127.5,2|0,0:0|0:0,0:0:0:0:
156,344,17349,2,0,P|120:312|112:276,1,85
116,244,17711,2,0,P|116:180|76:132,1,127.5,2|0,0:0|0:0,0:0:0:0:
176,104,18316,2,0,P|208:68|244:60,1,85,2|0,0:0|0:0,0:0:0:0:
280,64,18679,2,0,P|344:64|392:24,1,127.5,2|0,0:0|0:0,0:0:0:0:
484,204,19526,5,2,0:0:0:0:
484,204,19768,2,0,L|492:288,1,85,0|0,0:0|0:0,0:0:0:0:
288,300,20494,1,2,0:0:0:0:
288,300,20736,2,0,P|220:256|140:288,1,170,0|2,0:0|0:0,0:0:0:0:
92,356,21461,1,0,0:0:0:0:
92,356,21582,2,0,P|56:304|68:240,1,127.5,0|2,0:0|0:0,0:0:0:0:
80,56,22429,5,2,0:0:0:0:
80,56,22671,2,0,P|116:32|156:24,1,85,0|2,0:0|0:0,0:0:0:0:
360,52,23397,1,2,0:0:0:0:
360,52,23518,1,0,0:0:0:0:
360,52,23639,2,0,P|380:95|407:124,1,85,0|0,0:0|0:0,0:0:0:0:
436,140,24002,1,0,0:0:0:0:
468,148,24123,6,0,P|440:184|436:228,1,85,2|0,0:0|0:0,0:0:0:0:
448,256,24486,2,0,P|412:316|360:332,1,127.5,2|0,0:0|0:0,0:0:0:0:
256,336,25090,2,0,L|228:252,1,85
220,224,25453,2,0,P|160:248|96:240,1,127.5,2|0,0:0|0:0,0:0:0:0:
68,228,25937,1,2,0:0:0:0:
52,200,26058,1,0,0:0:0:0:
44,100,26300,2,0,L|40:52,2,42.5,0|2|0,0:0|0:0|0:0,0:0:0:0:
164,168,26784,2,0,P|248:168|324:112,1,170,2|2,0:0|0:0,0:0:0:0:
356,28,27510,6,0,L|448:48,1,85
468,52,27873,2,0,L|520:64,2,42.5,0|2|0,0:0|0:0|0:0,0:0:0:0:
404,132,28357,2,0,P|388:168|396:212,1,85,2|0,0:0|0:0,0:0:0:0:
488,256,28840,2,0,P|464:296|424:312,1,85,2|0,0:0|0:0,0:0:0:0:
332,288,29324,2,0,P|240:260|176:344,1,212.5,2|0,0:0|0:0,0:0:0:0:
80,308,30171,5,2,0:0:0:0:
80,308,30413,2,0,P|80:264|64:224,1,85,0|2,0:0|0:0,0:0:0:0:
124,32,31139,1,2,0:0:0:0:
124,32,31260,1,0,0:0:0:0:
124,32,31381,2,0,L|208:52,1,85
240,60,31744,5,0,0:0:0:0:
272,64,31865,2,0,P|316:68|360:60,1,85,2|0,0:0|0:0,0:0:0:0:
388,76,32228,2,0,B|404:116|404:116|440:144,1,85,4|2,0:0|0:0,0:0:0:0:
437,242,32711,2,0,B|404:268|404:268|388:308,1,85,2|2,0:0|0:0,0:0:0:0:
308,244,33195,1,0,0:0:0:0:
204,244,33437,1,2,0:0:0:0:
124,308,33679,2,0,B|108:268|108:268|74:242,1,85,0|2,0:0|0:0,0:0:0:0:
74,141,34163,2,0,B|108:116|108:116|124:76,1,85,0|2,0:0|0:0,0:0:0:0:
220,40,34647,1,0,0:0:0:0:
220,40,34768,2,0,P|292:60|332:144,1,170,2|0,0:0|0:0,0:0:0:0:
448,308,35736,6,0,L|492:304,2,42.5,0|2|0,0:0|0:0|0:0,0:0:0:0:
348,320,36219,2,0,P|300:328|260:352,1,85,2|0,0:0|0:0,0:0:0:0:
168,364,36703,2,0,P|108:356|64:304,1,127.5,2|0,0:0|0:0,0:0:0:0:
80,276,37187,6,0,L|76:188,1,85,0|2,0:0|0:0,0:0:0:0:
132,28,37913,1,2,0:0:0:0:
132,28,38034,1,0,0:0:0:0:
132,28,38155,1,0,0:0:0:0:
184,144,38397,5,4,0:0:0:0:
256,40,38639,1,4,0:0:0:0:
328,144,38881,1,4,0:0:0:0:
380,28,39123,6,0,L|464:16,1,85,4|8,0:1|0:0,0:0:0:0:
420,116,39607,2,0,L|504:120,1,85,2|8,0:0|0:0,0:0:0:0:
400,212,40090,2,0,L|480:248,1,85,2|8,0:0|0:0,0:0:0:0:
340,288,40574,2,0,L|392:356,1,85,2|8,0:0|0:0,0:0:0:0:
360,364,40937,2,0,P|297:362|229:374,1,127.5,0|8,0:0|0:0,0:0:0:0:
228,260,41542,1,2,0:0:0:0:
136,320,41784,2,0,L|116:360,2,42.5,8|0|2,0:0|0:0|0:0,0:0:0:0:
116,212,42268,1,8,0:0:0:0:
4,204,42510,6,0,P|13:162|44:128,1,85,2|8,0:0|0:0,0:0:0:0:
148,112,42994,2,0,L|120:28,1,85,2|8,0:0|0:0,0:0:0:0:
232,36,43478,1,2,0:0:0:0:
340,44,43719,1,8,0:0:0:0:
452,52,43961,2,0,L|478:132,1,85,2|8,0:0|0:0,0:0:0:0:
508,240,44445,1,2,0:0:0:0:
476,348,44687,1,8,0:0:0:0:
476,348,44808,2,0,B|416:364|416:364|388:340|356:344,1,127.5,0|8,0:0|0:0,0:0:0:0:
256,296,45413,6,0,L|256:212,2,85,2|8|2,0:0|0:0|0:0,0:0:0:0:
156,344,46139,1,8,0:0:0:0:
124,348,46260,1,0,0:0:0:0:
92,340,46381,2,0,P|52:316|36:276,1,85,2|8,0:0|0:0,0:0:0:0:
92,184,46865,6,0,L|104:92,1,85,2|8,0:0|0:0,0:0:0:0:
192,20,47349,1,2,0:0:0:0:
224,136,47590,1,8,0:0:0:0:
172,244,47832,2,0,P|216:244|252:224,1,85,2|8,0:0|0:0,0:0:0:0:
276,204,48195,2,0,P|316:204|348:232,1,85
360,264,48558,2,0,L|385:349,2,85,8|2|8,0:0|0:0|0:0,0:0:0:0:
448,108,49526,2,0,L|423:23,2,85,8|2|8,0:0|0:0|0:0,0:0:0:0:
460,220,50252,2,0,P|412:216|380:192,1,85,2|8,0:0|0:0,0:0:0:0:
328,100,50736,6,0,P|296:72|252:60,1,85,2|8,0:0|0:0,0:0:0:0:
144,60,51219,1,2,0:0:0:0:
52,120,51461,1,8,0:0:0:0:
56,232,51703,1,2,0:0:0:0:
136,308,51945,1,8,0:0:0:0:
136,308,52066,2,0,P|184:348|248:356,1,127.5,0|8,0:0|0:0,0:0:0:0:
324,288,52671,6,0,L|336:200,1,85,2|8,0:0|0:0,0:0:0:0:
420,48,53155,2,0,L|408:132,1,85,2|8,0:0|0:0,0:0:0:0:
496,220,53639,2,0,L|411:208,1,85,2|8,0:0|0:0,0:0:0:0:
332,108,54123,1,2,0:0:0:0:
228,36,54365,1,8,0:0:0:0:
100,52,54607,6,0,P|64:68|40:108,1,85,4|8,0:1|0:0,0:0:0:0:
32,216,55090,2,0,L|32:304,1,85,2|8,0:0|0:0,0:0:0:0:
128,356,55574,2,0,P|168:368|212:356,1,85,2|8,0:0|0:0,0:0:0:0:
152,264,56058,2,0,P|192:252|236:264,1,85,2|8,0:0|0:0,0:0:0:0:
260,284,56421,2,0,P|316:308|384:300,1,127.5,0|8,0:0|0:0,0:0:0:0:
460,224,57026,6,0,L|504:232,2,42.5,2|0|8,0:0|0:0|0:0,0:0:0:0:
352,204,57510,2,0,L|336:161,2,42.5,2|0|8,0:0|0:0|0:0,0:0:0:0:
432,128,57994,2,0,B|420:100|420:100|408:76|380:64,1,85,2|8,0:0|0:0,0:0:0:0:
268,68,58478,6,0,L|180:76,1,85,2|8,0:0|0:0,0:0:0:0:
104,152,58961,1,2,0:0:0:0:
184,228,59203,1,8,0:0:0:0:
36,328,59445,2,0,L|120:320,1,85,2|8,0:0|0:0,0:0:0:0:
184,228,59929,1,2,0:0:0:0:
296,220,60171,1,8,0:0:0:0:
296,220,60292,2,0,P|328:272|388:296,1,127.5,0|8,0:0|0:0,0:0:0:0:
424,192,60897,2,0,P|464:212|488:248,2,85,2|8|2,0:0|0:0|0:0,0:0:0:0:
296,220,61623,2,0,P|300:132|348:60,1,170,8|8,0:0|0:0,0:0:0:0:
424,44,62349,6,0,P|380:64|336:64,1,85,2|8,0:0|0:0,0:0:0:0:
148,28,62832,2,0,L|160:112,1,85,2|8,0:0|0:0,0:0:0:0:
176,224,63316,2,0,P|196:264|228:288,1,85,2|8,0:0|0:0,0:0:0:0:
260,296,63679,2,0,P|305:317|329:349,1,85
352,364,64042,2,0,L|436:384,1,85,8|2,0:0|0:0,0:0:0:0:
416,276,64526,1,8,0:0:0:0:
500,204,64768,1,2,0:0:0:0:
432,116,65010,1,8,0:0:0:0:
432,116,65131,2,0,P|392:40|272:52,1,212.5,0|2,0:0|0:0,0:0:0:0:
68,116,66219,6,0,L|88:200,1,85,2|8,0:0|0:0,0:0:0:0:
192,236,66703,2,0,L|172:153,1,85,2|8,0:0|0:0,0:0:0:0:
248,72,67187,2,0,P|264:136|312:172,1,127.5,2|2,0:0|0:2,0:0:0:0:
356,272,67792,2,0,P|404:232|420:168,1,127.5,2|2,0:2|0:3,0:0:0:0:
256,192,68276,12,4,70090,0:0:0:0:
256,192,80736,12,0,83155,0:0:0:0:
256,192,83639,5,2,0:0:0:0:
256,192,84123,1,0,0:0:0:0:
136,80,84486,1,2,0:1:0:0:
136,80,84607,2,0,L|100:44,2,42.5,2|2|2,0:1|0:1|0:1,0:0:0:0:
256,192,85090,1,4,0:0:0:0:
292,24,85332,1,4,0:0:0:0:
436,112,85574,6,0,L|456:212,1,101.999996887207,4|2,1:0|0:0,0:0:0:0:
356,284,86058,2,0,P|328:332|276:352,1,101.999996887207,8|2,1:0|0:0,0:0:0:0:
252,352,86421,1,0,0:0:0:0:
220,336,86542,2,0,L|196:288,2,50.9999984436036,0|0|2,1:0|0:0|0:0,0:0:0:0:
96,332,87026,2,0,L|120:380,2,50.9999984436036,8|0|2,1:0|0:0|0:0,0:0:0:0:
84,208,87510,6,0,P|76:160|92:104,1,101.999996887207,0|2,1:0|0:0,0:0:0:0:
172,20,87994,2,0,P|220:12|268:36,1,101.999996887207,8|2,1:0|0:0,0:0:0:0:
296,56,88357,1,2,0:1:0:0:
316,88,88478,2,0,L|328:140,2,50.9999984436036,2|2|2,1:1|0:0|0:1,0:0:0:0:
196,140,88961,2,0,P|200:188|228:236,1,101.999996887207,10|2,1:0|0:1,0:0:0:0:
316,356,89445,6,0,L|428:340,1,101.999996887207,0|2,1:0|0:0,0:0:0:0:
468,232,89929,2,0,L|367:246,1,101.999996887207,8|2,1:0|0:0,0:0:0:0:
296,144,90413,1,0,1:0:0:0:
296,144,90534,1,0,0:0:0:0:
296,144,90655,1,2,0:0:0:0:
332,28,90897,2,0,P|280:24|232:44,1,101.999996887207,8|2,1:0|0:0,0:0:0:0:
168,140,91381,6,0,B|100:140|100:140|76:116,1,101.999996887207,0|2,1:0|0:0,0:0:0:0:
168,244,91865,2,0,B|100:244|100:244|76:268,1,101.999996887207,8|2,1:0|0:0,0:0:0:0:
56,292,92228,1,2,0:1:0:0:
44,320,92349,2,0,P|33:338|28:368,2,50.9999984436036,2|2|2,1:1|0:0|0:1,0:0:0:0:
156,336,92832,2,0,P|208:328|260:328,1,101.999996887207,10|2,1:0|0:1,0:0:0:0:
380,332,93316,5,0,1:0:0:0:
504,328,93558,1,2,0:0:0:0:
496,204,93800,1,8,1:0:0:0:
372,212,94042,1,2,0:0:0:0:
340,200,94163,1,0,0:0:0:0:
324,168,94284,2,0,L|320:116,2,50.9999984436036,0|0|2,1:0|0:0|0:0,0:0:0:0:
184,180,94768,1,8,1:0:0:0:
184,180,94889,2,0,L|188:232,2,50.9999984436036,0|2|0,0:0|0:0|0:0,0:0:0:0:
180,140,95252,6,0,L|172:27,1,101.999996887207,0|2,1:0|0:0,0:0:0:0:
288,76,95736,2,0,L|399:67,1,101.999996887207,8|2,1:0|0:0,0:0:0:0:
512,56,96219,1,2,1:0:0:0:
512,56,96340,1,2,0:0:0:0:
512,56,96461,1,2,0:1:0:0:
464,168,96703,2,0,P|460:220|476:268,1,101.999996887207,10|2,1:0|0:1,0:0:0:0:
356,248,97187,6,0,P|332:292|284:316,1,101.999996887207,0|2,1:0|0:0,0:0:0:0:
196,232,97671,1,8,1:0:0:0:
172,352,97913,1,2,0:0:0:0:
288,316,98155,2,0,L|328:357,2,50.9999984436036,0|0|2,1:0|0:0|0:0,0:0:0:0:
196,232,98639,2,0,P|152:204|128:156,1,101.999996887207,8|2,1:0|0:0,0:0:0:0:
272,40,99123,1,4,0:0:0:0:
256,192,99244,12,4,101058,1:0:0:0:
256,192,101542,5,12,1:0:0:0:
100,288,102026,2,0,L|108:344,2,50.9999984436036,0|0|2,1:0|0:0|0:0,0:0:0:0:
80,168,102510,2,0,P|68:116|44:68,1,101.999996887207,8|2,1:0|0:0,0:0:0:0:
160,28,102994,6,0,L|268:36,1,101.999996887207,0|2,1:0|0:0,0:0:0:0:
196,140,103478,2,0,L|280:212,1,101.999996887207,8|2,1:0|0:0,0:0:0:0:
304,228,103840,1,2,0:1:0:0:
332,248,103961,2,0,L|352:296,2,50.9999984436036,2|2|2,1:1|0:0|0:1,0:0:0:0:
364,120,104445,2,0,P|392:76|436:52,1,101.999996887207,10|2,1:0|0:1,0:0:0:0:
472,164,104929,6,0,P|488:212|480:268,1,101.999996887207,0|2,1:0|0:0,0:0:0:0:
408,360,105413,1,8,1:0:0:0:
284,368,105655,1,2,0:0:0:0:
204,276,105897,1,0,1:0:0:0:
176,256,106018,1,0,0:0:0:0:
140,248,106139,1,2,0:0:0:0:
88,360,106381,2,0,P|44:344|12:300,1,101.999996887207,8|2,1:0|0:0,0:0:0:0:
36,188,106865,6,0,L|20:80,1,101.999996887207,0|2,1:0|0:0,0:0:0:0:
124,16,107349,2,0,L|144:120,1,101.999996887207,8|2,1:0|0:0,0:0:0:0:
152,152,107711,1,2,0:1:0:0:
160,188,107832,2,0,L|172:240,2,50.9999984436036,2|2|2,1:1|0:0|0:1,0:0:0:0:
232,52,108316,1,10,1:0:0:0:
328,172,108558,1,2,0:1:0:0:
448,76,108800,6,0,P|432:124|448:172,1,101.999996887207,0|2,1:0|0:0,0:0:0:0:
492,288,109284,2,0,L|388:324,1,101.999996887207,8|2,1:0|0:0,0:0:0:0:
284,268,109768,1,0,1:0:0:0:
284,268,109889,1,0,0:0:0:0:
284,268,110010,1,2,0:0:0:0:
244,152,110252,2,0,P|200:176|172:224,1,101.999996887207,8|2,1:0|0:0,0:0:0:0:
132,336,110736,5,0,1:0:0:0:
24,276,110978,1,2,0:0:0:0:
20,156,111219,2,0,P|28:100|52:56,1,101.999996887207,8|2,1:0|0:0,0:0:0:0:
76,40,111582,1,2,0:1:0:0:
108,24,111703,1,2,1:1:0:0:
144,20,111824,1,2,0:0:0:0:
180,24,111945,1,2,0:1:0:0:
348,72,112187,1,10,1:0:0:0:
220,192,112429,1,2,0:1:0:0:
256,192,112671,12,4,116542,0:0:0:0:
412,72,132026,6,0,P|368:116|364:180,1,127.5,2|0,0:0|0:0,0:0:0:0:
380,208,132510,2,0,P|376:256|368:300,1,85,2|0,0:0|0:0,0:0:0:0:
360,324,132873,1,2,0:0:0:0:
260,352,133115,1,0,0:0:0:0:
168,308,133357,1,2,0:0:0:0:
156,208,133599,2,0,P|152:140|116:92,1,127.5,0|2,0:0|0:0,0:0:0:0:
296,68,134445,2,0,L|344:60,1,42.5,2|0,0:0|0:0,0:0:0:0:
440,48,134808,1,0,0:0:0:0:
440,48,134929,2,0,P|396:96|392:156,2,127.5,2|2|2,0:0|0:0|0:0,0:0:0:0:
496,136,135897,6,0,P|504:180|484:224,1,85,0|0,0:0|0:0,0:0:0:0:
396,252,136381,2,0,L|408:296,1,42.5,2|0,0:0|0:0,0:0:0:0:
320,344,136744,2,0,P|276:300|212:296,1,127.5,2|0,0:0|0:0,0:0:0:0:
184,316,137228,2,0,P|153:257|112:208,1,127.5,2|0,0:0|0:0,0:0:0:0:
24,164,137832,6,0,P|32:120|56:88,1,85,4|2,0:0|0:0,0:0:0:0:
152,52,138316,1,0,0:0:0:0:
184,48,138437,2,0,L|188:4,2,42.5,2|0|2,0:0|0:0|0:0,0:0:0:0:
216,64,138800,2,0,P|256:88|296:84,1,85,0|2,0:0|0:0,0:0:0:0:
456,56,139526,1,2,0:0:0:0:
456,56,139647,1,0,0:0:0:0:
456,56,139768,6,0,P|452:100|464:140,1,85,0|0,0:0|0:0,0:0:0:0:
476,164,140131,1,0,0:0:0:0:
492,188,140252,2,0,P|496:232|484:272,1,85,2|0,0:0|0:0,0:0:0:0:
472,300,140615,2,0,P|416:300|352:332,1,127.5,2|0,0:0|0:0,0:0:0:0:
328,348,141099,1,2,0:0:0:0:
240,300,141340,1,0,0:0:0:0:
140,328,141582,1,0,0:0:0:0:
140,328,141703,2,0,B|103:320|92:268|115:260|137:252|127:200|89:188,2,170,2|2|0,0:0|0:0|0:0,0:0:0:0:
240,300,142913,6,0,P|268:260|268:224,1,85,2|0,0:0|0:0,0:0:0:0:
232,128,143397,1,2,0:0:0:0:
304,56,143639,6,0,P|376:16|448:56,1,170
488,148,144365,1,2,0:0:0:0:
404,204,144607,2,0,P|396:292|456:348,1,170,0|2,0:0|0:0,0:0:0:0:
484,256,145332,1,0,0:0:0:0:
484,256,145453,1,2,0:0:0:0:
484,256,145574,1,0,0:0:0:0:
404,204,145816,2,0,P|372:172|332:160,1,85,2|0,0:0|0:0,0:0:0:0:
236,188,146300,2,0,L|228:240,2,42.5,2|2|0,0:0|0:0|0:0,0:0:0:0:
260,52,146784,5,4,0:0:0:0:
124,52,147026,1,4,0:0:0:0:
28,148,147268,1,4,0:0:0:0:
32,288,147510,6,0,P|56:328|96:348,1,85,4|8,0:1|0:0,0:0:0:0:
128,244,147994,2,0,P|156:216|200:208,1,85,2|8,0:0|0:0,0:0:0:0:
244,308,148478,2,0,P|268:348|308:368,1,85,2|8,0:0|0:0,0:0:0:0:
340,264,148961,2,0,P|368:236|412:228,1,85,2|8,0:0|0:0,0:0:0:0:
444,236,149324,2,0,B|432:180|432:180|396:164|384:128,1,127.5,0|8,0:0|0:0,0:0:0:0:
476,68,149929,6,0,P|452:32|412:16,1,85,2|8,0:0|0:0,0:0:0:0:
304,16,150413,1,2,0:0:0:0:
240,108,150655,1,8,0:0:0:0:
264,216,150897,2,0,P|248:256|216:280,1,85,2|8,0:0|0:0,0:0:0:0:
112,316,151381,6,0,L|24:292,1,85,2|8,0:0|0:0,0:0:0:0:
96,204,151865,2,0,L|64:116,1,85,2|8,0:0|0:0,0:0:0:0:
176,120,152349,2,0,L|200:32,1,85,2|8,0:0|0:0,0:0:0:0:
288,104,152832,2,0,L|376:72,1,85,2|8,0:0|0:0,0:0:0:0:
384,44,153195,2,0,P|448:36|497:74,1,127.5,0|8,0:0|0:0,0:0:0:0:
512,172,153800,5,2,0:0:0:0:
484,272,154042,1,8,0:0:0:0:
472,304,154163,1,0,0:0:0:0:
448,328,154284,1,2,0:0:0:0:
340,348,154526,2,0,L|296:356,1,42.5,8|0,0:0|0:0,0:0:0:0:
264,360,154768,6,0,P|230:333|190:325,1,85,2|8,0:0|0:0,0:0:0:0:
104,188,155252,2,0,L|120:280,1,85,2|8,0:0|0:0,0:0:0:0:
44,104,155736,2,0,P|84:88|108:52,1,85,2|8,0:0|0:0,0:0:0:0:
216,28,156219,2,0,L|300:48,1,85,2|8,0:0|0:0,0:0:0:0:
332,56,156582,2,0,P|358:97|390:113,1,85
424,120,156945,2,0,P|468:140|492:172,2,85,8|2|8,0:0|0:0|0:0,0:0:0:0:
392,320,157913,2,0,P|419:352|457:368,2,85,8|2|8,0:0|0:0|0:0,0:0:0:0:
320,248,158639,2,0,L|232:264,1,85,2|8,0:0|0:0,0:0:0:0:
200,360,159123,6,0,P|160:336|140:300,1,85,2|8,0:0|0:0,0:0:0:0:
104,208,159607,1,2,0:0:0:0:
124,108,159849,1,8,0:0:0:0:
208,48,160090,2,0,P|272:76|332:68,1,127.5,2|2,0:0|0:0,0:0:0:0:
424,36,160695,1,2,0:0:0:0:
256,192,160937,12,0,162026,3:0:0:0:
256,60,162994,6,0,L|174:83,1,85,6|8,0:0|0:0,0:0:0:0:
52,128,163478,2,0,L|133:151,1,85,6|8,0:0|0:0,0:0:0:0:
256,196,163961,2,0,L|174:219,1,85,6|8,0:0|0:0,0:0:0:0:
52,264,164445,2,0,L|133:287,1,85,2|8,0:0|0:0,0:0:0:0:
168,296,164808,2,0,B|193:285|226:294|227:306|229:318|262:328|287:317,1,127.5,0|8,0:0|0:0,0:0:0:0:
384,264,165413,1,2,0:0:0:0:
476,312,165655,2,0,L|492:352,2,42.5,8|0|2,0:0|0:0|0:0,0:0:0:0:
496,204,166139,1,8,0:0:0:0:
472,96,166381,6,0,P|456:56|420:28,1,85,2|8,0:0|0:0,0:0:0:0:
324,80,166865,2,0,P|292:108|252:116,1,85,2|8,0:0|0:0,0:0:0:0:
140,100,167349,1,2,0:0:0:0:
52,32,167590,1,8,0:0:0:0:
20,248,167832,2,0,P|52:220|92:212,1,85,2|8,0:0|0:0,0:0:0:0:
204,204,168316,1,2,0:0:0:0:
296,264,168558,1,8,0:0:0:0:
296,264,168679,2,0,P|340:316|396:332,1,127.5,0|8,0:0|0:0,0:0:0:0:
476,124,169526,1,8,0:0:0:0:
476,124,169647,1,0,0:0:0:0:
476,124,169768,2,0,L|444:40,1,85,2|8,0:0|0:0,0:0:0:0:
220,48,170252,6,0,P|256:72|276:112,1,85,2|8,0:0|0:0,0:0:0:0:
324,220,170736,2,0,P|344:280|400:320,2,127.5,2|2|8,0:0|0:0|0:0,0:0:0:0:
188,164,171703,2,0,P|168:104|112:64,2,127.5,2|2|8,0:0|0:0|0:0,0:0:0:0:
156,272,172671,2,0,L|132:364,2,85,2|8|2,0:0|0:0|0:0,0:0:0:0:
264,248,173397,1,8,0:0:0:0:
264,248,173518,2,0,B|319:237|356:285|356:285|365:224|418:206,1,212.5,0|2,0:0|0:0,0:0:0:0:
460,44,174607,6,0,P|412:48|372:40,1,85,2|8,0:0|0:0,0:0:0:0:
344,32,174969,1,0,0:0:0:0:
312,24,175090,2,0,P|268:16|228:24,1,85,2|8,0:0|0:0,0:0:0:0:
124,60,175574,2,0,P|112:100|80:132,1,85,2|8,0:0|0:0,0:0:0:0:
56,152,175937,2,0,P|44:192|56:232,1,85
82,253,176300,2,0,P|111:283|124:324,1,85,8|2,0:0|3:3,0:0:0:0:
256,192,176663,12,4,178478,0:0:0:0:
256,192,190090,12,0,193478,0:0:0:0:
256,192,193719,5,2,0:0:0:0:
256,192,193961,1,6,0:0:0:0:
80,112,194445,2,0,P|108:80|148:68,1,85,6|0,0:0|0:0,0:0:0:0:
256,52,194929,2,0,L|256:96,2,42.5,2|0|0,0:0|0:0|0:0,0:0:0:0:
364,68,195413,2,0,P|404:80|432:112,1,85,2|0,0:0|0:0,0:0:0:0:
356,192,195897,5,2,0:0:0:0:
432,272,196139,1,0,0:0:0:0:
348,344,196381,1,2,0:0:0:0:
272,264,196623,1,0,0:0:0:0:
204,176,196865,2,0,L|172:136,2,42.5,2|0|0,0:0|0:0|0:0,0:0:0:0:
272,264,197349,2,0,P|240:292|200:304,1,85,2|0,0:0|0:0,0:0:0:0:
100,348,197832,6,0,L|68:268,1,85,2|0,0:0|0:0,0:0:0:0:
20,172,198316,2,0,P|32:128|56:96,1,85,2|0,0:0|0:0,0:0:0:0:
132,180,198800,1,2,0:0:0:0:
156,156,198921,1,0,0:0:0:0:
164,124,199042,1,0,0:0:0:0:
168,12,199284,2,0,P|208:16|244:44,1,85,2|0,0:0|0:0,0:0:0:0:
292,140,199768,6,0,L|296:228,1,85,2|0,0:0|0:0,0:0:0:0:
380,156,200252,2,0,L|372:36,1,85,2|0,0:0|0:0,0:0:0:0:
484,76,200736,2,0,L|480:28,2,42.5,2|0|0,0:0|0:0|0:0,0:0:0:0:
492,188,201219,1,2,0:0:0:0:
496,300,201461,1,0,0:0:0:0:
396,348,201703,6,0,P|352:340|320:313,1,85,8|0,0:0|0:0,0:0:0:0:
284,212,202187,2,0,L|208:252,1,85,8|0,0:0|0:0,0:0:0:0:
112,308,202671,1,8,0:0:0:0:
112,308,202792,1,0,0:0:0:0:
112,308,202913,1,0,0:0:0:0:
0,300,203155,2,0,P|-4:252|4:212,1,85,8|0,0:0|0:0,0:0:0:0:
80,136,203639,6,0,P|64:96|28:64,2,85,8|0|8,0:0|0:0|0:0,0:0:0:0:
148,48,204365,1,0,0:0:0:0:
256,24,204607,2,0,L|256:68,2,42.5,8|0|0,0:0|0:0|0:0,0:0:0:0:
364,48,205090,1,8,0:0:0:0:
432,136,205332,1,8,0:0:0:0:
452,244,205574,5,8,0:0:0:0:
462,356,205816,1,8,0:0:0:0:
348,369,206058,1,8,0:0:0:0:
336,254,206300,1,8,0:0:0:0:
244,192,206542,2,0,L|200:176,3,42.5,8|0|8|0,0:0|0:0|0:0|0:0,0:0:0:0:
164,192,207026,2,0,L|116:192,3,42.5,8|0|8|0,0:0|0:0|0:0|0:0,0:0:0:0:
80,192,207510,5,2,0:0:0:0:
188,32,207994,1,0,0:0:0:0:
488,96,208357,1,2,0:1:0:0:
488,96,208478,2,0,L|500:44,2,50.9999984436036,2|2|2,0:1|0:1|0:1,0:0:0:0:
456,192,208961,2,0,P|440:240|456:288,1,101.999996887207,4|4,0:0|0:0,0:0:0:0:
280,340,209445,6,0,L|176:328,1,101.999996887207,4|2,1:1|0:0,0:0:0:0:
64,288,209929,1,8,1:0:0:0:
40,168,210171,1,2,0:0:0:0:
48,128,210292,2,0,L|0:104,2,50.9999984436036,0|0|0,0:0|1:0|0:0,0:0:0:0:
80,100,210655,1,2,0:0:0:0:
200,84,210897,2,0,P|256:80|296:56,1,101.999996887207,8|2,1:0|0:0,0:0:0:0:
412,28,211381,6,0,P|460:24|508:44,1,101.999996887207,0|2,1:0|0:0,0:0:0:0:
440,148,211865,2,0,P|444:204|424:244,1,101.999996887207,8|2,1:0|0:0,0:0:0:0:
392,272,212228,1,2,0:1:0:0:
372,308,212349,2,0,P|368:332|376:360,2,50.9999984436036,2|2|2,1:1|0:0|0:1,0:0:0:0:
272,192,212832,1,10,1:0:0:0:
256,344,213074,1,2,0:1:0:0:
272,192,213316,6,0,P|268:144|248:88,1,101.999996887207,0|2,1:0|0:0,0:0:0:0:
156,12,213800,1,8,1:0:0:0:
36,40,214042,1,2,0:0:0:0:
16,160,214284,1,0,1:0:0:0:
12,200,214405,1,0,0:0:0:0:
8,240,214526,2,0,B|4:284|4:284|12:296|12:296|8:340,2,101.999996887207,2|8|2,0:0|1:0|0:0,0:0:0:0:
112,172,215252,6,0,P|168:184|204:216,1,101.999996887207,0|2,1:0|0:0,0:0:0:0:
112,292,215736,2,0,P|128:340|168:368,1,101.999996887207,8|2,1:0|0:0,0:0:0:0:
208,372,216099,1,2,0:1:0:0:
244,356,216219,2,0,L|256:304,2,50.9999984436036,2|2|2,1:0|0:0|0:1,0:0:0:0:
368,348,216703,2,0,B|384:272|384:272|403:256,1,101.999996887207,10|2,1:0|0:1,0:0:0:0:
403,128,217187,6,0,B|384:112|384:112|368:36,1,101.999996887207,0|2,1:0|0:0,0:0:0:0:
256,88,217671,1,8,1:0:0:0:
144,36,217913,1,2,0:0:0:0:
104,44,218034,1,0,0:0:0:0:
68,68,218155,2,0,P|49:83|36:108,2,50.9999984436036,0|0|2,1:0|0:0|0:0,0:0:0:0:
148,160,218639,2,0,P|160:212|140:256,1,101.999996887207,8|2,1:0|0:0,0:0:0:0:
44,332,219123,6,0,L|144:364,1,101.999996887207,0|2,1:0|0:0,0:0:0:0:
244,296,219607,2,0,B|273:267|290:283|307:299|336:271,1,101.999996887207,8|2,1:0|0:0,0:0:0:0:
364,240,219969,1,2,0:1:0:0:
392,212,220090,2,0,P|412:200|440:200,1,50.9999984436036,2|2,1:0|0:0,0:0:0:0:
476,216,220332,2,0,B|488:257|488:257|500:262|500:262|512:307,2,101.999996887207,2|10|2,0:1|1:0|0:1,0:0:0:0:
448,96,221058,6,0,P|412:56|360:40,1,101.999996887207,0|2,1:0|0:0,0:0:0:0:
244,48,221542,1,8,1:0:0:0:
256,168,221784,2,0,P|232:216|184:232,1,101.999996887207,2|0,0:0|1:0,0:0:0:0:
148,232,222147,1,0,0:0:0:0:
112,216,222268,1,2,0:0:0:0:
88,332,222510,1,8,1:0:0:0:
256,348,222752,1,2,0:0:0:0:
424,332,222994,1,4,0:0:0:0:
256,192,223115,12,4,224929,1:0:0:0:
256,192,225413,5,12,1:0:0:0:
36,88,225897,2,0,L|28:36,2,50.9999984436036,0|0|2,1:0|0:0|0:0,0:0:0:0:
52,180,226381,2,0,P|56:232|36:276,1,101.999996887207,8|2,1:0|0:0,0:0:0:0:
128,356,226865,5,0,1:0:0:0:
252,348,227107,1,2,0:0:0:0:
252,224,227349,1,8,1:0:0:0:
376,216,227590,1,2,0:0:0:0:
416,212,227711,1,2,0:1:0:0:
456,208,227832,2,0,L|507:204,2,50.9999984436036,2|2|2,1:1|0:0|0:1,0:0:0:0:
408,104,228316,2,0,P|392:52|352:16,1,101.999996887207,10|2,1:0|0:1,0:0:0:0:
288,116,228800,6,0,L|188:100,1,101.999996887207,0|2,1:0|0:0,0:0:0:0:
64,88,229284,2,0,P|44:132|52:184,1,101.999996887207,8|2,1:0|0:0,0:0:0:0:
68,220,229647,1,0,0:0:0:0:
84,260,229768,2,0,P|88:284|84:312,2,50.9999984436036,0|0|2,1:0|0:0|0:0,0:0:0:0:
180,180,230252,2,0,L|240:268,1,101.999996887207,8|2,1:0|0:0,0:0:0:0:
300,368,230736,5,0,1:0:0:0:
424,376,230978,1,2,0:0:0:0:
332,276,231219,1,8,1:0:0:0:
456,284,231461,1,2,0:0:0:0:
492,264,231582,1,2,0:1:0:0:
504,224,231703,1,2,1:0:0:0:
504,184,231824,2,0,P|504:164|496:132,1,50.9999984436036,2|2,0:0|0:1,0:0:0:0:
400,16,232187,1,10,1:0:0:0:
248,20,232429,1,2,0:1:0:0:
128,112,232671,6,0,P|96:160|52:176,1,101.999996887207,0|2,1:0|0:0,0:0:0:0:
32,296,233155,2,0,L|132:276,1,101.999996887207,8|2,1:0|0:0,0:0:0:0:
172,268,233518,1,0,0:0:0:0:
212,260,233639,2,0,L|264:248,2,50.9999984436036,0|0|2,1:0|0:0|0:0,0:0:0:0:
32,296,234123,2,0,P|80:304|128:332,1,101.999996887207,8|2,1:0|0:0,0:0:0:0:
164,348,234486,1,0,0:0:0:0:
204,364,234607,6,0,P|252:368|304:348,1,101.999996887207,0|2,1:0|0:0,0:0:0:0:
404,280,235090,1,8,1:0:0:0:
452,168,235332,1,2,0:0:0:0:
424,140,235453,1,2,0:1:0:0:
384,128,235574,2,0,P|360:120|340:100,2,50.9999984436036,2|2|2,1:0|0:0|0:1,0:0:0:0:
496,76,236058,2,10,P|452:52|400:56,1,101.999996887207,10|2,1:0|0:1,0:0:0:0:
236,96,236542,6,0,L|128:72,1,101.999996887207,4|2,0:1|0:0,0:0:0:0:
104,192,237026,2,0,L|-4:192,1,101.999996887207,10|0,1:1|0:0,0:0:0:0:
136,312,237510,2,0,L|128:364,2,50.9999984436036,2|2|2,0:1|0:0|0:1,0:0:0:0:
192,200,237994,1,8,1:1:0:0:
220,180,238115,1,0,0:0:0:0:
256,176,238236,1,2,0:1:0:0:
292,180,238357,1,0,0:0:0:0:
320,200,238478,6,0,P|360:232|412:236,1,101.999996887207,2|0,1:1|0:0,0:0:0:0:
496,320,238961,2,0,L|500:216,1,101.999996887207,10|0,1:0|0:0,0:0:0:0:
500,176,239324,1,2,0:1:0:0:
492,136,239445,1,2,0:1:0:0:
476,100,239566,1,2,0:1:0:0:
444,72,239687,1,2,0:1:0:0:
296,40,239929,5,2,0:0:0:0:
128,78,240171,1,2,3:0:0:0:
245,203,240413,1,0,0:0:0:0:
