osu file format v12

[General]
AudioFilename: Wake Me Up.mp3
AudioLeadIn: 0
PreviewTime: 53877
Countdown: 0
SampleSet: Soft
StackLeniency: 0.7
Mode: 0
LetterboxInBreaks: 1
WidescreenStoryboard: 1

[Editor]
DistanceSpacing: 1
BeatDivisor: 4
GridSize: 4

[Metadata]
Title:Wake Me Up
TitleUnicode:Wake Me Up
Artist:Avicii
ArtistUnicode:Avicii
Creator:SuperMICrophone
Version:Easy
Source:
Tags:techno dubstep electronic house phaZ
BeatmapID:300253
BeatmapSetID:108633

[Difficulty]
HPDrainRate:3
CircleSize:3
OverallDifficulty:2
ApproachRate:3
SliderMultiplier:1
SliderTickRate:1

[Events]
//Background and Video events
0,0,"don-t-wake-me-up.jpg",0,0
//Break Periods
2,70290,82199
2,116742,130586
2,178678,188650
//Storyboard Layer 0 (Background)
//Storyboard Layer 1 (Fail)
//Storyboard Layer 2 (Pass)
//Storyboard Layer 3 (Foreground)
//Storyboard Sound Samples
//Background Colour Transformations
3,100,163,162,255

[TimingPoints]
6220,483.870967741935,4,2,0,60,1,0
38397,-100,4,2,0,20,0,0
38639,-100,4,2,0,40,0,0
38881,-100,4,2,0,60,0,0
39123,-100,4,2,1,60,0,0
83639,-100,4,2,0,60,0,0
84607,-100,4,1,2,50,0,0
85574,-100,4,1,2,60,0,1
99123,-100,4,1,2,60,0,0
101058,-100,4,1,2,60,0,1
116542,-100,4,2,0,60,0,0
146784,-100,4,2,0,20,0,0
147026,-100,4,2,0,40,0,0
147268,-100,4,2,1,60,0,0
193236,-100,4,2,1,5,0,0
193719,-100,4,2,1,60,0,0
207510,-100,4,2,0,60,0,0
208478,-100,4,1,2,60,0,0
209445,-100,4,1,2,60,0,1
222994,-100,4,2,2,60,0,0
224929,-100,4,1,2,60,0,1
239445,-100,4,2,0,60,0,1
239929,-100,4,2,0,60,0,1
240413,-100,4,1,2,60,0,0

[Colours]
Combo1 : 255,159,64
Combo2 : 255,255,64
Combo3 : 64,255,64
Combo4 : 64,64,255

[HitObjects]
72,192,8155,1,4,0:0:0:0:
116,104,8639,2,0,P|160:76|208:76,1,99.9999999999999,2|0,0:0|0:0,0:0:0:0:
305,75,9607,2,0,P|354:76|396:104,1,99.9999999999999,2|0,0:0|0:0,0:0:0:0:
440,192,10574,1,2,0:0:0:0:
340,328,12510,5,2,0:0:0:0:
244,308,12994,1,0,0:0:0:0:
148,284,13478,2,0,L|44:260,2,99.9999999999999,2|0|2,0:0|0:0|0:0,0:0:0:0:
464,40,16381,6,0,P|416:64|396:104,1,99.9999999999999,2|0,0:0|0:0,0:0:0:0:
392,204,17349,2,0,L|402:303,1,99.9999999999999,2|0,0:0|0:0,0:0:0:0:
320,360,18316,2,0,L|308:248,1,99.9999999999999,2|0,0:0|0:0,0:0:0:0:
184,84,20252,5,0,0:0:0:0:
104,144,20736,2,0,P|92:192|104:240,1,99.9999999999999,2|0,0:0|0:0,0:0:0:0:
184,300,21703,1,2,0:0:0:0:
348,344,23639,6,0,P|364:296|400:256,1,99.9999999999999,4|0,0:0|0:0,0:0:0:0:
464,188,24607,2,0,P|460:144|432:96,1,100,2|0,0:0|0:0,0:0:0:0:
348,40,25574,1,2,0:0:0:0:
256,80,26058,1,0,0:0:0:0:
164,40,26542,1,2,0:0:0:0:
120,272,27994,5,2,0:0:0:0:
220,280,28478,2,0,B|248:288|260:312|260:312|316:320,1,99.9999999999999,0|2,0:0|0:0,0:0:0:0:
408,324,29445,1,0,0:0:0:0:
496,276,29929,1,2,0:0:0:0:
328,44,31865,5,2,0:0:0:0:
228,40,32349,2,0,P|136:68|96:160,1,200,4|0,0:0|0:0,0:0:0:0:
120,256,33800,1,2,0:0:0:0:
204,312,34284,2,0,L|304:324,1,99.9999999999999,0|2,0:0|0:0,0:0:0:0:
436,56,36219,5,2,0:0:0:0:
336,48,36703,2,0,P|340:88|356:118,1,75,0|2,0:0|0:0,0:0:0:0:
96,288,38397,6,0,L|144:304,3,50,4|4|4|4,0:0|0:0|0:0|0:1,0:0:0:0:
240,332,39607,1,10,0:0:0:0:
340,332,40090,2,0,P|392:320|420:284,1,100,2|10,0:0|0:0,0:0:0:0:
436,188,41058,1,2,0:0:0:0:
168,52,42510,5,10,0:0:0:0:
208,144,42994,2,0,P|204:196|176:232,1,100,2|10,0:0|0:0,0:0:0:0:
112,156,43961,2,0,P|82:195|79:244,1,100,2|10,0:0|0:0,0:0:0:0:
128,332,44929,1,2,0:0:0:0:
428,312,46381,5,10,0:0:0:0:
412,212,46865,2,0,L|396:112,1,100,2|10,0:0|0:0,0:0:0:0:
304,72,47832,1,2,0:0:0:0:
208,72,48316,1,10,0:0:0:0:
115,113,48800,2,0,L|100:212,1,100,2|10,0:0|0:0,0:0:0:0:
84,312,49768,1,2,0:0:0:0:
256,148,51219,6,0,L|256:48,2,100,10|2|10,0:0|0:0|0:0,0:0:0:0:
256,248,52671,1,2,0:0:0:0:
312,332,53155,2,0,P|348:288|352:240,1,100,10|2,0:0|0:0,0:0:0:0:
304,160,54123,1,10,0:0:0:0:
256,248,54607,5,4,0:1:0:0:
208,160,55090,1,10,0:0:0:0:
158,246,55574,2,0,P|167:295|200:332,2,100,2|10|2,0:0|0:0|0:0,0:0:0:0:
428,112,57994,5,10,0:0:0:0:
328,104,58478,2,0,L|224:96,1,100,2|10,0:0|0:0,0:0:0:0:
244,196,59445,2,0,L|140:188,1,100,2|10,0:0|0:0,0:0:0:0:
44,184,60413,1,2,0:0:0:0:
324,296,61865,6,0,L|316:348,2,50,2|8|2,0:0|0:0|0:0,0:0:0:0:
340,196,62832,1,10,0:0:0:0:
360,96,63316,2,0,P|296:32|192:48,1,200,2|2,0:0|0:0,0:0:0:0:
128,120,64768,1,10,0:0:0:0:
108,216,65252,2,0,B|100:260|108:268|116:276|108:320,1,100,2|10,0:0|0:0,0:0:0:0:
208,144,66703,6,0,L|312:144,1,100,10|2,0:0|0:0,0:0:0:0:
308,240,67671,2,0,L|208:240,1,100,10|2,0:0|0:3,0:0:0:0:
256,192,68397,12,4,70090,0:0:0:0:
256,292,83639,5,2,0:0:0:0:
256,192,84123,1,0,0:0:0:0:
208,104,84607,2,2,P|256:90|304:104,1,100,2|10,1:0|0:0,0:0:0:0:
396,140,85574,5,4,0:0:0:0:
396,244,86058,1,8,0:0:0:0:
301,281,86542,2,0,P|254:295|208:280,1,100,0|8,0:0|0:0,0:0:0:0:
116,244,87510,1,0,0:0:0:0:
116,140,87994,1,8,0:0:0:0:
200,80,88478,2,10,L|180:32,2,50,2|2|10,0:0|2:0|0:0,0:0:0:0:
300,108,89445,6,0,B|340:120|340:120|344:132|344:132|388:144,1,100,0|8,0:0|0:0,0:0:0:0:
388,240,90413,2,0,B|344:252|344:252|340:264|340:264|300:276,1,100,0|8,0:0|0:0,0:0:0:0:
204,300,91381,2,0,P|156:312|112:292,1,100,0|8,0:0|0:0,0:0:0:0:
16,320,92349,2,2,L|4:268,2,50,2|2|10,0:0|2:0|0:0,0:0:0:0:
112,292,93316,6,0,L|92:192,1,100,0|8,0:0|0:0,0:0:0:0:
72,96,94284,2,0,P|124:88|156:56,1,100,0|8,0:0|0:0,0:0:0:0:
208,140,95252,2,0,P|256:128|304:140,1,100,0|8,0:0|0:0,0:0:0:0:
355,55,96219,2,2,P|391:89|440:96,1,100,2|10,0:0|0:0,0:0:0:0:
256,192,97187,12,4,99123,2:2:0:0:
200,60,101058,5,4,0:0:0:0:
116,116,101542,1,8,0:0:0:0:
92,212,102026,2,0,P|96:264|128:304,1,100,0|8,0:0|0:0,0:0:0:0:
188,224,102994,2,0,P|236:212|288:220,1,100,0|8,0:0|0:0,0:0:0:0:
364,280,103961,2,2,L|372:336,2,50,2|2|10,0:0|2:0|0:0,0:0:0:0:
428,200,104929,6,0,P|432:148|448:100,1,100,0|8,0:0|0:0,0:0:0:0:
368,40,105897,1,0,0:0:0:0:
332,132,106381,1,8,0:0:0:0:
256,68,106865,1,0,0:0:0:0:
180,132,107349,1,8,0:0:0:0:
144,40,107832,2,2,L|88:32,2,50,2|2|10,0:0|2:0|0:0,0:0:0:0:
180,132,108800,6,0,P|188:184|172:232,1,100,0|8,0:0|0:0,0:0:0:0:
256,284,109768,1,0,0:0:0:0:
337,228,110252,2,0,P|323:180|332:132,1,100,8|0,0:0|0:0,0:0:0:0:
368,40,111219,1,8,0:0:0:0:
432,120,111703,2,2,L|472:168,2,50,2|2|10,0:0|2:0|0:0,0:0:0:0:
256,192,112671,12,4,116542,0:0:0:0:
128,80,132026,5,2,0:0:0:0:
120,180,132510,2,0,L|112:284,1,100,0|2,0:0|0:0,0:0:0:0:
212,300,133478,2,0,L|208:352,2,50,0|0|2,0:0|0:0|0:0,0:0:0:0:
296,244,134445,2,0,P|328:200|376:188,1,100,0|2,0:0|0:0,0:0:0:0:
468,200,135413,1,0,0:0:0:0:
332,52,136381,6,0,L|228:72,1,100,0|2,0:0|0:0,0:0:0:0:
196,80,137107,1,0,0:0:0:0:
156,88,137349,2,0,P|120:128|116:176,1,100,0|2,0:0|0:0,0:0:0:0:
400,324,139768,5,2,0:0:0:0:
376,228,140252,2,0,P|352:184|304:160,1,100,0|2,0:0|0:0,0:0:0:0:
212,136,141219,1,0,0:0:0:0:
116,164,141703,1,2,0:0:0:0:
56,245,142187,1,0,0:0:0:0:
156,256,142671,1,2,0:0:0:0:
340,336,143639,6,0,P|352:264|400:200,1,150,0|2,0:0|0:0,0:0:0:0:
432,188,144607,2,0,L|448:88,1,100,0|2,0:0|0:0,0:0:0:0:
376,16,145574,1,4,0:0:0:0:
136,88,146784,6,0,L|144:144,3,50,4|4|4|4,0:0|0:0|0:0|0:1,0:0:0:0:
160,236,147994,2,0,P|176:288|208:320,1,100,10|2,0:0|0:0,0:0:0:0:
304,319,148961,2,0,P|338:283|352:236,1,100,10|2,0:0|0:0,0:0:0:0:
84,100,150897,6,0,L|120:64,1,50,2|8,0:0|0:0,0:0:0:0:
156,48,151381,2,0,P|200:76|248:72,1,100,2|10,0:0|0:0,0:0:0:0:
344,48,152349,1,2,0:0:0:0:
436,80,152832,1,10,0:0:0:0:
472,172,153316,1,2,0:0:0:0:
228,344,154768,6,0,L|196:304,1,50,2|8,0:0|0:0,0:0:0:0:
184,268,155252,2,0,P|152:224|100:212,1,100,2|10,0:0|0:0,0:0:0:0:
88,112,156219,2,0,P|132:80|144:28,1,100,2|10,0:0|0:0,0:0:0:0:
244,16,157187,2,0,P|276:60|328:72,1,100,2|10,0:0|0:0,0:0:0:0:
340,172,158154,2,0,P|296:204|284:256,1,100,2|10,0:0|0:0,0:0:0:0:
256,192,159123,12,0,162026,3:0:0:0:
404,112,162994,6,0,L|304:112,1,100,6|6,0:0|0:0,0:0:0:0:
208,112,163961,2,0,L|108:112,1,100,6|10,0:0|0:0,0:0:0:0:
48,192,164929,1,2,0:0:0:0:
108,272,165413,1,10,0:0:0:0:
304,316,166381,6,0,P|320:272|364:240,1,100,10|2,0:0|0:0,0:0:0:0:
448,192,167349,1,10,0:0:0:0:
361,143,167832,2,0,P|321:114|304:68,1,100,2|10,0:0|0:0,0:0:0:0:
208,44,168800,2,0,L|108:52,1,100,2|10,0:0|0:0,0:0:0:0:
452,168,170252,6,0,P|496:200|512:244,1,100,10|2,0:0|0:0,0:0:0:0:
416,256,171219,2,0,P|376:284|368:332,1,100,10|2,0:0|0:0,0:0:0:0:
268,332,172187,1,10,0:0:0:0:
172,312,172671,2,0,P|104:244|104:144,1,200,2|2,0:0|0:0,0:0:0:0:
152,60,174123,1,10,0:0:0:0:
256,232,175090,6,0,L|256:336,2,100,10|2|10,0:0|0:0|0:0,0:0:0:0:
256,132,176542,1,2,0:3:0:0:
256,192,176784,12,4,178478,0:0:0:0:
256,192,190090,12,0,193236,0:0:0:0:
344,68,193961,6,0,P|332:120|300:156,1,100,6|6,0:0|0:0,0:0:0:0:
208,184,194929,2,2,P|168:220|152:268,1,100
208,344,195897,1,2,0:0:0:0:
304,344,196381,1,2,0:0:0:0:
359,262,196865,2,2,P|341:216|304:184,1,100
216,140,197832,6,2,L|160:56,1,100
60,64,198800,2,2,L|116:148,1,100
132,244,199768,2,0,P|140:300|168:336,1,100,2|2,0:0|0:0,0:0:0:0:
232,256,200736,2,0,P|280:236|328:240,1,100,2|2,0:0|0:0,0:0:0:0:
408,300,201703,6,0,B|428:276|428:240|428:240|440:204,1,100,8|8,0:0|0:0,0:0:0:0:
464,108,202671,2,8,P|432:64|384:56,1,100
304,108,203639,1,8,0:0:0:0:
208,108,204123,1,8,0:0:0:0:
122,55,204607,2,8,P|75:67|48:108,1,100
36,208,205574,6,0,B|23:241|34:276|72:298|114:286|129:257|136:206|136:206|143:155|158:125|200:114|238:135|249:170|236:204,1,400,8|2,0:0|0:0,0:0:0:0:
268,8,208478,2,2,L|372:28,1,100,2|10,1:0|1:0,1:0:0:0:
436,100,209445,6,0,P|460:148|452:192,1,100,4|8,0:0|0:0,0:0:0:0:
360,232,210413,1,0,0:0:0:0:
304,316,210897,1,8,0:0:0:0:
208,316,211381,1,0,0:0:0:0:
152,232,211865,1,8,0:0:0:0:
59,191,212349,2,2,P|52:143|76:100,1,100,2|10,0:0|0:0,0:0:0:0:
172,72,213316,6,0,L|272:60,1,100,0|8,0:0|0:0,0:0:0:0:
372,44,214284,2,0,L|432:36,2,50,0|2|8,0:0|2:2|0:0,0:0:0:0:
336,136,215252,1,0,0:0:0:0:
376,228,215736,1,8,0:0:0:0:
348,324,216219,2,2,P|308:356|260:356,1,100,2|10,0:0|0:0,0:0:0:0:
164,324,217187,5,0,0:0:0:0:
128,232,217671,1,8,0:0:0:0:
160,136,218155,2,0,B|176:100|176:100|188:96|188:96|208:52,1,100,0|8,0:0|0:0,0:0:0:0:
304,52,219123,2,0,B|324:96|324:96|336:100|336:100|352:136,1,100,0|8,0:0|0:0,0:0:0:0:
392,228,220090,2,2,L|412:276,2,50,2|2|10,0:0|2:0|0:0,0:0:0:0:
256,192,221058,12,4,222994,0:0:0:0:
240,80,224929,6,0,L|340:88,1,100,4|8,0:0|0:0,0:0:0:0:
384,176,225897,2,0,L|284:168,1,100,0|8,0:0|0:0,0:0:0:0:
184,156,226865,1,0,0:0:0:0:
84,144,227349,1,8,0:0:0:0:
124,236,227832,2,2,P|128:288|156:328,1,100,2|10,0:0|0:0,0:0:0:0:
220,252,228800,6,0,P|268:240|316:260,1,100,0|8,0:0|0:0,0:0:0:0:
392,320,229768,1,0,0:0:0:0:
484,280,230252,1,8,0:0:0:0:
488,180,230736,2,0,L|476:76,1,100,0|8,0:0|0:0,0:0:0:0:
376,68,231703,2,2,L|368:4,2,50,2|2|10,0:0|2:0|0:0,0:0:0:0:
300,132,232671,6,0,P|252:144|200:136,1,100,0|8,0:0|0:0,0:0:0:0:
108,108,233639,2,0,P|84:100|68:80,2,50,0|2|8,0:0|2:0|0:0,0:0:0:0:
124,208,234607,1,0,0:0:0:0:
196,280,235090,1,8,0:0:0:0:
296,292,235574,2,2,P|348:300|388:324,1,100,2|10,0:0|0:0,0:0:0:0:
464,260,236542,6,0,L|448:160,1,100,4|8,0:0|0:0,0:0:0:0:
368,100,237510,2,0,L|360:48,2,50,0|2|8,2:0|2:0|0:0,2:0:0:0:
276,140,238478,1,0,2:0:0:0:
176,128,238961,1,8,0:0:0:0:
96,188,239445,1,2,2:2:0:0:
88,236,239687,1,2,2:3:0:0:
92,284,239929,2,0,P|96:316|104:332,2,50,2|2|0,0:0|0:3|2:0,0:0:0:0:
