osu file format v14

[General]
AudioFilename: track.mp3
AudioLeadIn: 0
PreviewTime: 63393
Countdown: 0
SampleSet: Soft
StackLeniency: 0.7
Mode: 0
LetterboxInBreaks: 0
SkinPreference:Default
WidescreenStoryboard: 0
SamplesMatchPlaybackRate: 1

[Editor]
Bookmarks: 18155,48631,94345,132440
DistanceSpacing: 2
BeatDivisor: 4
GridSize: 4
TimelineZoom: 2.1

[Metadata]
Title:The Nights
TitleUnicode:The Nights
Artist:Avicii
ArtistUnicode:Avicii
Creator:Kazuya
Version:Hard
Source:
Tags:radio house the days tim berg Kazuya-sama
BeatmapID:686780
BeatmapSetID:306693

[Difficulty]
HPDrainRate:5
CircleSize:4
OverallDifficulty:5
ApproachRate:7
SliderMultiplier:1.4
SliderTickRate:2

[Events]
//Background and Video events
0,0,"bg.jpg",0,0
//Break Periods
//Storyboard Layer 0 (Background)
//Storyboard Layer 1 (Fail)
//Storyboard Layer 2 (Pass)
//Storyboard Layer 3 (Foreground)
//Storyboard Sound Samples

[TimingPoints]
2917,476.190476190476,4,2,1,70,1,0
33393,-133.333333333333,4,2,1,70,0,0
48631,-100,4,2,1,70,0,0
63869,-86.9565217391304,4,2,2,80,0,1
79107,-100,4,2,1,70,0,0
109583,-133.333333333333,4,2,1,70,0,0
124821,-100,4,2,1,70,0,0
134345,-100,4,2,1,75,0,0
136250,-100,4,2,1,80,0,0
140059,-86.9565217391304,4,2,2,80,0,1
154107,-86.9565217391304,4,2,1,80,0,0
155297,-86.9565217391304,4,2,2,80,0,1
170536,-86.9565217391304,4,2,2,80,0,0
170655,-86.9565217391304,4,2,0,5,0,0

[Colours]
Combo1 : 209,200,12
Combo2 : 175,79,27
Combo3 : 96,175,31
Combo4 : 4,120,198
SliderBorder : 255,255,255

[HitObjects]
440,284,2917,6,0,L|524:276,1,70,4|2,0:0|0:0,0:0:0:0:
388,208,3393,2,0,L|304:200,1,70,0|2,0:0|0:0,0:0:0:0:
248,156,3869,2,0,P|241:121|248:84,1,70,0|2,0:0|0:0,0:0:0:0:
278,59,4226,2,0,P|225:69|166:63,1,105,0|2,0:0|0:0,0:0:0:0:
92,48,4821,5,0,0:0:0:0:
16,84,5059,1,2,0:0:0:0:
44,163,5297,2,0,L|48:239,1,70,0|2,0:0|0:0,0:0:0:0:
52,316,5774,2,0,P|84:308|124:312,1,70,0|2,0:0|0:0,0:0:0:0:
161,323,6131,2,0,P|193:331|265:327,1,105,0|2,0:0|0:0,0:0:0:0:
332,280,6726,6,0,P|340:248|356:212,1,70,0|2,0:0|0:0,0:0:0:0:
468,132,7202,2,0,P|476:164|492:200,1,70,0|2,0:0|0:0,0:0:0:0:
472,280,7678,1,0,0:0:0:0:
402,327,7916,1,2,0:0:0:0:
332,280,8155,2,0,L|260:272,1,70,0|2,0:0|0:0,0:0:0:0:
200,216,8631,5,0,0:0:0:0:
136,272,8869,1,2,0:0:0:0:
28,208,9226,2,0,L|20:136,1,70
14,97,9583,2,0,P|50:101|86:93,1,70,0|2,0:0|0:0,0:0:0:0:
157,55,10059,1,0,0:0:0:0:
220,109,10297,1,2,0:0:0:0:
300,82,10536,6,0,L|312:10,1,70,0|2,0:0|0:0,0:0:0:0:
220,109,11012,2,0,L|232:181,1,70,0|2,0:0|0:0,0:0:0:0:
248,260,11488,2,0,P|280:260|320:272,1,70,0|2,0:0|0:0,0:0:0:0:
356,284,11845,2,0,P|352:232|368:176,1,105,0|2,0:0|0:0,0:0:0:0:
400,105,12440,5,0,0:0:0:0:
332,56,12678,1,2,0:0:0:0:
256,92,12916,2,0,P|222:100|184:96,1,70,0|2,0:0|0:0,0:0:0:0:
104,84,13393,2,0,L|96:160,1,70,0|2,0:0|0:0,0:0:0:0:
96,196,13750,2,0,P|132:216|200:212,1,105,0|2,0:0|0:0,0:0:0:0:
269,175,14345,6,0,L|345:179,1,70,0|2,0:0|0:0,0:0:0:0:
443,272,14821,2,0,L|367:276,1,70,0|2,0:0|0:0,0:0:0:0:
304,323,15297,1,0,0:0:0:0:
234,276,15536,1,2,0:0:0:0:
156,308,15774,2,0,L|76:300,1,70,0|2,0:0|0:0,0:0:0:0:
20,352,16250,6,0,L|0:208,1,140
32,136,16964,1,2,0:0:0:0:
108,172,17202,1,0,0:0:0:0:
184,136,17440,2,0,L|180:64,2,70,4|4|4,3:0|3:0|3:0,0:0:0:0:
192,220,18155,6,0,P|256:248|344:224,1,140,4|4,3:0|3:0,0:0:0:0:
392,188,18869,1,2,0:0:0:0:
449,250,19107,2,0,L|453:322,1,70,4|2,3:0|0:0,0:0:0:0:
392,188,19583,2,0,L|396:116,1,70,4|2,3:0|0:0,0:0:0:0:
332,64,20059,6,0,P|272:88|192:72,1,140,4|4,3:0|3:0,0:0:0:0:
125,36,20774,1,2,0:0:0:0:
56,84,21012,2,0,L|40:228,1,140,4|4,3:0|3:0,0:0:0:0:
29,306,21726,1,2,0:0:0:0:
110,283,21964,6,0,P|142:275|182:279,1,70,4|2,3:0|0:0,0:0:0:0:
220,288,22321,2,0,P|264:300|324:296,1,105,2|2,0:0|0:0,0:0:0:0:
395,254,22916,2,0,P|407:286|399:330,1,70,4|2,3:0|0:0,0:0:0:0:
314,212,23393,2,0,P|302:180|310:136,1,70,4|2,3:0|0:0,0:0:0:0:
366,86,23869,6,0,P|298:102|210:90,1,140,4|4,3:0|3:0,0:0:0:0:
148,72,24583,1,2,0:0:0:0:
92,135,24821,1,4,3:0:0:0:
12,109,25059,2,0,L|4:36,2,70,2|4|2,0:0|3:0|0:0,0:0:0:0:
28,192,25774,6,0,P|96:172|176:188,1,140,4|4,3:0|3:0,0:0:0:0:
240,216,26488,1,2,0:0:0:0:
316,252,26726,2,0,L|420:248,1,105,4|2,3:0|0:0,0:0:0:0:
458,228,27202,2,0,P|470:192|466:156,1,70,4|2,3:0|0:0,0:0:0:0:
432,84,27678,6,0,P|384:100|328:88,1,105,4|2,3:0|0:0,0:0:0:0:
295,69,28155,2,0,P|295:104|283:149,1,70,4|2,3:0|0:0,0:0:0:0:
215,181,28631,2,0,L|355:197,1,140,4|4,3:0|3:0,0:0:0:0:
432,165,29345,1,2,0:0:0:0:
492,224,29583,6,0,L|496:296,1,70,4|2,3:0|0:0,0:0:0:0:
432,165,30059,2,0,L|436:93,1,70,4|2,3:0|0:0,0:0:0:0:
376,36,30536,1,4,3:0:0:0:
309,87,30774,1,2,0:0:0:0:
228,64,31012,2,0,P|222:99|210:142,1,70,4|2,3:0|0:0,0:0:0:0:
152,189,31488,2,0,P|220:161|304:181,1,140,4|0,0:0|0:0,0:0:0:0:
284,317,33393,6,0,P|258:242|284:169,1,157.500006008148,6|0,0:0|0:0,0:0:0:0:
328,112,34345,2,0,L|388:108,1,52.5000020027161,2|0,0:0|0:0,0:0:0:0:
444,192,34821,2,0,L|391:195,1,52.5000020027161,2|0,0:0|0:0,0:0:0:0:
481,140,35297,2,0,L|477:256,1,105.000004005432,2|0,0:0|0:0,0:0:0:0:
184,364,36488,2,0,L|128:368,2,52.5000020027161,2|2|2,0:0|0:0|0:0,0:0:0:0:
248,328,37202,6,0,P|268:280|248:232,1,105.000004005432,2|0,0:0|0:0,0:0:0:0:
194,185,37916,1,0,0:0:0:0:
194,185,38155,2,0,L|310:177,1,105.000004005432,2|0,0:0|0:0,0:0:0:0:
364,144,38869,1,0,0:0:0:0:
416,196,39107,1,2,0:0:0:0:
416,196,39345,2,0,L|400:36,1,157.500006008148,2|0,0:0|0:0,0:0:0:0:
332,12,40297,1,0,0:0:0:0:
280,64,40536,2,0,P|252:72|216:68,1,52.5000020027161,2|0,0:0|0:0,0:0:0:0:
180,16,41012,6,0,L|172:136,1,105.000004005432,2|2,0:0|0:0,0:0:0:0:
167,194,41726,1,0,0:0:0:0:
120,252,41964,2,0,P|89:255|64:252,1,52.5000020027161,2|0,0:0|0:0,0:0:0:0:
167,194,42440,2,0,P|197:190|223:194,1,52.5000020027161,2|0,0:0|0:0,0:0:0:0:
268,248,42916,2,0,L|288:84,1,157.500006008148,2|0,0:0|0:0,0:0:0:0:
340,40,43869,1,0,0:0:0:0:
402,79,44107,2,0,P|433:85|458:83,2,52.5000020027161,2|2|2,0:0|0:0|0:0,0:0:0:0:
340,40,44821,6,0,L|212:36,1,105.000004005432,2|0,0:0|0:0,0:0:0:0:
170,72,45536,1,0,0:0:0:0:
115,23,45774,2,0,L|122:132,1,105.000004005432,2|0,0:0|0:0,0:0:0:0:
126,201,46488,1,0,0:0:0:0:
172,260,46726,2,0,P|220:248|276:252,1,105.000004005432,2|0,0:0|0:0,0:0:0:0:
347,267,47440,1,0,0:0:0:0:
408,226,47678,2,0,L|464:220,1,52.5000020027161,2|0,0:0|0:0,0:0:0:0:
356,169,48155,2,0,L|300:163,1,52.5000020027161,2|0,0:0|0:0,0:0:0:0:
201,103,48631,6,0,L|213:255,1,140,12|8,0:0|0:0,0:0:0:0:
219,326,49345,1,0,0:0:0:0:
140,297,49583,2,0,L|64:289,1,70,8|0,0:0|0:0,0:0:0:0:
219,326,50059,2,0,L|295:318,1,70,8|0,0:0|0:0,0:0:0:0:
356,268,50536,6,0,P|380:204|356:140,1,140,8|8,0:0|0:0,0:0:0:0:
291,86,51250,1,0,0:0:0:0:
221,132,51488,1,8,0:0:0:0:
140,109,51726,2,0,L|148:33,2,70,0|8|0,0:0|0:0|0:0,0:0:0:0:
160,190,52440,6,0,P|224:166|304:182,1,140,8|8,0:0|0:0,0:0:0:0:
372,208,53155,1,0,0:0:0:0:
426,144,53393,2,0,L|410:288,1,140,8|8,0:0|0:0,0:0:0:0:
352,343,54107,1,0,0:0:0:0:
273,315,54345,6,0,L|201:311,1,70,8|0,0:0|0:0,0:0:0:0:
129,272,54821,2,0,L|125:192,1,70,8|0,0:0|0:0,0:0:0:0:
120,118,55297,1,8,0:0:0:0:
68,52,55536,2,0,P|32:40|-8:44,2,70,0|8|0,0:0|0:0|0:0,0:0:0:0:
120,118,56250,6,0,L|264:110,1,140,8|8,0:0|0:0,0:0:0:0:
340,136,56964,1,0,0:0:0:0:
408,88,57202,2,0,P|420:56|416:16,1,70,8|0,0:0|0:0,0:0:0:0:
340,136,57678,2,0,P|328:168|332:208,1,70,8|0,0:0|0:0,0:0:0:0:
404,244,58155,6,0,L|256:252,1,140,8|8,0:0|0:0,0:0:0:0:
190,291,58869,1,0,0:0:0:0:
120,244,59107,1,8,0:0:0:0:
72,316,59345,2,0,P|40:336|-4:336,2,70,0|8|0,0:0|0:0|0:0,0:0:0:0:
120,244,60059,6,0,L|136:104,1,140,8|8,0:0|0:0,0:0:0:0:
200,50,60774,1,0,0:0:0:0:
264,104,61012,2,0,P|328:128|400:116,1,140,8|8,0:0|0:0,0:0:0:0:
439,44,61726,1,0,0:0:0:0:
439,44,61964,2,0,L|455:192,1,140,8|8,0:0|0:0,0:0:0:0:
338,304,62916,5,4,3:0:0:0:
256,284,63155,1,4,3:0:0:0:
188,332,63393,2,0,L|192:368,2,35,4|8|4,3:0|3:0|3:0,0:0:0:0:
176,236,63869,6,0,L|168:152,1,80.5000015354157,12|2,0:0|0:0,0:0:0:0:
312,84,64345,2,0,L|304:168,1,80.5000015354157,8|2,0:0|0:0,0:0:0:0:
292,260,64821,1,8,0:0:0:0:
331,348,65059,1,2,0:0:0:0:
419,308,65297,2,0,P|441:303|463:304,2,40.2500007677078,8|0|2,0:0|0:0|0:0,0:0:0:0:
331,348,65774,5,8,0:0:0:0:
292,260,66012,1,2,0:0:0:0:
200,288,66250,2,0,L|120:284,1,80.5000015354157,8|2,0:0|0:0,0:0:0:0:
12,164,66726,2,0,L|92:160,1,80.5000015354157,8|2,0:0|0:0,0:0:0:0:
168,100,67202,2,0,L|164:60,2,40.2500007677078,8|0|2,0:0|0:0|0:0,0:0:0:0:
176,196,67678,6,0,L|184:284,1,80.5000015354157,8|2,0:0|0:0,0:0:0:0:
314,371,68155,2,0,L|322:283,1,80.5000015354157,8|2,0:0|0:0,0:0:0:0:
331,194,68631,1,8,0:0:0:0:
417,238,68869,1,2,0:0:0:0:
468,156,69107,2,0,P|474:134|476:112,2,40.2500007677078,8|0|2,0:0|0:0|0:0,0:0:0:0:
417,238,69583,5,8,0:0:0:0:
331,194,69821,1,2,0:0:0:0:
262,262,70059,2,0,L|182:258,1,80.5000015354157,8|2,0:0|0:0,0:0:0:0:
86,245,70536,2,0,P|70:205|66:161,1,80.5000015354157,8|2,0:0|0:0,0:0:0:0:
176,52,71012,2,0,P|192:92|196:136,1,80.5000015354157,8|2,0:0|0:0,0:0:0:0:
188,225,71488,5,8,0:0:0:0:
220,316,71726,1,2,0:0:0:0:
312,288,71964,2,0,L|400:280,1,80.5000015354157,8|2,0:0|0:0,0:0:0:0:
493,155,72440,2,0,L|405:147,1,80.5000015354157,8|2,0:0|0:0,0:0:0:0:
329,100,72916,2,0,L|333:60,2,40.2500007677078,8|0|2,0:0|0:0|0:0,0:0:0:0:
292,190,73393,5,8,0:0:0:0:
200,160,73631,1,2,0:0:0:0:
144,239,73869,2,0,L|136:323,1,80.5000015354157,8|2,0:0|0:0,0:0:0:0:
8,222,74345,2,0,L|0:138,1,80.5000015354157,8|2,0:0|0:0,0:0:0:0:
58,64,74821,2,0,L|54:20,2,40.2500007677078,8|0|2,0:0|0:0|0:0,0:0:0:0:
98,152,75297,6,0,L|184:156,1,80.5000015354157,8|2,0:0|0:0,0:0:0:0:
298,264,75774,2,0,L|212:268,1,80.5000015354157,8|2,0:0|0:0,0:0:0:0:
136,320,76250,1,8,0:0:0:0:
75,246,76488,1,2,0:0:0:0:
98,152,76726,2,0,L|104:128|112:96,2,40.2500007677078,8|0|2,0:0|0:0|0:0,0:0:0:0:
75,246,77202,5,2,0:0:0:0:
136,320,77440,1,2,0:0:0:0:
224,280,77678,2,0,P|263:266|306:264,1,80.5000015354157,2|2,0:0|0:0,0:0:0:0:
396,285,78155,2,0,L|404:369,1,80.5000015354157,2|2,0:0|0:0,0:0:0:0:
500,246,78631,2,0,L|508:162,1,80.5000015354157,2|2,0:0|0:0,0:0:0:0:
443,96,79107,6,0,L|368:100,1,70,4|2,0:0|0:0,0:0:0:0:
297,65,79583,1,0,0:0:0:0:
252,136,79821,1,2,0:0:0:0:
176,100,80059,2,0,P|139:103|96:88,1,70,0|2,0:0|0:0,0:0:0:0:
69,79,80416,2,0,P|76:132|56:200,1,105,0|2,0:0|0:0,0:0:0:0:
40,262,81012,6,0,P|76:262|108:274,1,70,0|2,0:0|0:0,0:0:0:0:
147,288,81369,2,0,P|179:300|271:300,1,105,0|2,0:0|0:0,0:0:0:0:
328,275,81964,1,0,0:0:0:0:
396,324,82202,1,2,0:0:0:0:
475,296,82440,2,0,L|484:220,1,70,0|2,0:0|0:0,0:0:0:0:
456,148,82916,6,0,P|420:160|380:156,1,70,0|2,0:0|0:0,0:0:0:0:
308,132,83393,2,0,L|224:128,1,70,0|2,0:0|0:0,0:0:0:0:
162,93,83869,2,0,L|154:17,1,70,0|2,0:0|0:0,0:0:0:0:
64,130,84345,2,0,L|56:206,1,70,0|2,0:0|0:0,0:0:0:0:
50,283,84821,6,0,P|114:263|190:275,1,140
256,320,85536,1,2,0:0:0:0:
326,273,85774,1,0,0:0:0:0:
378,340,86012,2,0,P|410:356|450:356,2,70,2|0|2,0:0|0:0|0:0,0:0:0:0:
326,273,86726,5,0,0:0:0:0:
256,320,86964,1,2,0:0:0:0:
184,277,87202,2,0,L|176:201,1,70,0|2,0:0|0:0,0:0:0:0:
172,123,87678,2,0,P|204:131|252:127,1,70,0|2,0:0|0:0,0:0:0:0:
275,104,88036,2,0,L|383:96,1,105,0|2,0:0|0:0,0:0:0:0:
457,63,88631,5,0,0:0:0:0:
512,126,88869,1,2,0:0:0:0:
472,200,89107,2,0,L|464:280,1,70,0|2,0:0|0:0,0:0:0:0:
400,324,89583,2,0,P|368:312|316:316,1,70,0|2,0:0|0:0,0:0:0:0:
294,328,89940,2,0,L|190:332,1,105,0|2,0:0|0:0,0:0:0:0:
117,289,90536,6,0,L|109:213,1,70,0|2,0:0|0:0,0:0:0:0:
207,118,91012,2,0,L|214:187,1,70,0|2,0:0|0:0,0:0:0:0:
224,271,91488,1,0,0:0:0:0:
291,320,91726,1,2,0:0:0:0:
360,272,91964,2,0,L|436:264,1,70,0|2,0:0|0:0,0:0:0:0:
498,216,92440,6,0,P|518:148|498:84,1,140
448,16,93155,1,2,0:0:0:0:
383,69,93393,1,0,0:0:0:0:
302,46,93631,2,0,P|268:36|220:40,2,70,4|4|4,3:0|3:0|3:0,0:0:0:0:
383,69,94345,6,0,L|392:220,1,140,4|4,3:0|3:0,0:0:0:0:
341,276,95059,1,2,0:0:0:0:
259,259,95297,2,0,L|251:347,1,70,4|2,3:0|0:0,0:0:0:0:
132,256,95774,2,0,L|124:168,1,70,4|2,3:0|0:0,0:0:0:0:
124,102,96250,6,0,P|188:124|268:110,1,140,4|4,3:0|3:0,0:0:0:0:
330,70,96964,1,2,0:0:0:0:
404,108,97202,2,0,B|424:176|424:176|404:244,1,140,4|4,3:0|3:0,0:0:0:0:
364,316,97916,1,2,0:0:0:0:
288,280,98155,6,0,L|208:276,1,70,4|2,3:0|0:0,0:0:0:0:
141,160,98631,2,0,L|210:156,1,70,4|2,3:0|0:0,0:0:0:0:
294,168,99107,1,4,3:0:0:0:
360,116,99345,1,2,0:0:0:0:
436,152,99583,2,0,P|436:192|448:224,1,70,4|2,3:0|0:0,0:0:0:0:
508,276,100059,6,0,P|444:252|360:272,1,140,4|4,3:0|3:0,0:0:0:0:
300,304,100774,1,2,0:0:0:0:
224,268,101012,1,4,3:0:0:0:
161,324,101250,1,2,0:0:0:0:
97,270,101488,2,0,L|93:194,1,70,4|2,3:0|0:0,0:0:0:0:
92,116,101964,6,0,P|160:128|224:104,1,140,4|4,3:0|3:0,0:0:0:0:
288,48,102678,1,2,0:0:0:0:
352,104,102916,2,0,P|400:116|456:100,1,105,4|2,3:0|0:0,0:0:0:0:
480,70,103393,2,0,L|487:144,1,70,4|2,3:0|0:0,0:0:0:0:
492,223,103869,6,0,P|440:232|388:224,1,105,4|2,3:0|0:0,0:0:0:0:
349,211,104345,2,0,P|313:207|277:211,1,70,4|2,3:0|0:0,0:0:0:0:
227,276,104821,2,0,L|239:128,1,140,4|4,3:0|3:0,0:0:0:0:
195,64,105536,1,2,0:0:0:0:
120,100,105774,6,0,P|82:99|48:88,2,70,4|2|4,3:0|0:0|3:0,0:0:0:0:
196,64,106488,1,2,0:0:0:0:
238,136,106726,2,0,L|312:144,1,70,4|2,3:0|0:0,0:0:0:0:
416,232,107202,2,0,L|342:240,1,70,4|2,3:0|0:0,0:0:0:0:
245,336,107678,2,0,L|401:352,1,140,4|0,0:0|0:0,0:0:0:0:
45,214,109583,6,0,L|202:206,1,157.500006008148,4|0,0:0|0:0,0:0:0:0:
268,173,110536,2,0,L|272:121,1,52.5000020027161,2|0,0:0|0:0,0:0:0:0:
203,207,111012,2,0,L|200:259,1,52.5000020027161,2|0,0:0|0:0,0:0:0:0:
144,304,111488,2,0,L|252:312,1,105.000004005432,2|0,0:0|0:0,0:0:0:0:
468,292,112678,2,0,L|464:348,2,52.5000020027161,0|2|0,0:0|0:0|0:0,0:0:0:0:
473,218,113393,6,0,B|427:195|427:195|365:202,1,105.000004005432,2|0,0:0|0:0,0:0:0:0:
303,219,114107,1,0,0:0:0:0:
256,162,114345,2,0,L|248:278,1,105.000004005432,2|0,0:0|0:0,0:0:0:0:
244,340,115059,1,0,0:0:0:0:
176,364,115297,1,2,0:0:0:0:
108,336,115536,2,0,P|88:256|108:184,1,157.500006008148,2|0,0:0|0:0,0:0:0:0:
156,130,116488,1,0,0:0:0:0:
220,168,116726,2,0,P|253:175|288:172,1,52.5000020027161,2|0,0:0|0:0,0:0:0:0:
315,116,117202,6,0,P|313:168|335:228,1,105.000004005432,2|0,0:0|0:0,0:0:0:0:
374,277,117916,1,0,0:0:0:0:
322,330,118155,2,0,L|262:334,1,52.5000020027161,2|0,0:0|0:0,0:0:0:0:
374,277,118631,2,0,L|434:281,1,52.5000020027161,2|0,0:0|0:0,0:0:0:0:
490,244,119107,2,0,P|502:192|490:136,1,105.000004005432,2|0,0:0|0:0,0:0:0:0:
284,72,120297,2,0,L|292:16,2,52.5000020027161,0|2|0,0:0|0:0|0:0,0:0:0:0:
272,145,121012,6,0,P|220:160|164:152,1,105.000004005432,2|0,0:0|0:0,0:0:0:0:
102,126,121726,1,0,0:0:0:0:
102,126,121964,2,0,L|96:236,1,105.000004005432,2|0,0:0|0:0,0:0:0:0:
92,304,122678,1,0,0:0:0:0:
92,304,122916,2,0,P|144:292|208:300,1,105.000004005432,2|0,0:0|0:0,0:0:0:0:
264,322,123631,1,0,0:0:0:0:
328,284,123869,2,0,P|344:260|356:228,1,52.5000020027161,2|0,0:0|0:0,0:0:0:0:
428,165,124345,2,0,P|438:189|453:210,1,52.5000020027161,2|0,0:0|0:0,0:0:0:0:
484,96,124821,6,0,P|424:124|352:112,1,140,12|8,0:0|0:0,0:0:0:0:
280,71,125536,1,0,0:0:0:0:
216,125,125774,2,0,L|208:197,1,70,8|0,0:0|0:0,0:0:0:0:
80,251,126250,2,0,L|72:179,1,70,8|0,0:0|0:0,0:0:0:0:
24,313,126726,6,0,P|88:289|164:301,1,140,8|8,0:0|0:0,0:0:0:0:
236,328,127440,1,0,0:0:0:0:
312,292,127678,1,8,0:0:0:0:
380,344,127916,2,0,P|416:354|452:352,2,70,0|8|0,0:0|0:0|0:0,0:0:0:0:
312,292,128631,6,0,P|288:228|320:164,1,140,8|8,0:0|0:0,0:0:0:0:
384,116,129345,1,0,0:0:0:0:
384,116,129583,2,0,P|314:129|240:124,1,140,8|8,0:0|0:0,0:0:0:0:
170,89,130297,1,0,0:0:0:0:
100,136,130536,6,0,L|92:216,1,70,8|0,0:0|0:0,0:0:0:0:
84,288,131012,2,0,P|116:280|156:284,1,70,8|0,0:0|0:0,0:0:0:0:
234,303,131488,1,8,0:0:0:0:
292,242,131726,2,0,P|308:212|312:172,2,70,0|8|0,0:0|0:0|0:0,0:0:0:0:
234,303,132440,6,0,P|300:280|376:296,1,140,8|8,0:0|0:0,0:0:0:0:
447,321,133155,1,0,0:0:0:0:
488,248,133393,2,0,L|496:172,1,70,8|0,0:0|0:0,0:0:0:0:
368,120,133869,2,0,L|376:196,1,70,8|0,0:0|0:0,0:0:0:0:
428,60,134345,6,0,P|360:76|276:68,1,140,8|8,0:0|0:0,0:0:0:0:
209,51,135059,1,0,0:0:0:0:
144,104,135297,1,8,0:0:0:0:
72,64,135536,2,0,P|40:52|-8:52,2,70,0|8|0,0:0|0:0|0:0,0:0:0:0:
144,104,136250,6,0,L|148:156,3,35,8|0|0|0,0:0|0:0|0:0|0:0,0:0:0:0:
181,163,136726,2,0,L|185:215,3,35,8|0|0|0,0:0|0:0|0:0|0:0,0:0:0:0:
215,226,137202,2,0,L|219:278,3,35,8|0|0|0,0:0|0:0|0:0|0:0,0:0:0:0:
249,289,137678,2,0,L|253:341,3,35,8|0|0|0,0:0|0:0|0:0|0:0,0:0:0:0:
284,351,138155,5,4,0:0:0:0:
60,80,139583,2,0,L|56:32,2,35,4|4|4,3:0|3:0|3:0,0:0:0:0:
68,176,140059,6,0,L|75:263,1,80.5000015354157,12|2,0:0|0:0,0:0:0:0:
232,292,140536,2,0,L|239:205,1,80.5000015354157,8|2,0:0|0:0,0:0:0:0:
248,116,141012,1,8,0:0:0:0:
341,141,141250,1,2,0:0:0:0:
424,92,141488,2,0,L|416:48,2,40.2500007677078,8|0|2,0:0|0:0|0:0,0:0:0:0:
443,187,141964,5,8,0:0:0:0:
416,280,142202,1,2,0:0:0:0:
320,272,142440,2,0,L|240:264,1,80.5000015354157,8|2,0:0|0:0,0:0:0:0:
124,152,142916,2,0,L|204:144,1,80.5000015354157,8|2,0:0|0:0,0:0:0:0:
280,84,143393,2,0,P|271:60|272:36,2,40.2500007677078,8|0|2,0:0|0:0|0:0,0:0:0:0:
340,160,143869,6,0,P|376:172|420:176,1,80.5000015354157,8|2,0:0|0:0,0:0:0:0:
504,312,144345,2,0,P|463:315|425:328,1,80.5000015354157,8|2,0:0|0:0,0:0:0:0:
340,372,144821,1,8,0:0:0:0:
256,324,145059,1,2,0:0:0:0:
172,372,145297,2,0,P|154:377|128:380,2,40.2500007677078,8|0|2,0:0|0:0|0:0,0:0:0:0:
256,324,145774,5,8,0:0:0:0:
216,236,146012,1,2,0:0:0:0:
307,203,146250,2,0,P|347:207|395:195,1,80.5000015354157,8|2,0:0|0:0,0:0:0:0:
465,143,146726,2,0,L|477:231,1,80.5000015354157,8|2,0:0|0:0,0:0:0:0:
392,85,147202,2,0,L|404:-3,1,80.5000015354157,8|2,0:0|0:0,0:0:0:0:
309,28,147678,5,8,0:0:0:0:
240,96,147916,1,2,0:0:0:0:
144,84,148155,2,0,L|136:176,1,80.5000015354157,8|2,0:0|0:0,0:0:0:0:
216,304,148631,2,0,L|224:212,1,80.5000015354157,8|2,0:0|0:0,0:0:0:0:
284,149,149107,2,0,L|268:89,2,40.2500007677078,8|0|2,0:0|0:0|0:0,0:0:0:0:
360,208,149583,6,0,P|392:224|440:232,1,80.5000015354157,8|2,0:0|0:0,0:0:0:0:
304,292,150059,2,0,P|323:321|361:352,1,80.5000015354157,8|2,0:0|0:0,0:0:0:0:
208,292,150536,2,0,P|188:321|150:352,1,80.5000015354157,8|2,0:0|0:0,0:0:0:0:
152,208,151012,2,0,P|120:224|72:232,1,80.5000015354157,8|2,0:0|0:0,0:0:0:0:
24,148,151488,6,0,P|14:129|12:104,2,40.2500007677078,8|0|2,0:0|0:0|0:0,0:0:0:0:
168,76,151964,2,0,P|158:57|156:32,2,40.2500007677078,8|0|2,0:0|0:0|0:0,0:0:0:0:
344,76,152440,2,0,P|353:57|356:32,2,40.2500007677078,8|0|2,0:0|0:0|0:0,0:0:0:0:
488,148,152916,2,0,P|497:129|500:104,2,40.2500007677078,8|0|2,0:0|0:0|0:0,0:0:0:0:
352,236,153393,2,0,P|312:229|272:236,1,80.5000015354157,8|2,0:0|0:0,0:0:0:0:
161,351,153869,2,0,P|200:357|241:351,1,80.5000015354157,8|2,0:0|0:0,0:0:0:0:
188,52,154821,2,0,L|192:9,2,40.2500007677078,4|8|4,3:0|3:0|3:0,0:0:0:0:
176,148,155297,6,0,L|168:232,1,80.5000015354157,12|2,0:0|0:0,0:0:0:0:
312,300,155773,2,0,L|304:216,1,80.5000015354157,8|2,0:0|0:0,0:0:0:0:
292,124,156249,1,8,0:0:0:0:
331,36,156487,1,2,0:0:0:0:
419,76,156725,2,0,P|441:81|463:80,2,40.2500007677078,8|0|2,0:0|0:0|0:0,0:0:0:0:
331,36,157202,5,8,0:0:0:0:
292,124,157440,1,2,0:0:0:0:
200,96,157678,2,0,P|159:99|120:100,1,80.5000015354157,8|2,0:0|0:0,0:0:0:0:
12,220,158154,2,0,P|52:220|92:224,1,80.5000015354157,8|2,0:0|0:0,0:0:0:0:
168,284,158630,2,0,L|164:324,2,40.2500007677078,8|0|2,0:0|0:0|0:0,0:0:0:0:
176,188,159106,6,0,L|184:100,1,80.5000015354157,8|2,0:0|0:0,0:0:0:0:
313,26,159583,2,0,L|321:114,1,80.5000015354157,8|2,0:0|0:0,0:0:0:0:
332,203,160059,1,8,0:0:0:0:
412,148,160297,1,2,0:0:0:0:
452,236,160535,2,0,L|460:284,2,40.2500007677078,8|0|2,0:0|0:0|0:0,0:0:0:0:
412,148,161011,5,8,0:0:0:0:
320,176,161249,1,2,0:0:0:0:
248,112,161487,2,0,L|168:116,1,80.5000015354157,8|2,0:0|0:0,0:0:0:0:
76,148,161964,2,0,P|60:188|56:232,1,80.5000015354157,8|2,0:0|0:0,0:0:0:0:
176,332,162440,2,0,P|192:292|196:248,1,80.5000015354157,8|2,0:0|0:0,0:0:0:0:
188,159,162916,5,8,0:0:0:0:
220,68,163154,1,2,0:0:0:0:
312,96,163392,2,0,L|400:104,1,80.5000015354157,8|2,0:0|0:0,0:0:0:0:
493,229,163868,2,0,L|405:237,1,80.5000015354157,8|2,0:0|0:0,0:0:0:0:
329,284,164344,2,0,L|333:324,2,40.2500007677078,8|0|2,0:0|0:0|0:0,0:0:0:0:
292,194,164821,5,8,0:0:0:0:
200,224,165059,1,2,0:0:0:0:
144,145,165297,2,0,L|136:61,1,80.5000015354157,8|2,0:0|0:0,0:0:0:0:
8,162,165773,2,0,L|0:246,1,80.5000015354157,8|2,0:0|0:0,0:0:0:0:
58,320,166249,2,0,L|54:364,2,40.2500007677078,8|0|2,0:0|0:0|0:0,0:0:0:0:
98,232,166725,6,0,L|184:228,1,80.5000015354157,8|2,0:0|0:0,0:0:0:0:
298,120,167202,2,0,L|212:116,1,80.5000015354157,8|2,0:0|0:0,0:0:0:0:
136,64,167678,1,8,0:0:0:0:
75,138,167916,1,2,0:0:0:0:
98,232,168154,2,0,L|108:288,2,40.2500007677078,8|0|2,0:0|0:0|0:0,0:0:0:0:
75,138,168630,5,2,0:0:0:0:
136,64,168868,1,2,0:0:0:0:
224,104,169106,2,0,P|262:115|308:112,1,80.5000015354157,2|2,0:0|0:0,0:0:0:0:
396,87,169583,2,0,L|404:3,1,80.5000015354157,2|2,0:0|0:0,0:0:0:0:
500,136,170059,2,0,L|508:220,1,80.5000015354157,2|2,0:0|0:0,0:0:0:0:
372,304,170536,5,4,0:0:0:0:
256,192,170655,12,0,173393,0:0:0:0:
