osu file format v12

[General]
AudioFilename: Avicii - Addicted To You.mp3
AudioLeadIn: 0
PreviewTime: 105958
Countdown: 0
SampleSet: Soft
StackLeniency: 0.7
Mode: 2
LetterboxInBreaks: 1
WidescreenStoryboard: 0

[Editor]
DistanceSpacing: 2
BeatDivisor: 4
GridSize: 8
TimelineZoom: 1

[Metadata]
Title:Addicted To You
TitleUnicode:Addicted To You
Artist:Avicii
ArtistUnicode:Avicii
Creator:Sey
Version:Cup
Source:
Tags:Tim Bergling dance music house pop EDM Soul True Audra Mae
BeatmapID:393470
BeatmapSetID:160646

[Difficulty]
HPDrainRate:3
CircleSize:2
OverallDifficulty:5
ApproachRate:5
SliderMultiplier:1.1
SliderTickRate:1

[Events]
//Background and Video events
0,0,"avicii.jpg",0,0
//Break Periods
2,69829,73586
//Storyboard Layer 0 (Background)
//Storyboard Layer 1 (Fail)
//Storyboard Layer 2 (Pass)
//Storyboard Layer 3 (Foreground)
//Storyboard Sound Samples
//Background Colour Transformations
3,100,163,162,255

[TimingPoints]
255,468.75,4,2,0,5,1,0
4005,-100,4,2,0,50,0,0
20880,-100,4,2,0,60,0,0
39630,-100,4,2,0,65,0,0
52755,-100,4,2,1,70,0,1
69630,-100,4,2,0,50,0,0
71505,-100,4,2,0,55,0,0
74903,-100,4,2,1,60,0,0
90255,-100,4,2,0,65,0,0
107130,-100,4,2,1,70,0,1
111465,-100,4,2,2,70,0,1
112872,-100,4,2,1,70,0,1
122130,-100,4,2,0,65,0,0
140880,-100,4,2,0,70,0,0

[Colours]
Combo1 : 149,253,222
Combo2 : 128,128,255
Combo3 : 64,0,128
Combo4 : 213,170,255

[HitObjects]
248,192,4005,5,4,0:0:0:0:
40,248,4473,6,0,P|64:192|128:160,1,110,0|2,0:0|0:0,0:0:0:0:
312,272,5411,2,0,P|288:216|224:184,1,110,0|2,0:0|0:0,0:0:0:0:
96,192,6348,5,0,0:0:0:0:
256,192,6817,1,2,0:0:0:0:
416,192,7286,1,0,0:0:0:0:
256,192,7755,6,0,L|216:80,1,110,2|0,0:0|0:0,0:0:0:0:
128,192,8692,2,0,L|88:80,1,110,2|0,0:0|0:0,0:0:0:0:
224,192,9630,1,2,0:0:0:0:
344,192,10098,2,0,L|472:192,2,110,0|2|0,0:0|0:0|0:0,0:0:0:0:
120,192,11505,6,0,L|224:112,1,110,2|0,0:0|0:0,0:0:0:0:
392,192,12442,2,0,L|288:112,1,110,2|0,0:0|0:0,0:0:0:0:
120,192,13380,6,0,L|224:112,1,110,2|0,0:0|0:0,0:0:0:0:
392,192,14317,2,0,L|288:112,1,110,2|0,0:0|0:0,0:0:0:0:
256,192,15255,6,0,L|158:112,1,110,2|0,0:0|0:0,0:0:0:0:
88,192,16192,1,2,0:0:0:0:
256,192,16661,1,0,0:0:0:0:
256,192,17130,12,2,18536,0:0:0:0:
192,192,19005,6,0,L|192:128,1,55,2|0,0:0|0:0,0:0:0:0:
80,192,19473,2,0,L|80:136,1,55,2|0,0:0|0:0,0:0:0:0:
192,192,19942,2,0,L|224:128,1,55,2|0,0:0|0:0,0:0:0:0:
312,192,20411,2,0,L|280:136,1,55,2|0,0:0|0:0,0:0:0:0:
208,80,20880,6,0,L|336:56,1,110,0|2,0:0|0:0,0:0:0:0:
368,192,21817,1,0,0:0:0:0:
448,192,22051,1,0,0:0:0:0:
368,192,22286,1,2,0:0:0:0:
216,192,22755,5,0,0:0:0:0:
136,192,22989,1,0,0:0:0:0:
216,192,23223,1,2,0:0:0:0:
376,192,23692,1,0,0:0:0:0:
144,208,24161,6,0,B|224:208|264:144|360:152,1,220,2|2,0:0|0:0,0:0:0:0:
200,112,25567,2,0,B|144:111|144:111|208:112,1,110,0|2,0:0|0:0,0:0:0:0:
312,112,26505,2,0,B|368:111|368:111|304:112,1,110,0|2,0:0|0:0,0:0:0:0:
256,192,27442,1,0,0:0:0:0:
160,144,27911,6,0,B|248:144|288:208|368:208,1,220,2|2,0:0|0:0,0:0:0:0:
288,80,29317,2,0,L|152:80,1,110,0|2,0:0|0:0,0:0:0:0:
104,80,30255,6,0,L|240:80,1,110,0|2,0:0|0:0,0:0:0:0:
368,184,31192,1,0,0:0:0:0:
144,184,31661,1,2,0:0:0:0:
256,192,32130,2,0,L|440:176,2,165,0|0|2,0:0|0:0|0:0,0:0:0:0:
256,192,34005,12,2,35880,0:0:0:0:
88,192,36348,6,0,L|88:112,1,55
192,192,36817,2,0,L|192:128,1,55,2|0,0:0|0:0,0:0:0:0:
296,192,37286,2,0,L|296:128,1,55
400,192,37755,6,0,L|400:128,1,55,2|0,0:0|0:0,0:0:0:0:
288,192,38223,2,0,L|352:192,1,55
208,192,38692,2,0,L|264:192,1,55,2|0,0:0|0:0,0:0:0:0:
120,192,39161,2,0,L|176:192,1,55
312,280,39630,6,0,L|440:280,1,110,4|8,0:0|0:0,0:0:0:0:
360,192,40567,2,8,L|232:192,1,110
184,192,41505,6,0,L|56:192,1,110,8|8,0:0|0:0,0:0:0:0:
136,104,42442,2,8,L|264:104,1,110
368,192,43380,6,8,L|488:184,2,110
256,192,44786,1,8,0:0:0:0:
144,192,45255,5,8,0:0:0:0:
256,192,45723,1,8,0:0:0:0:
96,112,46192,5,8,0:0:0:0:
208,112,46661,1,8,0:0:0:0:
416,264,47130,6,0,L|304:128,1,165
208,160,48067,1,2,0:0:0:0:
104,160,48536,1,2,0:0:0:0:
256,192,49005,12,2,51348,0:0:0:0:
168,184,52755,6,0,L|48:184,1,110,0|8,0:0|0:0,0:0:0:0:
248,192,53692,2,0,L|248:312,1,110,0|8,0:0|0:0,0:0:0:0:
344,184,54630,6,0,L|464:184,1,110,0|8,0:0|0:0,0:0:0:0:
264,192,55567,2,0,L|264:312,1,110,0|8,0:0|0:0,0:0:0:0:
456,192,56505,5,0,0:0:0:0:
368,264,56973,1,8,0:0:0:0:
264,304,57442,1,0,0:0:0:0:
144,296,57911,1,8,0:0:0:0:
96,232,58380,2,0,B|304:192|304:192|184:216,1,330,0|8,0:0|0:0,0:0:0:0:
264,208,60255,6,0,L|376:184,1,110,0|8,0:0|0:0,0:0:0:0:
248,208,61192,2,0,L|136:184,1,110,0|8,0:0|0:0,0:0:0:0:
64,176,62130,6,0,L|171:199,1,110,0|8,0:0|0:0,0:0:0:0:
340,199,63067,2,0,L|448:176,1,110,0|8,0:0|0:0,0:0:0:0:
264,184,64005,5,0,0:0:0:0:
304,184,64239,1,0,0:0:0:0:
344,184,64473,1,8,0:0:0:0:
440,184,64942,5,0,0:0:0:0:
400,184,65176,1,0,0:0:0:0:
344,184,65411,1,8,0:0:0:0:
232,184,65880,5,0,0:0:0:0:
272,184,66114,1,0,0:0:0:0:
320,184,66348,1,8,0:0:0:0:
168,288,66817,5,0,0:0:0:0:
272,288,67051,1,0,0:0:0:0:
376,288,67286,1,8,0:0:0:0:
424,240,67520,6,0,B|200:200|200:200|368:232|368:232|272:216,1,495,0|2,0:0|0:0,0:0:0:0:
256,192,74786,5,2,0:0:0:0:
256,192,75020,2,0,L|256:120,1,55,2|2,0:0|0:0,0:0:0:0:
416,192,75723,6,0,L|376:88,1,110,8|0,0:0|0:0,0:0:0:0:
256,192,76661,2,0,L|256:80,1,110,8|0,0:0|0:0,0:0:0:0:
135,89,77598,2,0,L|96:192,1,110,8|0,0:0|0:0,0:0:0:0:
289,179,78536,6,8,L|72:216,1,220
184,160,79942,2,0,L|264:160,2,55,0|0|8,0:0|0:0|0:0,0:0:0:0:
336,160,80880,2,0,L|416:160,2,55,0|0|8,0:0|0:0|0:0,0:0:0:0:
248,256,81817,1,0,0:0:0:0:
440,216,82286,6,0,L|200:176,1,220,8|8,0:0|0:0,0:0:0:0:
360,96,83692,6,0,L|432:96,1,55
312,96,84161,1,8,0:0:0:0:
152,96,84630,2,0,L|80:96,1,55
200,96,85098,1,8,0:0:0:0:
352,304,85567,6,0,L|368:184,1,110,0|8,0:0|0:0,0:0:0:0:
160,304,86505,2,0,L|144:184,1,110,0|8,0:0|0:0,0:0:0:0:
72,256,87442,5,0,0:0:0:0:
280,256,87911,1,8,0:0:0:0:
176,256,88380,6,0,B|208:152|208:152|272:144|272:144|280:96|280:96|400:96,1,330,0|8,0:0|0:0,0:0:0:0:
448,192,90255,6,0,L|424:128,3,55,0|0|8|0,0:0|0:0|0:0|0:0,0:0:0:0:
352,192,91192,6,0,L|328:128,3,55,0|0|8|0,0:0|0:0|0:0|0:0,0:0:0:0:
256,192,92130,6,0,L|232:136,3,55,0|0|8|0,0:0|0:0|0:0|0:0,0:0:0:0:
160,192,93067,6,0,L|136:128,3,55,0|0|8|0,0:0|0:0|0:0|0:0,0:0:0:0:
88,192,94005,6,0,L|48:72,1,110,0|8,0:0|0:0,0:0:0:0:
192,192,94942,2,0,L|152:64,1,110,0|8,0:0|0:0,0:0:0:0:
272,192,95880,6,0,L|240:80,1,110,0|8,0:0|0:0,0:0:0:0:
360,192,96817,2,0,L|336:120,1,55,0|2,0:0|0:0,0:0:0:0:
440,192,97286,1,8,0:0:0:0:
256,192,97755,6,0,L|296:144,2,55,0|2|8,0:0|0:0|0:0,0:0:0:0:
176,192,98692,2,0,L|216:144,2,55,0|2|8,0:0|0:0|0:0,0:0:0:0:
256,192,99630,6,0,L|216:144,2,55,0|2|8,0:0|0:0|0:0,0:0:0:0:
336,192,100567,2,0,L|296:144,2,55,0|2|8,0:0|0:0|0:0,0:0:0:0:
432,192,101505,2,0,L|264:192,2,165,0|0|2,0:0|0:0|0:0,0:0:0:0:
256,192,103380,12,2,105723,0:0:0:0:
144,192,107130,5,0,0:0:0:0:
256,192,107364,1,0,0:0:0:0:
368,192,107598,1,8,0:0:0:0:
312,192,108067,5,0,0:0:0:0:
200,192,108301,1,0,0:0:0:0:
88,192,108536,1,8,0:0:0:0:
160,280,109005,6,0,L|240:280,2,55,0|0|8,0:0|0:0|0:0,0:0:0:0:
272,192,109708,2,0,B|393:192|393:192|337:192,1,165,0|8,0:0|0:0,0:0:0:0:
200,192,110645,2,0,P|121:144|73:80,1,165,0|8,0:0|0:0,0:0:0:0:
168,240,111817,6,0,L|280:208,2,110,6|10|2,0:0|0:0|0:0,0:0:0:0:
112,184,113223,6,0,L|208:96,1,110,8|0,0:0|0:0,0:0:0:0:
264,104,113926,2,0,L|224:56,1,55,0|8,0:0|0:0,0:0:0:0:
456,184,114630,6,0,L|360:96,1,110,0|8,0:0|0:0,0:0:0:0:
304,104,115333,2,0,L|344:56,1,55
264,56,115801,1,0,0:0:0:0:
184,56,116036,1,8,0:0:0:0:
72,120,116270,6,0,L|208:224,1,165,0|8,0:0|0:0,0:0:0:0:
264,272,117208,5,0,0:0:0:0:
152,272,117442,1,0,0:0:0:0:
304,192,117911,1,8,0:0:0:0:
448,200,118380,5,0,0:0:0:0:
240,192,118848,1,8,0:0:0:0:
152,200,119317,1,0,0:0:0:0:
64,208,119786,2,0,L|344:152,1,275,8|0,0:0|0:0,0:0:0:0:
216,272,121192,6,0,L|344:240,1,110,0|8,0:0|0:0,0:0:0:0:
464,248,122130,6,0,P|444:197|400:165,1,110,0|2,0:0|0:0,0:0:0:0:
199,272,123067,2,0,P|219:221|263:189,1,110,0|2,0:0|0:0,0:0:0:0:
416,192,124005,5,0,0:0:0:0:
256,192,124473,1,2,0:0:0:0:
96,192,124942,1,0,0:0:0:0:
256,192,125411,1,2,0:0:0:0:
384,192,125880,6,0,L|420:88,1,110,0|2,0:0|0:0,0:0:0:0:
168,192,126817,2,0,L|58:192,2,110,0|2|0,0:0|0:0|0:0,0:0:0:0:
280,200,128223,6,0,L|280:144,1,55,2|0,0:0|0:0,0:0:0:0:
392,192,128692,2,0,L|304:124,1,110,0|2,0:0|0:0,0:0:0:0:
232,200,129630,5,0,0:0:0:0:
120,192,130098,2,0,L|207:124,1,110,2|0,0:0|0:0,0:0:0:0:
376,192,131036,5,2,0:0:0:0:
288,192,131505,1,0,0:0:0:0:
136,192,131973,5,2,0:0:0:0:
216,192,132442,1,0,0:0:0:0:
408,208,132911,6,0,L|384:96,1,110,2|0,0:0|0:0,0:0:0:0:
272,96,133848,2,0,L|249:204,1,110,2|0,0:0|0:0,0:0:0:0:
176,200,134786,1,2,0:0:0:0:
256,200,135255,5,0,0:0:0:0:
336,200,135723,1,2,0:0:0:0:
176,200,136192,1,0,0:0:0:0:
336,200,136661,1,2,0:0:0:0:
128,88,137130,6,0,L|256:88,1,110,0|2,0:0|0:0,0:0:0:0:
384,88,138067,2,0,L|256:88,1,110,0|2,0:0|0:0,0:0:0:0:
112,88,139005,2,0,L|240:88,1,110,0|2,0:0|0:0,0:0:0:0:
400,88,139942,2,0,L|272:88,1,110,0|2,0:0|0:0,0:0:0:0:
256,192,140880,5,4,0:0:0:0:
