osu file format v13

[General]
AudioFilename: Addicted To You.mp3
AudioLeadIn: 2000
PreviewTime: 105958
Countdown: 0
SampleSet: Soft
StackLeniency: 0.7
Mode: 0
LetterboxInBreaks: 0
EpilepsyWarning: 1
WidescreenStoryboard: 1

[Editor]
DistanceSpacing: 1.7
BeatDivisor: 4
GridSize: 4
TimelineZoom: 1

[Metadata]
Title:Addicted To You
TitleUnicode:Addicted To You
Artist:Avicii
ArtistUnicode:Avicii
Creator:BakaHuang
Version:Insane
Source:
Tags:house dance PRMD Music beren fanzhen0019 true Audra Mae
BeatmapID:445437
BeatmapSetID:186458

[Difficulty]
HPDrainRate:7
CircleSize:4
OverallDifficulty:7
ApproachRate:8
SliderMultiplier:1.8
SliderTickRate:1

[Events]
//Background and Video events
0,0,"avicii.jpg",0,0
//Break Periods
//Storyboard Layer 0 (Background)
//Storyboard Layer 1 (Fail)
//Storyboard Layer 2 (Pass)
//Storyboard Layer 3 (Foreground)
//Storyboard Sound Samples
//Background Colour Transformations
3,100,163,162,255

[TimingPoints]
255,468.75,4,2,1,60,1,0
255,-133.333333333333,4,2,1,30,0,0
4473,-133.333333333333,4,2,1,40,0,0
39630,-133.333333333333,4,2,2,50,0,0
52755,-100,4,2,1,50,0,1
52872,-100,4,2,1,50,0,0
71973,-100,4,2,2,50,0,0
75255,-100,4,2,1,50,0,0
78536,-133.333333333333,4,2,1,50,0,0
79005,-100,4,2,1,50,0,0
82755,-133.333333333333,4,2,1,50,0,0
83223,-100,4,2,1,50,0,0
90723,-133.333333333333,4,2,1,50,0,0
91192,-100,4,2,1,50,0,0
102676,-100,4,1,1,50,0,0
103614,-100,4,2,1,60,0,0
107130,-80,4,2,1,60,0,1
119786,-100,4,2,1,60,0,1
121192,-100,4,2,1,60,0,0

[Colours]
Combo1 : 255,23,116
Combo2 : 0,100,100
Combo3 : 83,83,83
Combo4 : 134,249,128
Combo5 : 149,202,255
Combo6 : 255,128,128

[HitObjects]
56,136,255,5,2,0:0:0:0:
140,76,489,1,0,0:0:0:0:
236,104,723,2,0,P|256:64|260:52,2,33.7500012874604,0|0|0,0:0|0:0|0:0,0:0:0:0:
172,184,1192,2,0,P|177:217|180:250,1,67.5000025749208,2|0,0:0|0:0,0:0:0:0:
148,348,1661,2,0,P|192:352|232:348,1,67.5000025749208
296,280,2130,5,2,0:0:0:0:
396,304,2364,1,0,0:0:0:0:
476,240,2598,1,0,0:0:0:0:
476,240,2715,1,0,0:0:0:0:
476,240,2833,1,0,0:0:0:0:
480,140,3067,2,0,P|444:144|404:164,1,67.5000025749208,2|0,0:0|0:0,0:0:0:0:
288,68,3536,2,0,L|301:134,1,67.5000025749208
160,72,4005,21,4,3:0:0:0:
160,72,4473,1,0,0:0:0:0:
88,152,4708,2,0,P|80:236|80:292,1,135.000005149842,0|2,0:0|0:0,0:0:0:0:
164,352,5411,1,0,0:0:0:0:
188,248,5645,38,0,P|224:244|268:252,1,67.5000025749208,0|4,0:0|0:0,0:0:0:0:
424,296,6114,2,0,P|428:256|424:216,1,67.5000025749208,2|0,0:0|0:0,0:0:0:0:
344,192,6583,2,0,P|336:262|344:334,2,135.000005149842,2|0|0,0:0|0:0|0:0,0:0:0:0:
368,72,7755,1,4,0:0:0:0:
368,72,8223,5,0,0:0:0:0:
260,64,8458,2,0,P|204:60|184:60,1,67.5000025749208,0|0,0:0|0:0,0:0:0:0:
92,24,8926,2,0,P|80:68|72:100,1,67.5000025749208,2|0,0:0|0:0,0:0:0:0:
52,196,9395,2,0,P|108:200|128:200,1,67.5000025749208,0|4,0:0|0:0,0:0:0:0:
245,144,9864,22,0,P|233:210|216:276,1,135.000005149842,2|0,0:0|0:0,0:0:0:0:
172,376,10567,1,0,0:0:0:0:
276,344,10801,1,0,0:0:0:0:
384,348,11036,2,0,L|456:352,1,67.5000025749208,0|2,0:0|0:0,0:0:0:0:
428,196,11505,37,4,0:0:0:0:
256,64,11973,1,0,0:0:0:0:
184,148,12208,2,0,P|180:192|180:232,1,67.5000025749208,0|0,0:0|0:0,0:0:0:0:
328,148,12676,2,0,P|331:181|332:215,2,67.5000025749208,2|0|0,0:0|0:0|0:0,0:0:0:0:
308,324,13380,6,0,P|248:332|168:324,1,135.000005149842,6|0,0:0|0:0,0:0:0:0:
52,308,14083,2,0,L|48:224,1,67.5000025749208,0|0,0:0|0:0,0:0:0:0:
140,124,14551,2,0,L|144:192,2,67.5000025749208,2|0|0,0:0|0:0|0:0,0:0:0:0:
272,192,15255,22,0,P|332:184|412:192,1,135.000005149842,4|0,0:0|0:0,0:0:0:0:
480,248,15958,1,0,0:0:0:0:
428,80,16192,1,0,0:0:0:0:
256,120,16426,2,0,P|248:196|244:276,1,135.000005149842,2|0,0:0|0:0,0:0:0:0:
108,324,17130,38,0,P|100:260|104:160,1,135.000005149842,6|0,0:0|0:0,0:0:0:0:
136,60,17833,1,0,0:0:0:0:
256,120,18067,2,0,P|323:126|389:118,2,135.000005149842,2|0|6,0:0|0:0|0:0,0:0:0:0:
136,60,19239,6,0,P|120:96|124:128,2,67.5000025749208,2|0|0,0:0|0:0|0:0,0:0:0:0:
288,276,20176,1,2,0:0:0:0:
172,224,20411,1,0,0:0:0:0:
224,108,20645,1,2,0:0:0:0:
340,160,20880,22,0,P|392:152|480:144,1,135.000005149842,4|0,0:0|0:0,0:0:0:0:
428,320,21583,2,0,P|432:264|432:236,1,67.5000025749208
340,160,22051,2,0,P|336:104|336:76,1,67.5000025749208
104,56,22520,2,0,P|100:112|100:140,1,67.5000025749208,0|4,0:0|0:0,0:0:0:0:
37,238,22989,38,0,P|105:232|172:224,1,135.000005149842,0|2,0:0|0:0,0:0:0:0:
156,328,23692,1,0,0:0:0:0:
266,288,23926,2,0,P|332:299|400:304,1,135.000005149842,0|2,0:0|0:0,0:0:0:0:
340,80,24630,6,0,P|344:156|352:228,1,135.000005149842,4|0,0:0|0:0,0:0:0:0:
400,304,25333,2,0,L|476:284,1,67.5000025749208,2|0,0:0|0:0,0:0:0:0:
288,300,25801,2,0,L|152:328,1,135.000005149842,0|2,0:0|0:0,0:0:0:0:
55,152,26505,22,0,P|54:219|84:280,1,135.000005149842,4|0,0:0|0:0,0:0:0:0:
112,80,27208,2,0,P|140:120|144:164,1,67.5000025749208,2|0,0:0|0:0,0:0:0:0:
300,188,27676,2,0,P|279:163|268:131,2,67.5000025749208,0|0|2,0:0|0:0|0:0,0:0:0:0:
448,260,28380,38,0,P|408:312|336:328,1,135.000005149842,4|0,0:0|0:0,0:0:0:0:
252,280,29083,1,0,0:0:0:0:
236,104,29317,2,0,L|240:180,1,67.5000025749208,2|0,0:0|0:0,0:0:0:0:
44,200,29786,1,0,0:0:0:0:
124,99,30020,6,0,P|132:166|148:232,2,135.000005149842,2|0|0,0:0|0:0|0:0,0:0:0:0:
256,140,31192,1,0,0:0:0:0:
344,248,31426,2,0,P|344:284|340:320,1,67.5000025749208,0|2,0:0|0:0,0:0:0:0:
100,320,32130,22,0,P|176:300|232:300,1,135.000005149842,4|0,0:0|0:0,0:0:0:0:
340,316,32833,1,2,0:0:0:0:
256,148,33067,1,0,0:0:0:0:
374,185,33301,2,0,L|340:316,1,135.000005149842,2|0,0:0|0:0,0:0:0:0:
172,316,34005,38,0,L|137:185,1,135.000005149842,6|0,0:0|0:0,0:0:0:0:
256,52,34708,2,0,B|224:96|288:168|256:220,2,168.750006437302,2|0|6,0:0|0:0|0:0,0:0:0:0:
364,120,36114,5,0,0:0:0:0:
357,272,36348,1,2,0:0:0:0:
210,313,36583,1,2,0:0:0:0:
126,186,36817,1,0,0:0:0:0:
220,67,37051,22,0,P|224:136|256:192,1,135.000005149842,2|0,0:0|0:0,0:0:0:0:
408,244,37755,2,0,P|347:212|283:212,1,135.000005149842,2|0,0:0|0:0,0:0:0:0:
156,316,38458,2,0,P|214:279|247:224,2,135.000005149842,2|0|2,0:0|0:0|0:0,0:0:0:0:
28,196,39630,69,4,0:0:0:0:
96,52,39864,2,0,P|136:112|160:184,1,135.000005149842,2|0,0:0|0:0,0:0:0:0:
112,296,40567,1,2,0:0:0:0:
244,280,40801,2,0,P|320:300|392:312,1,135.000005149842,0|2,0:0|0:0,0:0:0:0:
332,120,41505,53,4,0:0:0:0:
196,72,41739,1,0,0:0:0:0:
196,72,41856,1,0,0:0:0:0:
196,72,41973,1,8,0:0:0:0:
104,192,42208,1,0,0:0:0:0:
188,316,42442,2,0,P|224:308|260:304,1,67.5000025749208,8|0,0:0|0:0,0:0:0:0:
400,264,42911,1,8,0:0:0:0:
444,120,43145,1,0,0:0:0:0:
400,264,43380,6,0,L|376:340,1,67.5000025749208,12|0,0:0|0:0,0:0:0:0:
211,291,43848,2,0,L|208:224,1,67.5000025749208,0|2,0:0|0:0,0:0:0:0:
304,224,44317,2,0,L|300:296,1,67.5000025749208,8|2,0:0|0:0,0:0:0:0:
132,328,44786,2,0,L|112:264,1,67.5000025749208,0|2,0:0|0:0,0:0:0:0:
132,48,45255,21,0,0:0:0:0:
240,60,45489,2,0,L|260:124,1,67.5000025749208,2|0,0:0|0:0,0:0:0:0:
374,246,45958,2,0,P|384:179|384:112,1,135.000005149842,2|2,0:0|0:0,0:0:0:0:
163,352,46895,2,0,P|185:326|200:296,1,67.5000025749208,2|0,0:0|0:0,0:0:0:0:
304,340,47364,70,0,P|288:276|248:192,1,135.000005149842,2|0,0:0|0:0,0:0:0:0:
88,72,48067,1,0,0:0:0:0:
80,188,48301,2,0,P|136:176|176:144,2,101.250003862381,2|2|2,0:0|0:0|0:0,0:0:0:0:
304,116,49239,54,0,P|300:180|288:212,1,67.5000025749208,2|0,0:0|0:0,0:0:0:0:
180,368,49708,2,0,P|184:304|196:272,1,67.5000025749208,2|0,0:0|0:0,0:0:0:0:
405,294,50176,2,0,P|376:312|344:320,1,67.5000025749208,2|0,0:0|0:0,0:0:0:0:
78,189,50645,2,0,P|107:171|140:164,1,67.5000025749208,2|2,0:0|0:0,0:0:0:0:
256,244,51114,1,0,0:0:0:0:
256,244,52755,53,0,1:0:0:0:
172,140,52989,1,0,0:0:0:0:
316,180,53223,1,8,0:0:0:0:
288,48,53458,1,0,0:0:0:0:
404,180,53692,2,0,P|424:252|424:288,1,90,0|0,1:0|0:0,0:0:0:0:
308,336,54161,1,8,0:0:0:0:
172,324,54395,1,0,0:0:0:0:
172,324,54512,1,0,0:0:0:0:
172,324,54630,70,0,P|152:284|144:232,1,90,0|0,1:0|0:0,0:0:0:0:
112,108,55098,2,0,P|160:88|204:84,1,90,8|0,0:0|0:0,0:0:0:0:
220,88,55450,1,0,0:0:0:0:
240,100,55567,2,0,L|256:192,1,90,0|0,1:0|0:0,0:0:0:0:
420,336,56036,2,0,L|404:244,1,90,8|0,0:0|0:0,0:0:0:0:
416,60,56505,1,0,1:0:0:0:
248,144,56739,70,0,L|240:100,2,45,0|0|8,0:0|0:0|0:0,0:0:0:0:
191,329,57208,1,0,0:0:0:0:
191,329,57325,1,0,0:0:0:0:
191,329,57442,2,0,P|236:331|280:320,1,90,0|0,1:0|0:0,0:0:0:0:
348,151,57911,1,8,0:0:0:0:
184,76,58145,1,0,0:0:0:0:
160,256,58380,53,0,1:0:0:0:
356,260,58614,1,0,0:0:0:0:
380,68,58848,1,8,0:0:0:0:
184,76,59083,1,0,0:0:0:0:
124,296,59317,53,0,1:0:0:0:
256,136,59551,1,0,0:0:0:0:
256,344,59786,1,8,0:0:0:0:
104,84,60020,1,0,0:0:0:0:
104,84,60137,1,0,0:0:0:0:
104,84,60255,70,0,L|112:176,1,90,0|0,1:0|0:0,0:0:0:0:
256,344,60723,2,0,L|248:254,1,90,8|0,0:0|0:0,0:0:0:0:
36,304,61192,2,0,P|96:304|124:296,1,90,0|0,1:0|0:0,0:0:0:0:
296,140,61661,2,0,P|236:140|208:148,1,90,8|0,0:0|0:0,0:0:0:0:
387,295,62130,70,0,P|431:306|476:304,1,90,0|0,1:0|0:0,0:0:0:0:
408,84,62598,2,0,L|400:176,1,90,8|0,0:0|0:0,0:0:0:0:
256,344,63067,2,0,L|264:252,1,90,0|0,1:0|0:0,0:0:0:0:
144,116,63536,1,8,0:0:0:0:
40,268,63770,1,0,0:0:0:0:
40,268,63887,1,0,0:0:0:0:
40,268,64005,54,0,P|92:272|140:280,1,90,0|0,1:0|0:0,0:0:0:0:
256,344,64473,1,8,0:0:0:0:
304,128,64708,1,0,0:0:0:0:
304,128,65176,53,0,0:0:0:0:
456,276,65411,1,8,0:0:0:0:
256,344,65645,1,0,0:0:0:0:
104,184,65880,70,0,B|72:220|72:220|76:272,1,90,0|0,1:0|0:0,0:0:0:0:
256,344,66348,2,0,B|288:308|288:308|284:256,1,90,8|0,0:0|0:0,0:0:0:0:
304,128,66817,2,0,B|244:128|244:128|218:144,1,90,0|0,1:0|0:0,0:0:0:0:
172,364,67286,2,0,B|228:364|228:364|256:344,1,90,8|0,0:0|0:0,0:0:0:0:
304,128,67755,69,0,1:0:0:0:
192,144,67989,1,0,0:0:0:0:
208,256,68223,1,8,0:0:0:0:
320,240,68458,1,0,0:0:0:0:
241,75,68692,53,0,1:0:0:0:
139,206,68926,1,0,0:0:0:0:
270,308,69161,1,8,0:0:0:0:
372,177,69395,1,0,0:0:0:0:
372,177,69512,1,0,0:0:0:0:
372,177,69630,1,0,0:0:0:0:
256,192,70333,12,0,71505,0:0:0:0:
88,148,71739,53,0,0:0:0:0:
88,148,71973,2,0,L|200:136,1,90,8|0,0:0|0:0,0:0:0:0:
276,44,72442,1,8,0:0:0:0:
336,164,72676,1,0,0:0:0:0:
336,164,72794,1,0,0:0:0:0:
336,164,72911,2,0,P|352:212|360:256,1,90,8|0,0:0|0:0,0:0:0:0:
468,44,73380,70,0,P|452:92|444:136,1,90,8|0,0:0|0:0,0:0:0:0:
456,264,73848,1,8,0:0:0:0:
348,344,74083,1,0,0:0:0:0:
224,292,74317,2,0,L|116:316,1,90,8|0,0:0|0:0,0:0:0:0:
52,204,74786,1,0,3:0:0:0:
36,336,75020,1,4,0:0:0:0:
52,204,75255,70,0,P|40:164|48:112,1,90,4|0,0:0|0:0,0:0:0:0:
216,204,75723,2,0,P|228:244|224:292,1,90,8|0,0:0|0:0,0:0:0:0:
160,104,76192,2,0,P|200:88|248:96,1,90,0|0,1:0|0:0,0:0:0:0:
420,240,76661,2,0,P|380:256|332:248,1,90,8|0,0:0|0:0,0:0:0:0:
348,116,77130,53,0,1:0:0:0:
484,120,77364,1,0,0:0:0:0:
420,240,77598,1,8,0:0:0:0:
92,144,78067,1,0,1:0:0:0:
28,264,78301,1,0,0:0:0:0:
164,268,78536,54,0,P|240:288|316:300,1,135.000005149842,8|0,0:0|1:0,0:0:0:0:
464,88,79473,2,0,P|408:92|368:104,1,90,8|0,0:0|0:0,0:0:0:0:
280,152,79942,1,0,1:0:0:0:
376,248,80176,1,0,0:0:0:0:
280,152,80411,2,0,P|268:112|276:64,1,90,8|0,0:0|0:0,0:0:0:0:
376,248,80880,70,0,P|308:284|208:260,1,180,0|8,1:0|0:0,0:0:0:0:
380,52,81817,2,0,L|376:152,1,90,0|0,1:0|0:0,0:0:0:0:
135,141,82286,2,0,L|132:52,1,90,8|0,0:0|0:0,0:0:0:0:
256,184,82755,70,0,B|258:222|258:222|258:270|254:318,2,135.000005149842,0|8|0,1:0|0:0|1:0,0:0:0:0:
156,92,83926,1,0,0:0:0:0:
116,220,84161,2,0,P|120:276|124:320,1,90,8|0,0:0|0:0,0:0:0:0:
256,320,84630,54,0,B|304:288|380:352|432:316,1,180,0|8,1:0|0:0,0:0:0:0:
368,196,85333,1,0,0:0:0:0:
396,64,85567,2,0,P|336:72|308:80,1,90,0|0,1:0|0:0,0:0:0:0:
252,204,86036,2,0,P|192:196|164:188,1,90,8|0,0:0|0:0,0:0:0:0:
132,56,86505,54,0,B|100:48|88:40|88:40|16:72|40:148,1,180,0|8,1:0|0:0,0:0:0:0:
96,272,87208,1,0,0:0:0:0:
228,292,87442,2,0,L|252:204,1,90,0|0,1:0|0:0,0:0:0:0:
399,54,87911,2,0,L|372:140,1,90,8|0,0:0|0:0,0:0:0:0:
432,260,88380,70,0,L|346:232,1,90,0|0,1:0|0:0,0:0:0:0:
281,112,88848,2,0,L|194:88,1,90,8|0,0:0|0:0,0:0:0:0:
24,192,89317,2,0,L|111:216,1,90,0|0,1:0|0:0,0:0:0:0:
176,336,89786,2,0,L|262:364,1,90,8|0,0:0|0:0,0:0:0:0:
336,248,90255,69,0,3:0:0:0:
456,188,90489,1,0,0:0:0:0:
328,104,90723,2,0,P|268:92|180:84,1,135.000005149842,8|2,0:0|0:0,0:0:0:0:
68,32,91426,2,0,P|56:75|57:120,1,90,0|8,0:0|0:0,0:0:0:0:
84,252,91895,1,0,0:0:0:0:
176,352,92130,54,0,L|232:340,1,45,2|0,0:0|0:0,0:0:0:0:
240,336,92364,2,0,P|245:291|237:247,1,90,0|8,0:0|0:0,0:0:0:0:
200,116,92833,1,0,0:0:0:0:
320,56,93067,2,0,P|312:104|324:152,1,90,2|0,0:0|0:0,0:0:0:0:
460,232,93536,2,0,P|465:187|457:143,1,90,8|0,0:0|0:0,0:0:0:0:
320,56,94005,54,0,P|228:80|144:56,1,180,2|8,0:0|0:0,0:0:0:0:
148,58,94708,1,0,0:0:0:0:
32,192,94942,2,0,P|118:170|203:194,1,180,2|8,0:0|0:0,0:0:0:0:
203,194,95645,1,0,0:0:0:0:
296,292,95880,70,0,P|312:248|320:192,1,90,2|0,0:0|0:0,0:0:0:0:
436,140,96348,2,0,P|416:92|392:52,1,90,8|0,0:0|0:0,0:0:0:0:
260,52,96817,1,2,0:0:0:0:
132,96,97051,1,0,0:0:0:0:
256,76,97286,1,8,0:0:0:0:
128,120,97520,1,0,0:0:0:0:
260,100,97755,70,0,P|264:160|272:196,1,90,2|0,0:0|0:0,0:0:0:0:
308,320,98223,1,8,0:0:0:0:
412,232,98458,1,0,0:0:0:0:
270,189,98692,1,2,0:0:0:0:
412,232,98926,1,0,0:0:0:0:
412,232,99044,1,0,0:0:0:0:
412,232,99161,2,0,P|408:292|400:328,1,90,8|0,0:0|0:0,0:0:0:0:
147,79,99630,54,0,P|165:121|184:162,1,90,2|0,0:0|0:0,0:0:0:0:
364,78,100098,2,0,P|345:120|327:161,1,90,8|0,0:0|0:0,0:0:0:0:
256,320,100567,1,2,0:0:0:0:
110,321,100801,2,0,P|101:276|100:232,1,90,0|8,0:0|0:0,0:0:0:0:
92,96,101270,1,0,0:0:0:0:
92,96,101739,54,0,L|200:72,1,90,0|8,0:0|0:0,0:0:0:0:
356,36,102208,1,0,0:0:0:0:
468,176,102442,1,2,0:0:0:0:
356,36,102676,2,2,L|316:216,1,180,2|0,0:0|0:0,0:0:0:0:
156,348,103380,2,10,L|196:168,1,180,2|10,0:0|0:0,0:0:0:0:
256,192,103965,12,0,105489,0:0:0:0:
88,164,105958,69,2,0:0:0:0:
88,164,106075,1,0,0:0:0:0:
88,164,106192,2,0,L|180:160,1,90
312,160,106661,1,0,0:0:0:0:
232,52,106895,1,2,0:0:0:0:
360,240,107130,22,0,P|356:296|348:351,1,112.5,4|0,1:0|0:0,0:0:0:0:
76,276,107598,2,0,P|80:220|88:165,1,112.5,8|0,0:0|0:0,0:0:0:0:
196,32,108067,1,0,1:0:0:0:
313,159,108301,1,0,0:0:0:0:
313,159,108419,1,0,0:0:0:0:
313,159,108536,2,0,L|424:136,1,112.5,8|0,0:0|0:0,0:0:0:0:
352,304,109005,38,0,L|241:327,1,112.5,0|0,1:0|0:0,0:0:0:0:
220,136,109473,1,8,0:0:0:0:
36,188,109708,1,0,0:0:0:0:
36,188,109825,1,0,0:0:0:0:
36,188,109942,2,0,P|24:240|40:296,1,112.5,0|0,1:0|0:0,0:0:0:0:
108,80,110411,1,8,0:0:0:0:
212,228,110645,1,0,0:0:0:0:
108,80,110880,22,0,P|164:84|232:92,1,112.5,0|0,1:0|0:0,0:0:0:0:
400,112,111348,2,0,P|392:64|388:44,2,56.25,8|0|0,0:0|0:0|0:0,0:0:0:0:
340,296,111817,1,0,1:0:0:0:
476,164,112051,1,0,0:0:0:0:
432,352,112286,1,8,0:0:0:0:
476,164,112520,1,0,0:0:0:0:
476,164,112637,1,0,0:0:0:0:
476,164,112755,70,0,P|456:224|448:272,1,112.5,0|0,1:0|0:0,0:0:0:0:
256,192,113223,2,0,P|236:136|232:68,1,112.5,8|0,0:0|0:0,0:0:0:0:
440,88,113692,1,0,1:0:0:0:
436,296,113926,1,0,0:0:0:0:
256,192,114161,1,8,0:0:0:0:
29,325,114395,22,0,P|130:356|200:276,1,225,2|0,0:0|0:0,0:0:0:0:
56,168,115098,2,0,L|108:268,1,112.5,8|0,0:0|0:0,0:0:0:0:
256,192,115567,2,0,L|256:80,1,112.5,0|0,1:0|0:0,0:0:0:0:
456,168,116036,2,0,L|404:268,1,112.5,8|0,0:0|0:0,0:0:0:0:
152,152,116505,38,0,P|256:108|356:148,1,225,0|8,1:0|0:0,0:0:0:0:
256,272,117208,2,0,L|144:320,1,112.5,0|0,0:0|1:0,0:0:0:0:
256,112,117676,2,0,L|368:64,1,112.5,0|8,0:0|0:0,0:0:0:0:
152,316,118145,22,0,P|120:272|120:216,1,112.5,0|0,0:0|1:0,0:0:0:0:
359,67,118614,2,0,P|392:112|392:168,1,112.5,0|8,0:0|0:0,0:0:0:0:
360,316,119083,1,0,0:0:0:0:
256,112,119317,1,0,1:0:0:0:
152,316,119551,1,0,0:0:0:0:
256,112,119786,70,0,L|60:128,2,180,8|0|8,0:0|1:0|0:0,0:0:0:0:
392,180,120958,1,0,0:0:0:0:
392,180,121075,1,0,0:0:0:0:
392,180,121192,1,0,1:0:0:0:
286,263,121426,1,2,0:0:0:0:
153,284,121661,1,8,0:0:0:0:
30,232,121895,1,2,0:0:0:0:
324,52,122364,37,2,0:0:0:0:
312,188,122598,1,8,0:0:0:0:
332,328,122833,1,0,0:0:0:0:
332,328,122950,1,0,0:0:0:0:
332,328,123067,2,0,P|384:332|436:344,1,90,0|2,1:0|0:0,0:0:0:0:
200,284,123536,22,0,P|148:288|96:300,1,90,8|2,0:0|0:0,0:0:0:0:
312,188,124005,2,0,P|308:144|316:96,1,90,0|2,1:0|0:0,0:0:0:0:
468,272,124473,2,0,P|472:316|464:364,1,90,8|2,0:0|0:0,0:0:0:0:
428,132,124942,1,0,1:0:0:0:
276,40,125176,1,2,0:0:0:0:
216,208,125411,1,8,0:0:0:0:
60,120,125645,1,2,0:0:0:0:
68,300,125880,22,0,P|116:304|176:312,1,90,0|2,1:0|0:0,0:0:0:0:
376,256,126348,2,0,P|328:252|268:244,1,90,8|2,0:0|0:0,0:0:0:0:
452,316,126817,1,0,1:0:0:0:
344,172,127051,1,2,0:0:0:0:
292,344,127286,1,8,0:0:0:0:
168,212,127520,1,2,0:0:0:0:
344,172,127755,70,0,P|348:116|344:64,1,90,0|2,1:0|0:0,0:0:0:0:
168,212,128223,2,0,P|164:268|168:320,1,90,8|2,0:0|0:0,0:0:0:0:
184,124,128692,1,0,1:0:0:0:
328,260,128926,1,2,0:0:0:0:
184,124,129161,2,0,P|153:93|114:69,1,90,8|10,0:0|0:0,0:0:0:0:
233,288,129630,38,0,P|221:332|220:378,1,90,0|2,1:0|0:0,0:0:0:0:
350,163,130098,2,0,P|394:151|435:129,1,90,8|2,0:0|0:0,0:0:0:0:
184,124,130567,1,0,1:0:0:0:
232,288,130801,1,2,0:0:0:0:
350,163,131036,1,8,0:0:0:0:
236,40,131270,1,2,0:0:0:0:
96,140,131505,22,0,L|184:124,1,90,0|2,1:0|0:0,0:0:0:0:
350,163,131973,2,0,L|438:147,1,90,8|2,0:0|0:0,0:0:0:0:
392,312,132442,2,0,L|304:296,1,90,0|2,1:0|0:0,0:0:0:0:
136,336,132911,2,0,L|48:320,1,90,8|10,0:0|0:0,0:0:0:0:
128,216,133380,69,0,1:0:0:0:
248,207,133614,1,2,0:0:0:0:
256,327,133848,1,8,0:0:0:0:
136,336,134083,1,2,0:0:0:0:
248,207,134317,1,0,1:0:0:0:
376,92,134551,1,2,0:0:0:0:
488,224,134786,1,8,0:0:0:0:
360,336,135020,1,0,0:0:0:0:
360,336,135137,1,0,0:0:0:0:
360,336,135255,22,0,P|372:292|380:244,1,90,0|2,1:0|0:0,0:0:0:0:
228,120,135723,2,0,P|235:164|247:207,1,90,8|2,0:0|0:0,0:0:0:0:
56,288,136192,2,0,P|104:300|144:320,1,90,0|2,1:0|0:0,0:0:0:0:
360,336,136661,2,0,P|408:320|440:296,1,90,8|10,0:0|0:0,0:0:0:0:
452,124,137130,37,0,1:0:0:0:
364,248,137364,1,2,0:0:0:0:
316,92,137598,1,8,0:0:0:0:
440,296,137833,1,2,0:0:0:0:
196,292,138067,1,0,1:0:0:0:
148,136,138301,1,2,0:0:0:0:
60,260,138536,1,8,0:0:0:0:
72,88,138770,1,2,0:0:0:0:
316,92,139005,22,0,L|344:180,1,90,0|2,1:0|0:0,0:0:0:0:
196,292,139473,2,0,L|168:204,1,90,8|2,0:0|0:0,0:0:0:0:
300,260,139942,2,0,P|285:323|273:351,1,90,0|2,1:0|0:0,0:0:0:0:
212,124,140411,2,0,P|227:61|239:33,1,90,8|8,0:0|0:0,0:0:0:0:
256,192,140880,69,4,0:0:0:0:
