osu file format v12

[General]
AudioFilename: Avenged Sevenfold - So Far Away.mp3
AudioLeadIn: 0
PreviewTime: -1
Countdown: 0
SampleSet: None
StackLeniency: 0.7
Mode: 0
LetterboxInBreaks: 0
WidescreenStoryboard: 0

[Editor]
DistanceSpacing: 1.5
BeatDivisor: 4
GridSize: 4
TimelineZoom: 1

[Metadata]
Title:So Far Away
TitleUnicode:So Far Away
Artist:Avenged Sevenfold
ArtistUnicode:Avenged Sevenfold
Creator:Kyshiro
Version:The Rev
Source:
Tags:
BeatmapID:438378
BeatmapSetID:182921

[Difficulty]
HPDrainRate:7
CircleSize:5
OverallDifficulty:8
ApproachRate:8
SliderMultiplier:1.8
SliderTickRate:1

[Events]
//Background and Video events
0,0,"BG.jpg",0,0
//Break Periods
//Storyboard Layer 0 (Background)
//Storyboard Layer 1 (Fail)
//Storyboard Layer 2 (Pass)
//Storyboard Layer 3 (Foreground)
//Storyboard Sound Samples
//Background Colour Transformations
3,100,163,162,255

[TimingPoints]
-130,394.736842105263,4,2,1,50,1,0
1251,-133.333333333333,4,2,1,50,0,0
33026,-100,4,2,1,50,0,1
58290,-133.333333333333,4,2,1,50,0,0
89869,-100,4,2,1,50,0,1
114737,-100,4,2,1,50,0,0
171974,-100,4,2,1,50,0,1
203553,-100,4,2,1,50,0,0
232716,405.405405405405,4,2,1,50,1,0
268797,-100,4,2,1,50,0,1
315418,441.176470588235,4,2,1,50,1,1
322035,-100,4,2,1,50,0,0

[HitObjects]
97,99,1250,6,0,L|81:69,2,30
130,162,1448,1,0,0:0:0:0:
464,239,3817,5,0,0:0:0:0:
377,186,4014,2,0,L|351:49,1,135.000005149842
313,261,4606,1,0,0:0:0:0:
443,45,6975,5,0,0:0:0:0:
402,137,7172,1,0,0:0:0:0:
310,178,7369,1,0,0:0:0:0:
208,173,7567,1,0,0:0:0:0:
120,121,7764,6,0,P|102:74|129:-4,1,135.000005149842
201,65,8356,1,0,0:0:0:0:
201,65,8554,2,0,L|138:192,1,135.000005149842
224,327,9146,1,0,0:0:0:0:
298,258,9343,6,0,P|308:209|300:178,1,67.5000025749208
447,86,9738,2,0,P|444:119|454:151,1,67.5000025749208
327,80,10133,1,0,0:0:0:0:
139,69,10330,1,0,0:0:0:0:
235,37,10527,1,0,0:0:0:0:
97,161,10725,1,0,0:0:0:0:
231,167,10922,6,0,B|262:181|299:168|299:168|327:175|327:175|372:171,1,135.000005149842
444,20,11514,1,0,0:0:0:0:
509,113,11712,2,0,L|497:188,1,67.5000025749208
413,114,12106,6,0,L|389:264,1,135.000005149842
365,36,12698,1,0,0:0:0:0:
316,112,12896,2,0,L|292:262,1,135.000005149842
197,275,13488,1,0,0:0:0:0:
100,245,13685,1,0,0:0:0:0:
227,178,13883,1,0,0:0:0:0:
130,148,14080,1,0,0:0:0:0:
274,328,16448,5,0,0:0:0:0:
274,328,16646,2,0,P|361:297|411:314,1,135.000005149842
199,275,17238,1,0,0:0:0:0:
445,45,18817,5,0,0:0:0:0:
134,169,19212,1,0,0:0:0:0:
445,45,19606,1,0,0:0:0:0:
414,141,19804,1,0,0:0:0:0:
329,197,20001,1,0,0:0:0:0:
228,209,20198,1,0,0:0:0:0:
134,169,20396,6,0,P|78:153|1:183,1,135.000005149842
141,266,20988,1,0,0:0:0:0:
228,209,21185,2,0,P|244:153|214:76,1,135.000005149842
237,313,21777,1,0,0:0:0:0:
319,253,21975,6,0,L|395:241,1,67.5000025749208
497,98,22369,1,0,0:0:0:0:
406,143,22567,2,0,P|354:122|265:134,1,135.000005149842
196,53,23159,1,0,0:0:0:0:
114,112,23356,1,0,0:0:0:0:
183,185,23554,6,0,L|134:329,1,135.000005149842
217,377,24146,1,0,0:0:0:0:
317,221,24343,2,0,L|295:157,1,67.5000025749208
432,28,24738,6,0,P|462:68|437:149,1,135.000005149842
493,323,25330,2,0,P|469:262|502:205,1,135.000005149842
399,328,25922,1,0,0:0:0:0:
344,204,26119,1,0,0:0:0:0:
301,332,26317,1,0,0:0:0:0:
344,204,26514,1,0,0:0:0:0:
226,270,26712,6,0,P|174:249|87:268,1,135.000005149842
16,114,27304,1,0,0:0:0:0:
109,153,27501,2,0,L|190:143,1,67.5000025749208
269,184,27896,2,0,L|350:174,1,67.5000025749208
194,55,28291,6,0,L|356:35,2,135.000005149842
391,102,29277,1,0,0:0:0:0:
391,102,29475,2,0,L|472:92,1,67.5000025749208
502,268,29869,6,0,P|464:288|370:264,1,135.000005149842
439,189,30462,1,0,0:0:0:0:
313,350,30659,2,0,L|166:327,1,135.000005149842
20,199,31251,2,0,P|66:178|155:204,1,135.000005149842
236,150,31843,6,0,B|258:123|258:123|258:90,1,67.5000025749208
159,207,32238,2,0,B|159:240|159:240|181:267,1,67.5000025749208
276,299,32633,1,0,0:0:0:0:
374,277,32830,1,0,0:0:0:0:
470,255,33027,6,0,P|484:208|471:159,1,90
321,13,33422,2,0,P|313:56|327:99,1,90
366,205,33817,2,0,L|183:239,1,180
98,178,34409,1,0,0:0:0:0:
194,130,34606,2,0,P|251:127|285:149,1,90
217,336,35001,2,0,P|160:339|124:319,1,90
189,237,35396,5,0,0:0:0:0:
292,266,35593,2,0,B|341:268|341:268|382:250|382:250|426:273|475:249,1,180
418,42,36185,2,0,P|382:73|443:181,1,180
317,172,36777,1,0,0:0:0:0:
444,109,36975,2,0,P|490:149|365:218,1,270
277,110,37764,5,0,0:0:0:0:
178,64,37962,1,0,0:0:0:0:
73,91,38159,1,0,0:0:0:0:
31,190,38356,1,0,0:0:0:0:
69,291,38554,2,0,P|117:304|165:290,1,90
236,224,38948,2,0,P|284:211|332:225,1,90
447,319,39343,6,0,B|471:187|471:187|497:198|507:224,1,180
370,292,39935,1,0,0:0:0:0:
269,250,40133,2,0,P|197:299|109:269,1,180
95,153,40725,2,0,P|167:104|255:134,1,180
183,202,41317,5,0,0:0:0:0:
224,27,41514,1,0,0:0:0:0:
356,150,41712,1,0,0:0:0:0:
153,102,41909,1,0,0:0:0:0:
325,50,42106,1,0,0:0:0:0:
284,226,42304,1,0,0:0:0:0:
255,126,42501,6,0,P|307:107|431:153,1,180
285,226,43093,2,0,P|233:245|109:199,1,180
83,106,43685,2,0,P|67:54|39:18,1,90
7,237,44080,5,0,0:0:0:0:
77,318,44277,1,0,0:0:0:0:
181,347,44475,1,0,0:0:0:0:
286,324,44672,1,0,0:0:0:0:
348,236,44869,2,0,L|358:137,1,90
288,62,45264,1,0,0:0:0:0:
288,62,45462,1,0,0:0:0:0:
442,75,45659,6,0,P|479:125|430:231,1,180
502,314,46251,1,0,0:0:0:0:
394,150,46448,2,0,L|288:164,1,90
137,56,46843,2,0,L|227:68,1,90
166,158,47238,5,0,0:0:0:0:
166,158,47435,1,0,0:0:0:0:
236,240,47633,2,0,L|430:223,1,180
336,347,48225,1,0,0:0:0:0:
228,342,48422,2,0,P|184:328|143:284,1,90
86,144,48817,6,0,P|107:202|41:305,1,180
0,206,49409,1,0,0:0:0:0:
175,80,49606,2,0,P|223:91|274:84,1,90
88,56,50001,2,0,P|44:45|0:48,1,90
156,197,50396,5,0,0:0:0:0:
258,229,50593,1,0,0:0:0:0:
361,196,50791,1,0,0:0:0:0:
412,101,50988,1,0,0:0:0:0:
304,106,51185,1,0,0:0:0:0:
361,196,51383,1,0,0:0:0:0:
468,191,51580,1,0,0:0:0:0:
412,101,51777,1,0,0:0:0:0:
304,106,51975,6,0,P|241:128|145:72,1,180
92,253,52567,1,0,0:0:0:0:
0,202,52764,2,0,P|71:151|156:172,1,180
235,246,53356,2,0,P|320:266|391:216,1,180
366,82,53948,2,0,P|280:61|209:111,2,180
301,164,54935,1,0,0:0:0:0:
301,164,55133,6,0,L|107:128,1,180
6,232,55725,2,0,B|32:267|78:272|115:246|115:246|177:258,1,180
101,49,56317,2,0,P|44:101|69:194,1,180
236,263,56909,5,0,0:0:0:0:
341,243,57106,1,0,0:0:0:0:
447,223,57304,1,0,0:0:0:0:
277,363,57501,5,0,0:0:0:0:
170,348,57698,1,0,0:0:0:0:
62,333,57896,1,0,0:0:0:0:
129,248,58093,1,0,0:0:0:0:
237,263,58291,1,0,0:0:0:0:
499,169,59080,6,0,P|451:156|372:187,1,135.000005149842
286,134,59672,2,0,P|238:147|159:116,1,135.000005149842
69,161,60264,2,0,P|54:124|60:89,1,67.5000025749208
144,207,60659,2,0,P|145:240|131:270,1,67.5000025749208
124,38,61054,1,0,0:0:0:0:
124,38,61251,1,0,0:0:0:0:
218,73,61448,6,0,L|356:51,2,135.000005149842
494,158,62633,1,0,0:0:0:0:
494,158,62830,2,0,P|438:168|363:129,1,135.000005149842
281,192,63422,2,0,L|265:260,1,67.5000025749208
178,348,63817,2,0,L|162:282,1,67.5000025749208
121,148,64212,1,0,0:0:0:0:
121,148,64409,1,0,0:0:0:0:
104,247,64606,6,0,P|163:276|231:254,1,135.000005149842
271,166,65198,1,0,0:0:0:0:
357,218,65396,2,0,P|372:260|364:297,2,67.5000025749208
359,116,65988,1,0,0:0:0:0:
271,166,66185,6,0,L|124:158,1,135.000005149842
45,77,66777,2,0,P|93:60|173:95,1,135.000005149842
94,231,67369,2,0,L|16:217,1,67.5000025749208
234,190,67764,6,0,L|390:218,2,135.000005149842
164,116,68751,1,0,0:0:0:0:
144,215,68948,2,0,L|130:293,1,67.5000025749208
69,154,69343,2,0,L|-9:140,1,67.5000025749208
164,116,69738,2,0,L|178:38,1,67.5000025749208
334,20,70133,1,0,0:0:0:0:
405,91,70330,1,0,0:0:0:0:
418,191,70527,1,0,0:0:0:0:
383,286,70725,1,0,0:0:0:0:
297,340,70922,6,0,P|231:326|260:220,1,202.500007724762
347,173,71712,2,0,P|403:191|482:163,1,135.000005149842
267,125,72304,2,0,L|183:127,1,67.5000025749208
125,57,72698,5,0,0:0:0:0:
38,157,72896,2,0,L|105:155,1,67.5000025749208
257,207,73291,1,0,0:0:0:0:
300,297,73488,1,0,0:0:0:0:
228,367,73685,1,0,0:0:0:0:
138,320,73883,1,0,0:0:0:0:
156,220,74080,6,0,P|239:236|342:169,1,202.500007724762
451,160,74869,2,0,L|441:230,1,67.5000025749208
381,87,75264,1,0,0:0:0:0:
356,190,75462,2,0,L|346:260,1,67.5000025749208
381,87,75856,1,0,0:0:0:0:
260,228,76054,2,0,L|250:298,1,67.5000025749208
174,180,76448,2,0,L|164:113,1,67.5000025749208
233,38,76843,1,0,0:0:0:0:
233,38,77041,1,0,0:0:0:0:
133,21,77238,6,0,P|78:57|2:38,1,135.000005149842
176,89,77830,2,0,P|240:77|296:113,1,135.000005149842
354,195,78422,1,0,0:0:0:0:
399,104,78619,1,0,0:0:0:0:
252,205,78817,6,0,L|170:202,1,67.5000025749208
4,286,79212,1,0,0:0:0:0:
85,345,79409,1,0,0:0:0:0:
179,309,79606,2,0,P|226:334|309:318,1,135.000005149842
363,238,80198,1,0,0:0:0:0:
446,295,80396,6,0,L|472:363,1,67.5000025749208
450,196,80791,2,0,L|513:231,1,67.5000025749208
396,116,81185,2,0,L|467:102,1,67.5000025749208
304,157,81580,2,0,L|161:129,1,135.000005149842
18,231,82172,5,0,0:0:0:0:
111,193,82369,2,0,P|140:147|125:63,1,135.000005149842
46,120,82962,1,0,0:0:0:0:
210,16,83159,2,0,L|294:24,1,67.5000025749208
418,116,83554,6,0,P|464:120|500:107,1,67.5000025749208
315,112,83948,2,0,P|269:108|233:121,1,67.5000025749208,0|0,0:0|0:0,0:0:0:0:
366,51,84343,1,0,0:0:0:0:
364,174,84541,2,0,L|392:318,1,135.000005149842
258,352,85133,6,0,L|270:285,1,67.5000025749208
189,113,85527,1,0,0:0:0:0:
189,113,85725,1,0,0:0:0:0:
100,161,85922,2,0,L|87:227,1,67.5000025749208
284,74,86317,2,0,L|271:7,1,67.5000025749208
189,113,86712,6,0,P|226:158|300:175,1,135.000005149842
204,23,87304,1,0,0:0:0:0:
108,56,87501,2,0,B|110:81|96:103|96:103|106:140|106:140|95:157|94:193,1,135.000005149842
156,317,88093,2,0,B|153:291|168:270|168:270|158:233|158:233|168:215|169:187,1,135.000005149842
93,262,88685,5,0,0:0:0:0:
241,360,88883,1,0,0:0:0:0:
253,184,89080,2,0,L|236:115,1,67.5000025749208
403,15,89475,2,0,L|386:80,1,67.5000025749208
