osu file format v7

[General]
AudioFilename: Avenged Sevenfold - 03 - Nightmare (Album Version - Explicit).mp3
AudioLeadIn: 0
PreviewTime: -1
Countdown: 1
SampleSet: Soft
StackLeniency: 0.2
Mode: 0
LetterboxInBreaks: 1

[Editor]
DistanceSpacing: 1
BeatDivisor: 6
GridSize: 8

[Metadata]
Title:Nightmare
Artist:Avenged Sevenfold
Creator:JohnCorl
Version:Insane
Source:
Tags:

[Difficulty]
HPDrainRate:8
CircleSize:6
OverallDifficulty:8
SliderMultiplier:1.6
SliderTickRate:1

[Events]
//Background and Video events
0,0,"sfondo_nightmare.jpg"
//Break Periods
2,117898,126641
2,189899,211102
2,241129,248026
2,267437,273872
2,321437,326026
//Storyboard Layer 0 (Background)
//Storyboard Layer 1 (Fail)
//Storyboard Layer 2 (Pass)
//Storyboard Layer 3 (Foreground)
//Storyboard Sound Samples
//Background Colour Transformations
3,100,163,162,255

[TimingPoints]
38776,461.538461538462,4,2,0,100,1,0

[Colours]
Combo1 : 215,198,206
Combo2 : 41,41,41
Combo3 : 162,203,210
Combo4 : 125,125,125

[HitObjects]
256,192,62314,1,0
104,80,62776,1,0
256,192,63237,1,0
416,80,63699,1,0
256,192,64160,1,0
256,360,64852,5,0
256,168,65314,1,0
64,192,65776,1,0
256,168,66237,1,0
448,192,66699,1,0
256,168,67160,1,0
104,288,67622,2,0,B|-8:184|248:-8|504:184|392:296,1,560
32,32,70160,5,0
128,32,70391,1,0
32,32,70622,1,0
32,128,70852,1,0
32,128,71083,2,0,B|208:128,1,160
480,32,71776,5,0
384,32,72006,1,0
384,128,72237,1,0
480,128,72468,1,0
384,128,72699,1,0
480,128,72929,2,0,B|312:128,1,160
256,352,73622,5,0
256,256,73852,1,0
176,304,74083,1,0
256,256,74314,1,0
336,304,74545,1,0
256,256,74776,2,0,B|256:160,1,80
208,88,75237,5,0
304,88,75468,1,0
208,88,75699,1,0
304,88,75929,1,0
256,168,76160,1,0
256,264,76391,1,0
256,168,76622,1,0
256,264,76852,2,0,B|256:96,1,160
480,32,77545,5,0
384,32,77776,1,0
480,32,78007,1,0
480,128,78237,1,0
480,128,78468,2,0,B|304:128,1,160
32,32,79161,5,0
128,32,79391,1,0
128,128,79622,1,0
32,128,79853,1,0
128,128,80084,1,0
32,128,80314,2,0,B|200:128,1,160
256,352,81007,5,0
256,256,81237,1,0
336,304,81468,1,0
256,256,81699,1,0
176,304,81930,1,0
256,256,82161,2,0,B|256:160,1,80
304,88,82622,5,0
208,88,82853,1,0
304,88,83084,1,0
208,88,83314,1,0
256,168,83545,1,0
256,264,83776,1,0
256,168,84007,1,0
256,264,84237,2,0,B|256:96,1,160
256,64,84929,5,0
256,192,85160,1,0
256,312,85391,1,0
256,192,85622,1,0
376,192,85852,1,0
256,192,86083,1,0
136,192,86314,1,0
256,192,86545,1,0
344,104,86776,6,0,B|280:168,1,80
168,104,87237,2,0,B|232:168,1,80
344,280,87699,2,0,B|280:216,1,80
168,280,88160,2,0,B|232:216,1,80
192,104,88622,5,0
312,104,88852,1,0
312,224,89083,1,0
192,224,89314,1,0
256,328,89545,1,0
256,328,89776,1,0
256,192,90006,12,0,91391
256,192,92083,5,0
256,72,92314,1,0
136,72,92545,1,0
136,192,92776,1,0
256,192,93006,1,0
376,192,93237,1,0
376,312,93468,1,0
256,312,93699,1,0
256,192,93929,6,0,B|256:104,1,80
168,192,94391,2,0,B|80:192,1,80
256,192,94852,2,0,B|256:280,1,80
344,192,95314,2,0,B|432:192,1,80
472,80,95776,5,0
472,200,96006,1,0
352,200,96237,1,0
352,80,96468,1,0
352,200,96699,1,0
472,200,96929,1,0
472,80,97160,1,0
352,80,97391,6,0,B|248:80,1,80
384,128,97852,2,0,B|296:128,1,80
416,176,98314,2,0,B|328:176,1,80
448,224,98776,2,0,B|352:224,1,80
248,224,99237,6,0,B|352:224,1,80
216,176,99699,2,0,B|304:176,1,80
184,128,100160,2,0,B|272:128,1,80
152,80,100622,2,0,B|240:80,1,80
256,192,101545,5,0
400,256,102006,1,0
256,336,102468,1,0
184,368,102699,2,0,B|8:320|0:192|32:64|184:0|448:224,1,720
288,272,105237,1,0
224,224,105468,2,0,B|400:192,1,160
456,168,106160,1,0
488,96,106391,2,0,B|352:0|144:16|24:72|16:240|176:376,1,720
256,192,108929,5,0
400,120,109391,1,0
256,48,109852,1,0
184,80,110083,2,0,B|120:104|160:224|176:224,1,160
248,256,110776,1,0
400,216,111237,1,0
472,72,111699,1,0
416,16,111929,2,0,B|312:16|352:152,1,160
408,80,112622,2,0,B|464:200|288:240|224:192|304:96|280:72,1,320
216,120,113776,2,0,B|232:48|192:16|136:0|104:0|72:64|104:120|72:176|0:160|328:288,1,560
272,168,115852,6,0,B|368:112|480:144|512:248|504:360|368:368|248:368|112:344,1,640
480,352,127391,5,0
384,352,127622,2,0,B|384:256,1,80
480,272,128083,1,0
480,176,128314,2,0,B|312:176,1,160
480,32,129006,5,0
384,32,129237,1,0
288,32,129468,1,0
192,32,129699,1,0
192,128,129929,1,0
288,128,130160,2,0,B|456:128,1,160
288,128,130852,5,0
288,224,131083,1,0
192,224,131314,1,0
288,224,131545,1,0
288,128,131776,1,0
192,128,132006,2,0,B|256:192,1,80
152,192,132468,5,0
192,104,132699,1,0
280,144,132929,1,0
240,232,133160,1,0
280,144,133391,1,0
192,104,133622,1,0
152,192,133852,1,0
240,232,134083,2,0,B|176:64,1,160
32,32,134776,5,0
128,32,135007,2,0,B|128:128,1,80
32,112,135468,1,0
32,208,135699,2,0,B|200:208,1,160
32,352,136391,5,0
128,352,136622,1,0
224,352,136853,1,0
320,352,137084,1,0
320,256,137314,1,0
224,256,137545,2,0,B|56:256,1,160
224,256,138237,5,0
224,160,138468,1,0
320,160,138699,1,0
224,160,138930,1,0
224,256,139161,1,0
320,256,139391,2,0,B|256:192,1,80
360,192,139853,5,0
320,280,140084,1,0
232,240,140314,1,0
272,152,140545,1,0
232,240,140776,1,0
320,280,141007,1,0
360,192,141237,1,0
272,152,141468,2,0,B|336:320,1,160
256,192,142160,5,0
328,96,142391,1,0
232,24,142622,1,0
168,128,142852,1,0
48,112,143083,1,0
80,224,143314,1,0
80,344,143545,1,0
168,264,143776,1,0
272,328,144006,1,0
336,224,144237,1,0
424,304,144468,1,0
448,184,144699,5,0
472,64,144929,1,0
352,88,145160,1,0
240,40,145391,1,0
272,152,145622,1,0
328,256,145852,1,0
216,304,146083,1,0
104,248,146314,1,0
224,224,146545,1,0
128,144,146776,1,0
224,72,147006,1,0
256,192,147237,12,0,149083
219,105,149545,6,0,B|299:129,1,80
296,128,150006,2,0,B|211:145,1,80
218,143,150468,2,0,B|299:160,1,80
296,160,150929,2,0,B|211:176,1,80
218,176,151391,2,0,B|299:201,1,80
294,199,151852,2,0,B|211:216,1,80
216,216,152314,2,0,B|299:232,1,80
294,231,152776,1,0
144,184,153006,5,0
200,288,153237,1,0
256,184,153468,1,0
320,288,153699,1,0
376,184,153929,1,0
320,80,154160,1,0
200,80,154391,1,0
256,232,154622,6,0,B|256:144,1,80
136,152,155083,2,0,B|136:248,1,80
136,352,155545,2,0,B|224:352,1,80
336,352,156006,2,0,B|432:352,1,80
416,232,156468,6,0,B|416:136,1,80
416,32,156929,2,0,B|320:32,1,80
216,32,157391,2,0,B|112:32,1,80
16,32,157852,2,0,B|16:128,1,80
256,192,158776,5,0
408,240,159237,1,0
256,288,159699,1,0
328,328,159929,2,0,B|240:360|64:328|0:256|40:176|112:88|64:16|368:32,1,720
256,152,162468,1,0
336,152,162699,2,0,B|336:224|336:224|336:224|224:200|224:200,1,160
168,192,163391,1,0
120,256,163622,2,0,B|8:224|40:104|112:24|120:-16|464:-16|464:104|464:224|448:192|368:272,1,720
256,160,166160,5,0
408,120,166622,1,0
288,16,167083,1,0
224,64,167314,2,0,B|192:128|272:136|336:104,1,160
392,56,168006,1,0
480,192,168468,1,0
424,344,168929,1,0
352,376,169160,2,0,B|248:376|288:240,1,160
344,312,169853,2,0,B|400:192|224:152|160:200|240:296|216:320,1,320
152,272,171007,2,0,B|168:344|128:376|72:392|40:392|8:328|40:272|8:216|-64:232|264:104,1,560
256,192,173545,5,0
104,144,174006,1,0
256,96,174468,1,0
184,56,174698,2,0,B|272:24|448:56|512:128|472:208|400:296|448:368|144:352,1,720
256,232,177237,1,0
176,232,177468,2,0,B|176:160|176:160|176:160|288:184|288:184,1,160
344,192,178160,1,0
392,128,178391,2,0,B|504:160|472:280|400:360|392:400|48:400|48:280|48:160|64:192|144:112,1,720
256,224,180929,5,0
104,264,181391,1,0
152,328,181622,1,0
312,304,182083,2,0,B|344:240|264:232|200:264,1,160
144,312,182775,1,0
32,192,183237,1,0
80,128,183468,1,0
152,8,183929,2,0,B|256:8|216:144,1,160
168,72,184622,2,0,B|112:192|288:232|352:184|272:88|296:64,1,320
360,112,185776,2,0,B|344:40|384:8|440:-8|472:-8|504:56|472:112|504:168|576:152|248:280,1,560
256,192,187852,12,0,189699
256,24,211852,6,0,B|40:24|40:128|256:128|368:-72|256:128|336:128|128:128|200:128,1,400
176,120,213083,5,0
152,112,213160,1,0
128,104,213237,1,0
104,88,213314,1,0
96,64,213391,1,0
112,48,213468,1,0
136,40,213545,1,0
160,40,213622,1,0
184,40,213699,2,0,B|536:0|464:192,1,400
456,216,214929,5,0
448,240,215006,1,0
456,264,215083,1,0
472,288,215160,1,0
488,312,215237,1,0
488,336,215314,1,0
480,360,215391,1,0
456,376,215468,1,0
432,376,215545,2,0,B|32:360|160:208,1,400
168,200,216776,2,0,B|256:72|416:192|528:0|208:48,1,453.333333333333
208,48,218160,5,0
184,56,218237,1,0
160,72,218314,1,0
136,88,218391,1,0
120,104,218468,1,0
104,128,218545,1,0
88,152,218622,1,0
80,176,218699,1,0
72,200,218776,1,0
72,224,218852,1,0
80,248,218929,1,0
96,272,219006,1,0
176,296,219237,6,0,B|304:296,2,120
176,296,220160,2,0,B|176:192|296:192,1,160
432,192,221083,2,0,B|304:192,2,120
432,192,222006,2,0,B|432:88|312:88,1,160
184,144,222929,6,0,B|384:-1,1,240
425,67,223852,2,0,B|282:170,1,160
456,192,224776,2,0,B|288:192,1,160
256,264,225468,1,0
216,192,225699,1,0
192,176,225776,1,0
168,168,225852,1,0
144,168,225929,1,0
120,176,226006,1,0
96,192,226083,1,0
88,216,226160,1,0
88,240,226237,1,0
96,264,226314,1,0
112,288,226391,1,0
128,304,226468,1,0
152,320,226545,1,0
176,336,226622,5,0
200,336,226699,1,0
224,336,226776,1,0
248,336,226852,1,0
272,328,226929,1,0
296,320,227006,1,0
320,312,227083,1,0
344,296,227160,1,0
368,288,227237,1,0
392,288,227314,1,0
416,296,227391,1,0
440,312,227468,1,0
464,328,227545,1,0
472,352,227622,1,0
456,368,227699,1,0
376,344,227929,2,0,B|280:256,1,106.666666666667
296,200,228468,5,0
320,184,228545,1,0
344,176,228622,1,0
368,176,228699,1,0
392,176,228776,1,0
416,168,228852,1,0
432,152,228929,1,0
440,128,229006,1,0
440,104,229083,1,0
432,80,229160,1,0
408,64,229237,1,0
384,56,229314,1,0
360,56,229391,1,0
336,56,229468,1,0
312,64,229545,1,0
248,112,229776,2,0,B|160:200,1,106.666666666667
120,248,230314,5,0
96,240,230391,1,0
72,224,230468,1,0
64,200,230545,1,0
64,176,230622,1,0
72,152,230699,1,0
88,128,230776,1,0
112,112,230852,1,0
136,96,230929,1,0
160,80,231006,1,0
184,72,231083,1,0
208,64,231160,1,0
232,56,231237,1,0
256,48,231314,1,0
280,48,231391,1,0
360,56,231622,2,0,B|488:96,1,106.666666666667
512,160,232160,2,0,B|384:160,2,120
512,160,233083,2,0,B|512:264|392:264,1,160
368,112,234006,6,0,C|280:112,1,80
344,168,234468,2,0,C|264:168,1,80
320,224,234929,2,0,C|240:224,1,80
296,280,235391,2,0,C|208:280,1,80
272,224,235852,2,0,C|352:224,1,80
296,168,236314,2,0,C|392:168,1,80
320,112,236776,2,0,C|480:112,1,160
336,40,237699,6,0,C|164:39,1,160
176,64,238237,1,0
176,88,238314,1,0
176,112,238391,1,0
176,136,238468,1,0
176,160,238545,1,0
176,184,238622,2,0,C|8:184,1,160
16,208,239160,1,0
16,232,239237,1,0
16,256,239314,1,0
16,280,239391,1,0
16,304,239468,1,0
16,328,239545,2,0,C|200:328,1,160
200,328,240083,1,0
224,328,240160,1,0
248,328,240237,1,0
272,328,240314,1,0
296,328,240391,1,0
320,328,240468,2,0,C|320:160,1,160
256,192,248776,5,0
256,32,249237,1,0
256,192,249929,5,0
416,192,250391,1,0
416,192,250622,1,0
416,352,251083,1,0
256,192,251776,5,0
96,192,252237,1,0
96,192,252468,1,0
96,32,252929,1,0
256,192,253622,5,0
256,112,253852,1,0
256,32,254083,2,0,B|360:32,1,80
336,112,254545,1,0
336,192,254776,1,0
336,272,255006,1,0
256,272,255237,2,0,B|256:24,1,240
256,192,256160,5,0
256,352,256621,1,0
256,192,257313,5,0
96,192,257775,1,0
96,192,258006,1,0
96,32,258467,1,0
256,192,259160,5,0
416,192,259621,1,0
416,192,259852,1,0
416,352,260313,1,0
256,192,261006,5,0
256,272,261236,1,0
256,352,261467,2,0,B|152:352,1,80
176,272,261929,1,0
176,192,262160,1,0
176,112,262390,1,0
256,112,262621,2,0,B|256:360,1,240
256,192,263545,6,0,B|312:192,2,40,0|0|0
256,192,263891,1,0
256,192,264006,2,0,B|208:192,2,40
256,192,264352,1,0
256,192,264468,2,0,B|256:144,2,40
256,192,264814,1,0
256,192,264929,2,0,B|256:240,2,40
256,192,265276,1,0
256,192,265391,2,0,B|304:192,2,40
256,192,265737,1,0
256,192,265852,2,0,B|208:192,2,40
256,112,266314,5,0
256,32,266545,1,0
256,112,267237,1,0
256,192,274622,5,0
256,192,275083,1,0
496,192,275776,5,0
336,192,276237,2,0,B|432:192,1,80
496,192,276929,1,0
24,192,277622,5,0
184,192,278083,2,0,B|96:192,1,80
24,192,278776,1,0
256,192,279468,5,0
256,112,279699,1,0
256,192,279929,1,0
176,192,280160,1,0
256,192,280391,1,0
336,192,280622,1,0
256,192,280852,2,0,B|256:280|176:280|176:192|176:112|256:112|336:112|336:192|336:208,1,320
256,192,282006,5,0
256,192,282468,1,0
256,0,283160,5,0
416,0,283622,2,0,B|320:0,1,80
416,136,284314,1,0
256,384,285006,5,0
96,384,285468,2,0,B|192:384,1,80
96,248,286160,1,0
256,72,286852,5,0
320,120,287083,1,0
320,200,287314,1,0
256,248,287545,1,0
192,200,287776,1,0
184,120,288006,1,0
256,72,288237,2,0,B|320:120|320:200|256:248|192:200|184:120|256:64,1,320
256,192,290776,6,0,B|344:192,2,80,0|0|0
256,192,291699,1,0
104,240,292160,1,0
256,288,292622,1,0
408,248,293083,2,0,B|504:184|496:0|248:-8|0:0|-8:184|128:344,1,800
288,344,295852,2,0,B|376:296,2,80
360,304,296545,2,0,B|496:240|336:248|176:280|80:136|368:96,1,480
256,192,298160,6,0,B|168:192,2,80,0|0|0
256,192,299083,1,0
328,152,299314,2,0,B|208:40,1,160
80,136,300237,2,0,B|-16:208|-8:392|240:400|488:392|496:208|360:48,1,800
304,32,302776,1,0
224,40,303122,2,0,B|136:96,2,100
160,88,303929,2,0,B|24:152|184:144|344:112|440:256|152:296,1,480
256,192,305545,5,0
256,192,305776,1,0
256,192,306006,1,0
320,48,306468,1,0
384,192,306929,1,0
320,48,307391,1,0
160,24,307852,2,0,B|8:88|256:104|480:136|248:0|16:192|-144:80|512:176|192:224|160:216|392:232|80:224|32:136|48:16|496:232,1,800
344,312,310622,1,0
264,288,310852,1,0
320,232,311083,1,0
240,216,311314,2,0,B|80:192|288:144|432:128|216:104|232:120,1,240
392,192,312468,5,0
488,320,312929,1,0
328,304,313391,1,0
176,360,313852,1,0
16,328,314314,1,0
128,216,314776,2,0,B|128:16|392:32|488:192,1,480
456,256,316391,6,0,B|424:344,1,80
408,176,317083,2,0,B|344:344|344:344,1,160
304,256,317776,2,0,B|344:168,1,80
337,183,318237,2,0,B|296:272,1,80
256,192,318699,2,0,B|200:328|40:272|32:88|232:32|344:56|400:32|416:104|464:296|120:360,1,880
256,192,326776,5,0
104,240,327237,1,0
256,288,327699,1,0
184,328,327929,2,0,B|272:360|448:328|512:256|472:176|400:88|448:16|144:32,1,720
256,152,330468,1,0
176,152,330699,2,0,B|176:224|176:224|176:224|288:200|288:200,1,160
344,192,331391,1,0
392,256,331622,2,0,B|504:224|472:104|400:24|392:-16|48:-16|48:104|48:224|64:192|144:272,1,720
256,160,334160,5,0
104,120,334622,1,0
224,16,335083,1,0
288,64,335314,2,0,B|320:128|240:136|176:104,1,160
120,56,336006,1,0
32,192,336468,1,0
88,344,336929,1,0
160,376,337160,2,0,B|264:376|224:240,1,160
168,312,337853,2,0,B|112:192|288:152|352:200|272:296|296:320,1,320
360,272,339007,2,0,B|344:344|384:376|440:392|472:392|504:328|472:272|504:216|576:232|248:104,1,560
256,192,341545,5,0
408,144,342006,1,0
256,96,342468,1,0
328,56,342698,2,0,B|240:24|64:56|0:128|40:208|112:296|64:368|368:352,1,720
256,232,345237,1,0
336,232,345468,2,0,B|336:160|336:160|336:160|224:184|224:184,1,160
168,192,346160,1,0
120,128,346391,2,0,B|8:160|40:280|112:360|120:400|464:400|464:280|464:160|448:192|368:112,1,720
256,224,348929,5,0
408,264,349391,1,0
360,328,349622,1,0
200,304,350083,2,0,B|168:240|248:232|312:264,1,160
368,312,350775,1,0
480,192,351237,1,0
432,128,351468,1,0
360,8,351929,2,0,B|256:8|296:144,1,160
344,72,352622,2,0,B|400:192|224:232|160:184|240:88|216:64,1,320
152,112,353776,2,0,B|168:40|128:8|72:-8|40:-8|8:56|40:112|8:168|-64:152|264:280,1,560
256,192,355852,12,0,357699
480,32,358160,5,0
352,128,358622,2,0,B|424:176,1,80
288,264,359314,1,0
256,192,359776,12,0,361852
