osu file format v12

[General]
AudioFilename: tumblr_lj8i2pOgBC1qcgewao1.mp3
AudioLeadIn: 0
PreviewTime: -1
Countdown: 1
SampleSet: Normal
StackLeniency: 0.7
Mode: 0
LetterboxInBreaks: 1
WidescreenStoryboard: 0

[Editor]
Bookmarks: 26221,36605,46990,57374,67759,88203
DistanceSpacing: 0.8
BeatDivisor: 4
GridSize: 8

[Metadata]
Title:Natural Born Killer
TitleUnicode:Natural Born Killer
Artist:Avenged Sevenfold
ArtistUnicode:Avenged Sevenfold
Creator:Takaichi
Version:Die Alone
Source:
Tags:Avenged Sevenfold A7X Natural Born Killer Metal
BeatmapID:302810
BeatmapSetID:117562

[Difficulty]
HPDrainRate:6
CircleSize:5
OverallDifficulty:7
ApproachRate:8
SliderMultiplier:1.4
SliderTickRate:2

[Events]
//Background and Video events
0,0,"avenged_sevenfold_wallpaper_hd-wide.jpg",0,0
//Break Periods
2,5226,6547
2,7821,9142
2,36691,46119
2,57449,76934
2,98319,305614
//Storyboard Layer 0 (Background)
//Storyboard Layer 1 (Fail)
//Storyboard Layer 2 (Pass)
//Storyboard Layer 3 (Foreground)
//Storyboard Sound Samples
//Background Colour Transformations
3,100,163,162,255

[TimingPoints]
161,324.36786004882,4,1,0,100,1,0
67759,-200,4,1,0,100,0,0
78143,-166.666666666667,4,1,0,100,0,0
101509,-100,4,1,0,100,0,0
143047,-200,4,1,0,100,0,0
153431,-166.666666666667,4,1,0,100,0,0
176797,-133.333333333333,4,1,0,100,0,0
305306,-80,4,1,0,100,0,0

[HitObjects]
256,192,4702,1,8,0:0:0:0:
256,192,5026,1,12,0:0:0:0:
256,192,7297,5,8,0:0:0:0:
256,192,7621,1,12,0:0:0:0:
416,200,9892,5,0,0:0:0:0:
312,120,10216,2,0,P|176:80|80:168,1,280
224,312,11189,1,0,0:0:0:0:
384,312,11351,1,0,0:0:0:0:
224,272,11513,1,0,0:0:0:0:
400,176,11838,1,0,0:0:0:0:
88,64,12162,1,0,0:0:0:0:
344,120,12487,2,0,P|320:72|400:56,1,140
416,320,13135,1,0,0:0:0:0:
120,296,13460,1,0,0:0:0:0:
424,280,13784,1,0,0:0:0:0:
104,328,14108,1,0,0:0:0:0:
96,80,14433,2,0,P|152:96|176:128,1,70
224,192,14757,1,0,0:0:0:0:
400,56,15081,1,0,0:0:0:0:
72,168,15406,1,0,0:0:0:0:
368,272,15730,2,0,L|400:240,4,35
96,104,16379,2,0,L|64:80,4,35
344,64,17028,1,0,0:0:0:0:
112,296,17352,1,0,0:0:0:0:
424,192,17676,1,0,0:0:0:0:
96,104,18001,2,0,B|48:240|288:24|136:296|304:200,1,280
64,336,18974,2,0,P|64:272|128:224,1,140
440,40,19623,2,0,P|440:104|376:152,1,140
256,192,20271,1,0,0:0:0:0:
256,192,20596,1,0,0:0:0:0:
328,112,20920,2,0,L|304:80,5,35
288,64,21407,1,0,0:0:0:0:
264,56,21488,1,0,0:0:0:0:
240,56,21568,1,0,0:0:0:0:
208,56,21649,1,0,0:0:0:0:
184,72,21730,1,0,0:0:0:0:
168,96,21812,1,0,0:0:0:0:
152,120,21893,1,0,0:0:0:0:
136,144,21974,1,0,0:0:0:0:
136,168,22055,1,0,0:0:0:0:
136,192,22136,1,0,0:0:0:0:
144,216,22218,1,0,0:0:0:0:
160,240,22299,1,0,0:0:0:0:
176,264,22380,1,0,0:0:0:0:
200,272,22461,1,0,0:0:0:0:
224,272,22542,1,0,0:0:0:0:
248,256,22623,1,0,0:0:0:0:
272,240,22704,1,0,0:0:0:0:
288,216,22785,1,0,0:0:0:0:
312,200,22866,1,0,0:0:0:0:
336,192,22947,1,0,0:0:0:0:
360,192,23028,1,0,0:0:0:0:
384,208,23110,1,0,0:0:0:0:
408,224,23191,1,0,0:0:0:0:
424,248,23272,2,0,L|440:288,10,35
440,304,24164,1,0,0:0:0:0:
424,328,24245,1,0,0:0:0:0:
400,336,24326,1,0,0:0:0:0:
376,344,24407,1,0,0:0:0:0:
352,344,24488,1,0,0:0:0:0:
328,344,24569,1,0,0:0:0:0:
304,336,24650,1,0,0:0:0:0:
280,328,24731,1,0,0:0:0:0:
256,312,24812,1,0,0:0:0:0:
232,296,24893,1,0,0:0:0:0:
208,288,24975,1,0,0:0:0:0:
184,288,25056,1,0,0:0:0:0:
160,304,25137,1,0,0:0:0:0:
136,320,25218,1,0,0:0:0:0:
112,320,25299,1,0,0:0:0:0:
88,312,25380,1,0,0:0:0:0:
72,296,25461,1,0,0:0:0:0:
72,184,25786,1,4,0:0:0:0:
248,72,26110,1,0,0:0:0:0:
392,248,26434,2,0,P|408:280|392:320,2,70
256,280,26921,1,0,0:0:0:0:
384,136,27083,1,0,0:0:0:0:
240,40,27407,2,0,B|176:40|176:40|136:72,1,105
152,88,27732,2,0,B|113:139|113:139|114:190,1,105
127,199,28056,2,0,B|177:240|177:240|280:240,1,140
128,336,28705,1,0,0:0:0:0:
376,264,29029,1,0,0:0:0:0:
256,208,29191,1,0,0:0:0:0:
408,136,29354,1,0,0:0:0:0:
216,80,29516,1,0,0:0:0:0:
440,32,29678,1,0,0:0:0:0:
296,48,30002,1,0,0:0:0:0:
272,72,30083,1,0,0:0:0:0:
256,96,30165,1,0,0:0:0:0:
248,128,30246,1,0,0:0:0:0:
240,160,30327,1,0,0:0:0:0:
224,184,30408,1,0,0:0:0:0:
208,216,30489,1,0,0:0:0:0:
192,240,30570,1,0,0:0:0:0:
168,256,30651,1,0,0:0:0:0:
136,256,30732,2,0,L|72:256,5,35
96,128,31300,1,0,0:0:0:0:
224,56,31624,2,0,P|312:56|360:88,1,140
280,160,32111,1,0,0:0:0:0:
400,40,32273,1,0,0:0:0:0:
440,192,32597,1,0,0:0:0:0:
424,224,32678,1,0,0:0:0:0:
312,256,32922,1,0,0:0:0:0:
296,224,33003,1,0,0:0:0:0:
168,296,33246,1,0,0:0:0:0:
184,264,33327,1,0,0:0:0:0:
64,232,33570,2,0,B|64:152|64:152|104:80,1,140
328,48,34219,1,0,0:0:0:0:
424,168,34381,2,0,L|480:224,2,70
328,48,34868,1,0,0:0:0:0:
144,48,35193,1,0,0:0:0:0:
120,72,35274,1,0,0:0:0:0:
144,88,35355,1,0,0:0:0:0:
120,104,35436,1,0,0:0:0:0:
144,120,35518,1,0,0:0:0:0:
120,136,35599,1,0,0:0:0:0:
144,152,35680,1,0,0:0:0:0:
120,168,35761,1,0,0:0:0:0:
144,184,35842,1,0,0:0:0:0:
120,200,35923,1,0,0:0:0:0:
144,216,36004,1,0,0:0:0:0:
264,224,36166,1,0,0:0:0:0:
328,48,36328,1,0,0:0:0:0:
408,224,36491,1,0,0:0:0:0:
360,40,46869,5,0,0:0:0:0:
384,48,46950,1,0,0:0:0:0:
408,64,47032,1,0,0:0:0:0:
424,88,47113,1,0,0:0:0:0:
424,112,47194,1,0,0:0:0:0:
424,136,47275,1,0,0:0:0:0:
416,160,47356,1,0,0:0:0:0:
392,176,47437,1,0,0:0:0:0:
376,200,47518,1,0,0:0:0:0:
272,200,47680,1,0,0:0:0:0:
192,120,47842,1,0,0:0:0:0:
64,104,48005,1,0,0:0:0:0:
64,104,48167,2,0,P|56:176|80:248,1,140
208,320,48654,1,0,0:0:0:0:
416,320,49140,2,0,B|368:280|368:280|368:224|368:224|432:176,1,175
176,64,49951,1,0,0:0:0:0:
176,64,50113,1,0,0:0:0:0:
176,64,50275,1,0,0:0:0:0:
176,64,50438,2,0,B|176:112|120:152|184:192,1,140
56,264,51086,1,0,0:0:0:0:
184,336,51411,1,0,0:0:0:0:
312,256,51735,1,0,0:0:0:0:
464,256,52059,1,0,0:0:0:0:
432,168,52384,2,0,B|352:56|352:56|280:176|280:176|200:72|200:72|160:72,1,420
64,88,53681,1,0,0:0:0:0:
176,312,54006,1,0,0:0:0:0:
272,88,54330,1,0,0:0:0:0:
432,88,54654,2,0,P|448:176|432:256,1,140
328,336,55303,1,0,0:0:0:0:
224,280,55628,1,0,0:0:0:0:
224,280,55709,1,0,0:0:0:0:
224,280,55790,1,0,0:0:0:0:
112,336,55952,2,0,B|72:280|72:280|64:208,1,140
160,48,56601,2,0,B|208:24|208:24|296:24,1,140
448,152,57249,1,0,0:0:0:0:
56,96,77684,5,0,0:0:0:0:
160,240,78009,6,0,B|160:184|232:96|304:184|272:240|336:304|400:240|400:192,1,332.5
432,176,79631,2,0,P|416:128|392:128,1,62.9999980773926
376,104,79955,1,0,0:0:0:0:
256,168,80279,1,0,0:0:0:0:
112,104,80604,2,0,B|168:104|256:176|168:248|112:216|48:280|112:344|176:344,1,335.999989746094
448,336,82388,1,0,0:0:0:0:
432,144,82874,2,0,L|392:168|344:144,1,83.9999974365235
80,64,83847,1,0,0:0:0:0:
88,328,84496,1,0,0:0:0:0:
192,264,84821,1,0,0:0:0:0:
296,336,85469,2,0,P|368:328|448:264,1,167.999994873047
360,128,86442,1,0,0:0:0:0:
360,128,86929,1,0,0:0:0:0:
296,80,87091,1,0,0:0:0:0:
184,160,87416,1,0,0:0:0:0:
96,80,87740,1,0,0:0:0:0:
72,136,87902,1,0,0:0:0:0:
48,192,88064,1,0,0:0:0:0:
96,312,88389,2,0,B|168:192|256:360|352:192,1,293.999991027832
408,200,89686,2,0,P|418:149|413:132,1,62.9999980773926
379,140,90010,2,0,P|370:105|350:80,1,62.9999980773926
216,48,90659,1,0,0:0:0:0:
80,176,90984,1,0,0:0:0:0:
184,312,91470,1,0,0:0:0:0:
256,240,91632,1,0,0:0:0:0:
384,304,91956,1,0,0:0:0:0:
416,56,92281,1,0,0:0:0:0:
416,120,92443,1,0,0:0:0:0:
400,184,92605,1,0,0:0:0:0:
320,104,92930,2,0,P|240:88|160:136,1,167.999994873047
248,160,93903,2,0,L|288:224,1,62.9999980773926
176,320,94227,2,0,L|136:264,1,62.9999980773926
32,192,94552,2,0,L|96:128,1,83.9999974365235
200,48,95200,2,0,L|216:80,1,20.9999993591309
336,88,95525,2,0,L|352:112,1,20.9999993591309
256,168,95849,1,0,0:0:0:0:
392,176,96173,2,0,B|368:232|368:232|392:256|392:256|392:336,1,167.999994873047
456,216,97308,1,0,0:0:0:0:
336,128,97471,1,0,0:0:0:0:
136,64,97795,1,0,0:0:0:0:
176,240,98119,1,0,0:0:0:0:
296,208,306364,6,0,L|320:152,1,43.75
72,72,306526,2,0,B|112:120|104:112,1,43.75
128,256,306850,2,0,L|96:216,1,43.75
448,224,307012,2,0,L|408:256,1,43.75
208,288,307337,2,0,L|256:256,1,43.75
160,72,307499,2,0,L|208:120,1,43.75
304,248,307823,2,0,L|272:208,1,43.75
264,64,307986,2,0,L|288:104,1,43.75
400,72,308310,1,0,0:0:0:0:
208,120,308634,2,0,P|208:208|304:248,1,175
376,112,309445,1,0,0:0:0:0:
432,312,309932,1,0,0:0:0:0:
96,304,310418,1,0,0:0:0:0:
256,184,310905,1,0,0:0:0:0:
