osu file format v12

[General]
AudioFilename: 10. Dear God.mp3
AudioLeadIn: 1080
PreviewTime: 55949
Countdown: 0
SampleSet: Soft
StackLeniency: 0.8
Mode: 0
LetterboxInBreaks: 1

[Editor]
Bookmarks: 26806,54239,82529,107175,121105,196545,210690
DistanceSpacing: 1
BeatDivisor: 4
GridSize: 4

[Metadata]
Title:Dear God
TitleUnicode:Dear God
Artist:Avenged Sevenfold
ArtistUnicode:Avenged Sevenfold
Creator:Takaichi
Version:Dear God
Source:
Tags:Dear God Avenged Sevenfold Takaichi
BeatmapID:229462
BeatmapSetID:83036

[Difficulty]
HPDrainRate:6
CircleSize:4
OverallDifficulty:6
ApproachRate:6
SliderMultiplier:1
SliderTickRate:2

[Events]
//Background and Video events
0,0,"e81ele.jpg",1,1
//Break Periods
2,93876,106345
2,188620,195944
//Storyboard Layer 0 (Background)
//Storyboard Layer 1 (Fail)
//Storyboard Layer 2 (Pass)
//Storyboard Layer 3 (Foreground)
//Storyboard Sound Samples
//Background Colour Transformations
3,100,163,162,255

[TimingPoints]
1077,428.703101666941,4,2,0,78,1,0
55950,-66.6666666666667,4,2,0,100,0,1
93676,-100,4,2,0,100,0,0
121113,-66.6666666666667,4,2,0,100,0,1
162269,-76.9230769230769,4,2,0,100,0,0
196565,-133.333333333333,4,2,0,100,0,0
210284,-58.8235294117647,4,2,0,100,0,1

[Colours]
Combo1 : 196,196,255
Combo2 : 0,0,0

[HitObjects]
128,36,28513,6,0,P|152:116|180:136,1,100
256,120,29157,1,0,0:0:0:0:
296,224,29371,1,0,0:0:0:0:
200,168,29585,1,0,0:0:0:0:
312,168,29800,1,0,0:0:0:0:
216,224,30014,1,0,0:0:0:0:
256,184,30228,1,0,0:0:0:0:
128,120,30657,6,0,P|160:120|192:132,1,50
216,112,31086,2,0,P|240:112|276:132,1,50
256,192,31514,1,0,0:0:0:0:
256,32,31729,2,0,L|256:104,1,50
432,124,32372,1,0,0:0:0:0:
432,192,32586,2,0,L|504:192,1,50
324,368,33229,1,0,0:0:0:0:
256,368,33444,2,0,L|256:296,1,50
80,260,34087,1,0,0:0:0:0:
80,192,34301,2,0,L|8:192,1,50
220,156,34944,6,0,P|252:204|288:236,1,100
448,328,35801,1,0,0:0:0:0:
448,240,36016,1,0,0:0:0:0:
448,148,36230,1,0,0:0:0:0:
260,216,36445,2,0,L|260:160,1,50
256,56,36873,2,0,P|232:56|208:92,1,50
256,56,37302,2,0,P|280:56|304:88,1,50
256,152,37731,6,0,P|280:152|304:120,1,50
256,152,38159,2,0,P|232:152|208:120,1,50
256,232,38802,2,0,B|288:232|288:232|320:304,1,100
256,232,39445,2,0,B|224:232|224:232|192:304,1,100
256,320,40088,1,0,0:0:0:0:
256,128,40517,5,0,0:0:0:0:
256,200,40732,1,0,0:0:0:0:
256,272,40946,1,0,0:0:0:0:
328,200,41160,1,0,0:0:0:0:
184,200,41375,1,0,0:0:0:0:
104,208,41589,2,0,B|72:192|72:152,1,50
96,132,42018,2,0,L|152:96,1,50
292,44,42661,5,0,0:0:0:0:
400,128,43089,1,0,0:0:0:0:
264,176,43518,1,0,0:0:0:0:
404,220,43947,2,0,L|436:320,1,100
352,324,44590,2,0,P|336:312|288:304,1,50
224,332,45019,1,0,0:0:0:0:
140,264,45233,1,0,0:0:0:0:
60,188,45447,1,0,0:0:0:0:
128,144,45662,2,0,P|128:176|148:208,1,50
280,184,46090,5,0,0:0:0:0:
244,116,46305,1,0,0:0:0:0:
240,248,46519,1,0,0:0:0:0:
80,120,46948,2,0,P|40:116|16:128,1,50
36,208,47376,1,0,0:0:0:0:
128,176,47591,2,0,P|232:176|280:144,1,150
400,68,48663,1,0,0:0:0:0:
88,80,49091,6,0,L|160:92,1,50
32,128,49520,1,0,0:0:0:0:
88,176,49734,2,0,L|196:144,1,100
336,124,50377,1,0,0:0:0:0:
276,192,50592,1,0,0:0:0:0:
352,240,50806,1,0,0:0:0:0:
412,172,51020,1,0,0:0:0:0:
368,184,51235,6,0,P|352:216|328:240,1,50
272,272,51663,1,0,0:0:0:0:
120,72,52307,2,0,L|176:104,1,50
328,324,52950,2,0,L|328:264,1,50
360,196,53378,1,0,0:0:0:0:
464,268,53593,2,0,L|392:268,1,50
416,64,54236,5,0,0:0:0:0:
224,144,54664,5,0,0:0:0:0:
272,200,54879,2,0,L|340:200,2,50
200,208,55522,2,0,L|200:276,2,50
224,216,56379,2,0,P|184:184|200:148,1,75.0000028610231
220,88,56808,1,0,0:0:0:0:
300,88,57022,1,0,0:0:0:0:
380,84,57237,2,0,L|488:80,1,75.000002861023
336,184,57665,2,0,B|324:284|324:284|240:224|240:224|196:208,1,225.000008583069
72,264,58523,1,0,0:0:0:0:
256,36,58951,6,0,L|256:144|256:144,1,75.000002861023
256,188,59380,1,0,0:0:0:0:
360,288,59809,1,0,0:0:0:0:
416,208,60023,1,0,0:0:0:0:
356,132,60238,1,0,0:0:0:0:
176,160,60452,2,0,B|176:264|176:264|304:268,1,225.000008583069
80,72,61524,6,0,L|80:176,1,75.0000028610231
240,96,61952,1,0,0:0:0:0:
328,184,62167,1,0,0:0:0:0:
232,264,62381,1,0,0:0:0:0:
36,288,62595,2,0,P|92:304|112:340,1,75.0000028610231
476,116,63238,2,0,P|412:76|396:48,1,75.0000028610231
304,80,63667,1,0,0:0:0:0:
208,140,63882,1,0,0:0:0:0:
148,224,64096,1,0,0:0:0:0:
268,56,64525,2,0,B|308:144|308:144|240:208|240:208|296:312,1,300.000011444092
168,212,65811,5,0,0:0:0:0:
256,104,66025,1,0,0:0:0:0:
348,212,66239,1,0,0:0:0:0:
256,120,66668,2,0,B|208:136|208:136|184:176,1,75.0000028610231
256,192,67097,1,0,0:0:0:0:
256,260,67311,2,0,B|304:244|304:244|328:204,1,75.0000028610231
256,192,67954,1,0,0:0:0:0:
256,192,68169,1,0,0:0:0:0:
256,112,68383,1,0,0:0:0:0:
256,272,68597,1,0,0:0:0:0:
168,192,68812,1,0,0:0:0:0:
344,192,69026,1,0,0:0:0:0:
256,192,69240,5,0,0:0:0:0:
256,192,69455,1,0,0:0:0:0:
256,192,69669,1,0,0:0:0:0:
284,32,70098,1,0,0:0:0:0:
184,32,70312,1,0,0:0:0:0:
120,104,70526,2,0,B|120:160|160:192,1,75.0000028610231
240,164,70955,2,0,P|232:128|200:88,1,75.0000028610231
352,80,71384,2,0,L|408:160,2,75.0000028610231
148,80,72027,2,0,L|96:136,2,75.0000028610231
256,140,72670,2,0,L|256:216,1,75.0000028610231
184,184,73099,6,0,L|368:184,1,150.000005722046
456,232,73742,6,0,P|432:308|300:292,1,225.000008583069
220,292,74599,1,0,0:0:0:0:
256,216,74813,1,0,0:0:0:0:
296,76,75242,1,0,0:0:0:0:
388,76,75456,1,0,0:0:0:0:
340,152,75671,1,0,0:0:0:0:
448,320,76100,2,0,L|468:144|468:144,1,150.000005722046
320,144,76957,2,0,P|276:112|164:104,1,150.000005722046
88,112,77600,1,0,0:0:0:0:
128,200,77814,1,0,0:0:0:0:
328,276,78029,6,0,B|272:192|168:244|216:276,1,150.000005722046
416,272,78672,2,0,L|416:128,1,112.500004291535
416,128,79100,1,0,0:0:0:0:
256,144,79315,1,0,0:0:0:0:
252,220,79529,1,0,0:0:0:0:
160,144,79744,1,0,0:0:0:0:
256,56,79958,1,0,0:0:0:0:
328,240,80387,2,0,L|256:308,1,75.0000028610231
220,184,80815,1,0,0:0:0:0:
156,80,81030,1,0,0:0:0:0:
256,192,81244,12,0,82530,0:0:0:0:
24,72,82744,5,0,0:0:0:0:
128,128,82959,1,0,0:0:0:0:
48,192,83173,1,0,0:0:0:0:
184,232,83387,1,0,0:0:0:0:
88,280,83602,1,0,0:0:0:0:
220,336,83816,2,0,L|324:336,1,75.0000028610231
432,288,84245,5,0,0:0:0:0:
336,232,84459,1,0,0:0:0:0:
464,192,84674,1,0,0:0:0:0:
384,128,84888,1,0,0:0:0:0:
488,64,85102,1,0,0:0:0:0:
316,64,85317,2,0,L|212:64,1,75.0000028610231
196,132,85745,2,0,L|296:132,1,75.0000028610231
256,240,86388,1,0,0:0:0:0:
256,240,86603,1,0,0:0:0:0:
116,148,86817,2,0,P|80:128|76:40,2,112.500004291535
372,280,87889,2,0,P|420:204|380:136,1,150.000005722046
192,104,88532,5,0,0:0:0:0:
256,192,88961,12,0,90247,0:0:0:0:
104,96,90675,5,0,0:0:0:0:
408,96,91104,1,0,0:0:0:0:
408,312,91533,1,0,0:0:0:0:
104,320,91962,1,0,0:0:0:0:
256,192,92390,1,0,0:0:0:0:
256,192,92819,21,0,0:0:0:0:
168,256,93033,1,0,0:0:0:0:
256,192,93248,1,0,0:0:0:0:
344,128,93462,1,0,0:0:0:0:
256,192,93676,5,4,0:0:0:0:
184,128,107395,5,0,0:0:0:0:
292,128,107609,2,0,P|324:148|336:172,1,50
320,228,108038,1,0,0:0:0:0:
200,216,108252,2,0,L|160:276,1,50
256,320,108681,1,0,0:0:0:0:
360,304,108895,2,0,P|392:276|384:220,1,100
320,152,109538,1,0,0:0:0:0:
224,48,109967,1,0,0:0:0:0:
96,52,110181,5,0,0:0:0:0:
104,160,110396,1,0,0:0:0:0:
128,280,110610,1,0,0:0:0:0:
244,244,110824,1,0,0:0:0:0:
212,160,111039,2,0,L|272:128,1,50
352,100,111468,2,0,L|392:152,1,50
64,328,112111,1,0,0:0:0:0:
64,212,112325,1,0,0:0:0:0:
176,172,112539,1,0,0:0:0:0:
256,256,112754,5,0,0:0:0:0:
296,140,112968,1,0,0:0:0:0:
200,208,113182,1,0,0:0:0:0:
312,208,113397,1,0,0:0:0:0:
216,140,113611,1,0,0:0:0:0:
280,64,113825,2,0,P|308:56|352:56,1,50
388,104,114254,1,0,0:0:0:0:
480,176,114683,5,0,0:0:0:0:
408,256,114897,1,0,0:0:0:0:
408,104,115112,1,0,0:0:0:0:
80,112,115540,1,0,0:0:0:0:
184,88,115755,1,0,0:0:0:0:
268,156,115969,2,0,P|268:204|264:224,1,50
268,304,116398,1,0,0:0:0:0:
480,40,116826,5,0,0:0:0:0:
436,128,117041,1,0,0:0:0:0:
372,224,117255,1,0,0:0:0:0:
112,108,117684,2,0,P|84:188|100:208,1,100
152,172,118327,2,0,P|164:224|144:264,1,100
236,292,118970,1,0,0:0:0:0:
296,216,119399,1,0,0:0:0:0:
296,116,119827,1,0,0:0:0:0:
112,64,120256,2,0,L|164:116,1,50
104,156,120685,2,0,L|152:204,1,50
72,240,121113,5,0,0:0:0:0:
220,180,121542,1,0,0:0:0:0:
360,100,121971,1,0,0:0:0:0:
364,300,122399,1,0,0:0:0:0:
292,200,122828,2,0,P|256:176|228:124,2,75.0000028610231
156,292,123686,1,0,0:0:0:0:
72,68,124114,6,0,P|128:108|156:108,1,75.0000028610231
64,152,124543,1,0,0:0:0:0:
64,152,124757,1,0,0:0:0:0:
68,236,124972,2,0,P|112:204|152:196,1,75.0000028610231
208,220,125400,1,0,0:0:0:0:
228,144,125615,2,0,L|328:144,1,75.0000028610231
432,144,126258,6,0,B|408:232|408:232|344:288,1,150.000005722046
268,176,126901,1,0,0:0:0:0:
128,192,127115,2,0,L|224:276,1,112.500004291535
268,252,127544,1,0,0:0:0:0:
272,116,127758,1,0,0:0:0:0:
420,160,127973,1,0,0:0:0:0:
428,296,128187,1,0,0:0:0:0:
288,328,128401,1,0,0:0:0:0:
168,192,128830,5,0,0:0:0:0:
348,192,129044,1,0,0:0:0:0:
256,192,129259,1,0,0:0:0:0:
40,192,129687,2,0,L|92:96,4,75.0000028610231
400,144,130974,1,0,0:0:0:0:
308,284,131188,1,0,0:0:0:0:
400,144,131402,1,0,0:0:0:0:
224,112,131831,2,0,P|224:160|192:208,1,75.0000028610231
80,120,132260,1,0,0:0:0:0:
80,244,132474,2,0,P|68:284|88:340,1,75.0000028610231
304,236,133117,6,0,P|344:192|356:144,6,75.0000028610231
384,220,134618,1,0,0:0:0:0:
288,172,134832,1,0,0:0:0:0:
112,88,135261,1,0,0:0:0:0:
124,260,135689,2,0,L|204:164,1,112.500004291535
240,136,136118,1,0,0:0:0:0:
384,96,136332,1,0,0:0:0:0:
480,184,136547,1,0,0:0:0:0:
356,188,136761,2,0,P|344:240|288:324,1,150.000005722046
224,240,137404,5,0,0:0:0:0:
448,252,137833,2,0,L|448:356,1,75.0000028610231
68,60,138476,2,0,L|68:160,1,75.0000028610231
280,176,138905,2,0,P|296:176|304:224,2,75.0000028610231
252,320,139548,1,0,0:0:0:0:
256,60,139976,1,0,0:0:0:0:
188,200,140405,1,0,0:0:0:0:
232,200,140512,1,0,0:0:0:0:
272,200,140619,1,0,0:0:0:0:
344,200,140834,1,0,0:0:0:0:
220,64,141477,6,0,P|268:64|316:92,1,75.0000028610231
296,332,142120,2,0,P|248:332|196:308,1,75.0000028610231
144,104,142763,2,0,B|248:144|232:208|280:208|360:240,1,225.000008583069
368,116,143620,1,0,0:0:0:0:
368,308,143835,1,0,0:0:0:0:
248,208,144049,1,0,0:0:0:0:
192,124,144263,6,0,L|136:100,1,37.5000014305115
112,88,144478,2,0,P|80:152|80:184,1,75.0000028610231
112,272,144906,2,0,P|80:232|80:200,1,75.0000028610231
384,288,145549,2,0,P|416:256|436:200,1,75.0000028610231
356,156,145978,1,0,0:0:0:0:
356,156,146192,1,0,0:0:0:0:
356,156,146407,1,0,0:0:0:0:
148,192,146836,5,0,0:0:0:0:
368,192,147050,1,0,0:0:0:0:
256,192,147264,1,0,0:0:0:0:
256,92,147479,1,0,0:0:0:0:
256,296,147693,1,0,0:0:0:0:
80,72,148122,2,0,P|36:120|32:160,5,75.0000028610231
32,196,149408,1,0,0:0:0:0:
380,336,149836,2,0,P|424:296|424:252,5,75.0000028610231
436,216,151123,1,0,0:0:0:0:
220,56,151551,5,0,0:0:0:0:
220,56,151766,2,0,L|324:56,1,75.0000028610231
296,324,152409,1,0,0:0:0:0:
296,324,152623,2,0,L|192:324,1,75.0000028610231
256,192,153266,1,0,0:0:0:0:
256,192,153480,12,0,154981,0:0:0:0:
132,104,155410,5,0,0:0:0:0:
372,104,155838,1,0,0:0:0:0:
376,296,156267,1,0,0:0:0:0:
136,296,156696,1,0,0:0:0:0:
256,204,157124,1,0,0:0:0:0:
256,204,157553,1,0,0:0:0:0:
256,192,157982,12,0,161411,0:0:0:0:
256,192,162269,5,0,0:0:0:0:
288,192,162376,1,0,0:0:0:0:
316,192,162483,1,0,0:0:0:0:
148,192,162698,1,0,0:0:0:0:
144,56,163126,1,0,0:0:0:0:
144,84,163233,1,0,0:0:0:0:
144,108,163341,1,0,0:0:0:0:
148,192,163555,1,0,0:0:0:0:
224,280,163984,6,0,P|252:292|276:288,1,32.4999985122681
288,280,164198,1,0,0:0:0:0:
248,192,164412,1,0,0:0:0:0:
368,144,164841,2,0,P|384:172|380:200,1,32.4999985122681
364,204,165055,1,0,0:0:0:0:
248,192,165270,1,0,0:0:0:0:
112,96,165698,6,0,P|100:120|100:144,2,32.4999985122681
248,88,166127,1,0,0:0:0:0:
404,92,166556,2,0,P|416:112|416:148,2,32.4999985122681
248,88,166985,1,0,0:0:0:0:
320,216,167413,6,0,P|296:264|264:288,1,64.9999970245363
216,192,167842,1,0,0:0:0:0:
128,136,168056,1,0,0:0:0:0:
112,232,168271,1,0,0:0:0:0:
216,192,168485,1,0,0:0:0:0:
336,192,168699,1,0,0:0:0:0:
280,288,168914,1,0,0:0:0:0:
424,288,169128,1,0,0:0:0:0:
128,68,169986,6,0,P|84:100|84:136,1,64.9999970245363
192,152,170414,1,0,0:0:0:0:
256,68,170843,2,0,P|304:104|304:136,1,64.9999970245363
192,152,171272,1,0,0:0:0:0:
292,288,171700,2,0,B|352:260|352:260|368:192,1,129.999994049073
252,180,172343,1,0,0:0:0:0:
252,180,172558,1,0,0:0:0:0:
164,64,172986,1,0,0:0:0:0:
76,64,173201,6,0,P|40:96|28:136,1,64.9999970245363
44,192,173629,1,0,0:0:0:0:
116,244,173844,1,0,0:0:0:0:
196,284,174058,1,0,0:0:0:0:
288,304,174273,1,0,0:0:0:0:
288,212,174487,1,0,0:0:0:0:
288,120,174701,1,0,0:0:0:0:
432,60,175130,2,0,B|492:100|368:104|492:112|368:120|492:124|368:136|492:136|368:152|496:152|368:168|500:168|436:308,1,259.999988098145
96,64,176416,5,0,0:0:0:0:
168,120,176630,1,0,0:0:0:0:
240,64,176845,1,0,0:0:0:0:
404,264,177273,5,0,0:0:0:0:
332,208,177487,1,0,0:0:0:0:
260,264,177702,1,0,0:0:0:0:
92,68,178131,2,0,B|168:68|168:68|212:108,1,129.999994049073
92,68,178988,6,0,B|112:120|112:120|172:176,1,129.999994049073,0|0,0:0|0:0,0:0:0:0:
412,304,179846,1,0,0:0:0:0:
420,200,180060,1,0,0:0:0:0:
376,96,180274,1,0,0:0:0:0:
264,96,180489,2,0,P|276:136|264:184,5,64.9999970245363
216,228,181775,5,0,0:0:0:0:
112,184,181989,1,0,0:0:0:0:
160,288,182204,1,0,0:0:0:0:
112,184,182418,1,0,0:0:0:0:
80,292,182632,1,0,0:0:0:0:
112,184,182847,1,0,0:0:0:0:
176,336,183275,6,0,L|264:336,1,64.9999970245363
340,336,183704,1,0,0:0:0:0:
340,64,184133,2,0,L|252:64,1,64.9999970245363
176,64,184561,1,0,0:0:0:0:
460,92,184990,2,0,L|460:188,1,64.9999970245363
460,260,185419,1,0,0:0:0:0:
44,288,185848,2,0,L|44:196,1,64.9999970245363
44,128,186276,1,0,0:0:0:0:
276,152,186705,6,0,P|276:224|224:276,1,129.999994049073
196,188,187348,1,0,0:0:0:0:
196,188,187562,1,0,0:0:0:0:
104,104,187777,1,0,0:0:0:0:
200,96,187991,1,0,0:0:0:0:
88,192,188205,1,0,0:0:0:0:
88,192,188420,1,0,0:0:0:0:
248,176,196994,6,0,P|252:112|272:64,1,112.500004291535
336,68,197851,1,0,0:0:0:0:
336,68,198066,1,0,0:0:0:0:
336,68,198280,1,0,0:0:0:0:
384,136,198494,1,0,0:0:0:0:
356,204,198709,1,0,0:0:0:0:
280,184,199137,6,0,P|260:196|252:220,1,37.5000014305115
252,276,199566,1,0,0:0:0:0:
192,316,199780,1,0,0:0:0:0:
172,252,199995,1,0,0:0:0:0:
172,188,200209,1,0,0:0:0:0:
172,120,200423,1,0,0:0:0:0:
116,80,200638,1,0,0:0:0:0:
52,92,200852,6,0,L|56:136,1,37.5000014305115
56,188,201281,1,0,0:0:0:0:
68,248,201495,1,0,0:0:0:0:
120,284,201710,1,0,0:0:0:0:
144,216,202138,1,0,0:0:0:0:
172,148,202567,1,0,0:0:0:0:
228,200,202996,1,0,0:0:0:0:
352,144,203424,6,0,P|316:188|316:212,1,75.0000028610231
300,264,204067,1,0,0:0:0:0:
172,304,204496,2,0,L|212:316,1,37.5000014305115
268,340,204925,1,0,0:0:0:0:
324,312,205139,1,0,0:0:0:0:
360,260,205354,1,0,0:0:0:0:
364,196,205568,1,0,0:0:0:0:
404,92,205997,6,0,L|432:124,1,37.5000014305115
472,172,206425,1,0,0:0:0:0:
476,248,206854,1,0,0:0:0:0:
356,236,207283,2,0,P|332:196|296:176,1,75.0000028610231
248,152,207926,1,0,0:0:0:0:
188,120,208140,1,0,0:0:0:0:
256,192,208354,12,0,210284,0:0:0:0:
104,192,210712,5,0,0:0:0:0:
256,192,211141,5,0,0:0:0:0:
312,88,211355,1,0,0:0:0:0:
312,296,211570,1,0,0:0:0:0:
384,192,211784,2,0,B|472:128|472:128|472:40,1,170.000003242493
256,72,212427,2,0,L|360:72,1,85.0000016212464
256,156,212856,1,0,0:0:0:0:
140,312,213285,2,0,P|76:296|56:256,1,85.0000016212464
136,168,213713,1,0,0:0:0:0:
224,316,213928,2,0,L|224:204,1,85.0000016212464
316,256,214356,5,0,0:0:0:0:
120,260,214571,1,0,0:0:0:0:
120,84,214785,1,0,0:0:0:0:
308,88,214999,1,0,0:0:0:0:
256,316,215428,1,0,0:0:0:0:
388,192,215642,1,0,0:0:0:0:
256,68,215857,1,0,0:0:0:0:
120,192,216071,1,0,0:0:0:0:
256,192,216285,1,0,0:0:0:0:
380,52,216714,5,0,0:0:0:0:
436,96,216929,2,0,P|468:152|468:204,1,85.0000016212464
256,112,217572,1,0,0:0:0:0:
164,224,217786,1,0,0:0:0:0:
20,184,218000,1,0,0:0:0:0:
80,60,218215,2,0,P|144:92|136:136,3,85.0000016212464
316,232,219286,1,0,0:0:0:0:
416,112,219501,1,0,0:0:0:0:
244,104,219715,1,0,0:0:0:0:
48,232,220144,2,0,B|52:288|52:288|116:296,1,85.0000016212464
204,208,220572,1,0,0:0:0:0:
340,52,221001,6,0,P|372:112|372:168,1,85.0000016212464
264,312,221644,2,0,P|328:276|328:232,5,85.0000016212464
172,152,222930,1,0,0:0:0:0:
252,64,223145,1,0,0:0:0:0:
348,152,223359,1,0,0:0:0:0:
256,248,223573,1,0,0:0:0:0:
416,260,223788,1,0,0:0:0:0:
256,320,224002,1,0,0:0:0:0:
144,96,224431,1,0,0:0:0:0:
80,148,224645,6,0,P|48:200|48:256,1,85.0000016212464
204,200,225074,1,0,0:0:0:0:
356,196,225288,1,0,0:0:0:0:
360,56,225503,1,0,0:0:0:0:
228,100,225717,2,0,P|188:168|216:276,3,170.000003242493
256,52,227217,1,0,0:0:0:0:
344,192,227432,1,0,0:0:0:0:
96,100,227646,1,0,0:0:0:0:
96,228,227860,2,0,P|108:292|88:344,1,85.0000016212464
220,232,228289,1,0,0:0:0:0:
252,108,228503,1,0,0:0:0:0:
368,196,228718,1,0,0:0:0:0:
424,132,229147,6,0,B|444:168|444:168|404:240,2,85.0000016212464
308,60,229790,1,0,0:0:0:0:
160,64,230004,1,0,0:0:0:0:
128,288,230647,2,0,P|136:248|208:244,1,85.0000016212464
272,288,231290,2,0,P|256:244|204:232,1,85.0000016212464
208,168,231933,2,0,B|236:140|360:188|404:148,1,170.000003242493
276,64,232576,2,0,L|184:124,1,85.0000016212464
80,168,233005,1,0,0:0:0:0:
248,212,233219,1,0,0:0:0:0:
128,280,233434,1,0,0:0:0:0:
400,48,233862,6,0,P|436:120|436:160,1,85.0000016212464
376,240,234291,1,0,0:0:0:0:
60,268,234720,1,0,0:0:0:0:
196,324,234934,1,0,0:0:0:0:
248,112,235363,2,0,P|200:176|208:204,3,85.0000016212464
328,232,236220,1,0,0:0:0:0:
432,152,236435,1,0,0:0:0:0:
436,324,236649,1,0,0:0:0:0:
328,232,236863,1,0,0:0:0:0:
68,64,237292,6,0,P|44:120|52:164,1,85.0000016212464
172,196,237721,2,0,P|192:236|192:276,1,85.0000016212464
312,64,238149,2,0,P|288:120|296:164,1,85.0000016212464
432,196,238578,2,0,P|452:236|452:276,1,85.0000016212464
272,200,239007,1,0,0:0:0:0:
120,80,239221,2,0,P|72:124|72:160,4,85.0000016212464
256,80,240293,1,0,0:0:0:0:
128,152,240936,2,0,L|168:164,1,42.5000008106232
208,168,241150,1,0,0:0:0:0:
320,172,241365,5,0,0:0:0:0:
320,288,241579,1,0,0:0:0:0:
436,172,241793,1,0,0:0:0:0:
152,80,242222,1,0,0:0:0:0:
152,80,242436,1,0,0:0:0:0:
256,176,242865,1,0,0:0:0:0:
280,172,243722,6,0,B|480:172|480:172|452:112|452:112|280:112|280:112|280:4|280:4|232:32|232:32|232:112|232:112|32:112|32:112|56:172|56:172|232:172|232:172|232:372|232:372|280:344|280:344|280:176,1,1530.00002918243
280,192,247795,1,0,0:0:0:0:
280,192,248009,1,0,0:0:0:0:
256,192,248224,12,0,250582,0:0:0:0:
256,192,251010,5,0,0:0:0:0:
256,192,251225,1,0,0:0:0:0:
256,192,251439,1,0,0:0:0:0:
