osu file format v12

[General]
AudioFilename: avenged_sevenfold_-_carry_on_(zaycev.net).mp3
AudioLeadIn: 0
PreviewTime: -1
Countdown: 1
SampleSet: Normal
StackLeniency: 0.7
Mode: 0
LetterboxInBreaks: 1
WidescreenStoryboard: 1

[Editor]
DistanceSpacing: 2
BeatDivisor: 4
GridSize: 8
TimelineZoom: 2.899999

[Metadata]
Title:Carry On
TitleUnicode:Carry On
Artist:Avenged Sevenfold
ArtistUnicode:Avenged Sevenfold
Creator:MarisaLover
Version:Love
Source:Call of Duty: Black Ops II
Tags:heavy metal avenged sevenfold streams ar10
BeatmapID:387684
BeatmapSetID:158322

[Difficulty]
HPDrainRate:6
CircleSize:4
OverallDifficulty:8
ApproachRate:10
SliderMultiplier:2
SliderTickRate:1

[Events]
//Background and Video events
0,0,"bakabg.jpg",0,0
//Break Periods
//Storyboard Layer 0 (Background)
//Storyboard Layer 1 (Fail)
//Storyboard Layer 2 (Pass)
//Storyboard Layer 3 (Foreground)
//Storyboard Sound Samples
//Background Colour Transformations
3,100,163,162,255

[TimingPoints]
134,222.220000000001,4,1,0,100,1,0
49855,-200,4,1,0,100,0,0

[HitObjects]
96,88,14356,5,0,0:0:0:0:
136,192,14467,1,0,0:0:0:0:
184,296,14578,1,0,0:0:0:0:
224,192,14689,1,0,0:0:0:0:
264,88,14800,1,0,0:0:0:0:
360,40,14911,2,0,P|416:40|464:80,1,100
376,144,15134,2,0,P|376:200|336:248,1,100
272,160,15356,2,0,P|229:134|180:136,1,100
80,184,15578,5,0,0:0:0:0:
184,224,15689,1,0,0:0:0:0:
272,160,15800,1,0,0:0:0:0:
352,88,15911,2,0,P|400:60|462:70,2,100
272,160,16245,1,0,0:0:0:0:
336,248,16356,1,0,0:0:0:0:
248,312,16467,1,0,0:0:0:0:
184,224,16578,1,0,0:0:0:0:
144,120,16689,6,0,P|119:77|76:54,1,100
64,160,16911,6,0,P|88:202|131:225,1,100
240,208,17134,2,0,P|285:188|334:197,1,100,0|0,0:0|0:0,0:0:0:0:
432,256,17356,1,0,0:0:0:0:
344,320,17467,2,0,B|232:280|232:280|304:240,1,200
192,80,17911,5,0,0:0:0:0:
192,80,18022,1,0,0:0:0:0:
192,80,18134,2,0,P|184:136|152:176,1,100
272,184,18356,2,0,P|313:211|362:216,1,100
392,112,18578,1,0,0:0:0:0:
288,88,18689,1,0,0:0:0:0:
272,184,18800,2,0,P|264:240|232:280,1,100
176,184,19022,2,0,P|184:128|216:88,1,100
272,184,19245,2,0,P|328:192|368:224,2,100
160,192,19578,5,0,0:0:0:0:
72,256,19689,1,0,0:0:0:0:
176,296,19800,1,0,0:0:0:0:
264,224,19911,2,0,P|291:182|296:133,1,100
272,24,20134,1,0,0:0:0:0:
176,72,20245,1,0,0:0:0:0:
232,168,20356,1,0,0:0:0:0:
328,120,20467,1,0,0:0:0:0:
232,168,20578,1,0,0:0:0:0:
136,216,20689,6,0,L|32:272,2,100
233,167,21022,2,0,B|304:128|304:128|192:88,1,200
320,296,21467,5,0,0:0:0:0:
344,272,21522,1,0,0:0:0:0:
368,240,21578,2,0,P|395:198|400:149,1,100
392,112,21745,1,0,0:0:0:0:
368,88,21800,1,0,0:0:0:0:
336,72,21856,1,0,0:0:0:0:
304,64,21911,1,0,0:0:0:0:
192,64,22022,1,0,0:0:0:0:
96,120,22134,5,0,0:0:0:0:
72,152,22189,1,0,0:0:0:0:
64,192,22245,2,0,P|61:241|81:286,1,100
112,312,22411,1,0,0:0:0:0:
152,328,22467,1,0,0:0:0:0:
192,328,22522,1,0,0:0:0:0:
232,312,22578,1,0,0:0:0:0:
264,288,22633,1,0,0:0:0:0:
280,248,22689,2,0,B|296:168|168:160|176:96|368:56,1,300
376,304,23245,5,0,0:0:0:0:
376,304,23300,1,0,0:0:0:0:
376,304,23356,2,0,P|379:255|359:210,1,100
336,176,23522,1,0,0:0:0:0:
304,152,23578,1,0,0:0:0:0:
264,136,23633,1,0,0:0:0:0:
224,136,23689,2,0,P|175:145|137:176,2,100
224,136,23967,1,0,0:0:0:0:
336,176,24022,5,0,0:0:0:0:
392,272,24133,2,0,L|424:328,2,50
280,288,24356,2,0,L|288:352,2,50
168,272,24578,2,0,B|0:240|240:200|48:136,1,200
200,328,25022,5,0,0:0:0:0:
240,320,25078,1,0,0:0:0:0:
272,304,25133,1,0,0:0:0:0:
304,280,25189,1,0,0:0:0:0:
320,248,25245,1,0,0:0:0:0:
336,216,25300,1,0,0:0:0:0:
336,176,25356,2,0,L|392:184,2,50
328,136,25522,2,0,L|384:128,2,50
304,104,25689,1,0,0:0:0:0:
272,80,25745,1,0,0:0:0:0:
232,72,25800,1,0,0:0:0:0:
192,80,25856,6,0,L|168:32,2,50
232,72,26022,2,0,L|240:16,2,50
216,112,26189,1,0,0:0:0:0:
192,144,26245,1,0,0:0:0:0:
136,168,26300,2,0,L|88:120,1,50
184,152,26411,2,0,L|232:104,1,50
200,200,26522,2,0,L|248:248,1,50
152,216,26633,2,0,L|104:264,1,50
104,288,26745,5,0,0:0:0:0:
120,328,26800,1,0,0:0:0:0:
160,344,26856,1,0,0:0:0:0:
200,344,26911,1,0,0:0:0:0:
232,320,26967,1,0,0:0:0:0:
240,280,27022,1,0,0:0:0:0:
224,248,27078,2,0,L|272:224,2,50
200,216,27245,2,0,L|248:168,2,50
152,216,27411,5,0,0:0:0:0:
120,240,27467,1,0,0:0:0:0:
104,288,27522,1,0,0:0:0:0:
120,328,27578,1,0,0:0:0:0:
160,344,27633,1,0,0:0:0:0:
200,344,27689,2,0,B|320:352|8:96|456:312|416:152|344:40|312:80|80:216|56:32,1,600
168,40,28467,5,0,0:0:0:0:
256,104,28578,1,0,0:0:0:0:
152,144,28689,1,0,0:0:0:0:
48,176,28800,2,0,P|45:225|65:270,1,100
136,192,29022,2,0,P|139:143|119:98,1,100
48,176,29245,1,0,0:0:0:0:
64,288,29356,1,0,0:0:0:0:
136,192,29467,2,0,P|161:150|203:124,2,100
216,264,29800,5,0,0:0:0:0:
328,232,29911,1,0,0:0:0:0:
296,120,30022,1,0,0:0:0:0:
184,152,30133,1,0,0:0:0:0:
80,192,30245,2,0,P|55:149|54:100,1,100
152,48,30467,1,0,0:0:0:0:
264,32,30578,2,0,P|288:74|289:123,1,100
256,232,30800,2,0,P|257:281|281:324,2,100
296,120,31133,5,0,0:0:0:0:
208,56,31245,1,0,0:0:0:0:
184,152,31356,1,0,0:0:0:0:
256,232,31467,2,0,P|305:230|348:206,1,100
288,112,31689,2,0,P|238:113|195:137,1,100
112,216,31911,1,0,0:0:0:0:
195,137,32022,2,0,P|238:113|288:112,1,100
440,168,32245,2,0,P|397:192|347:193,1,100
240,160,32467,5,0,0:0:0:0:
304,72,32578,2,0,L|390:122,1,100
192,72,32800,1,0,0:0:0:0:
96,128,32911,1,0,0:0:0:0:
96,256,33022,1,0,0:0:0:0:
192,312,33133,1,0,0:0:0:0:
200,304,33245,1,0,0:0:0:0:
208,296,33356,1,0,0:0:0:0:
216,288,33467,1,0,0:0:0:0:
224,280,33578,1,0,0:0:0:0:
232,272,33689,1,0,0:0:0:0:
240,264,33800,1,0,0:0:0:0:
248,256,33911,2,0,B|112:56|376:264|400:88|288:32|176:40,1,400
200,152,34467,6,0,B|88:120|96:120,1,100
312,232,34689,2,0,B|424:264|416:264,1,100
296,136,34911,2,0,P|289:88|305:41,1,100
216,248,35133,2,0,P|223:296|207:343,2,100
200,152,35467,1,0,0:0:0:0:
296,136,35578,1,0,0:0:0:0:
312,232,35689,2,0,B|344:272|336:320|80:336|80:336|96:240|96:240|248:232|256:200|216:152,1,600
272,40,36578,6,0,P|393:140|427:281,2,300
240,344,37467,2,0,P|118:243|84:102,1,300
256,192,37911,12,0,39022,0:0:0:0:
360,80,39244,5,0,0:0:0:0:
432,160,39356,1,0,0:0:0:0:
336,216,39467,2,0,P|298:248|279:294,1,100
236,110,39689,2,0,P|283:127|332:120,1,100
195,249,39911,2,0,P|186:200|155:161,1,100
72,88,40133,1,0,0:0:0:0:
160,16,40244,1,0,0:0:0:0:
240,96,40356,2,0,P|270:135|279:183,2,100
168,176,40689,5,0,0:0:0:0:
256,112,40800,1,0,0:0:0:0:
360,160,40911,1,0,0:0:0:0:
432,248,41022,2,0,P|455:291|455:341,1,100
352,304,41244,2,0,P|308:327|258:327,1,100
288,224,41467,2,0,P|269:178|231:145,1,100
168,232,41689,1,0,0:0:0:0:
288,224,41800,1,0,0:0:0:0:
392,200,41911,2,0,P|422:160|431:111,2,100
304,264,42244,2,0,B|160:328|160:328|168:240|240:200,1,300
80,40,42800,5,0,0:0:0:0:
184,80,42911,1,0,0:0:0:0:
184,192,43022,1,0,0:0:0:0:
80,152,43133,2,0,L|80:288,1,100
176,304,43356,1,0,0:0:0:0:
272,224,43467,1,0,0:0:0:0:
360,152,43578,6,0,P|406:169|439:206,1,100
440,96,43800,2,0,P|476:62|494:16,1,100
384,32,44022,1,0,0:0:0:0:
280,72,44133,1,0,0:0:0:0:
360,152,44244,1,0,0:0:0:0:
448,224,44356,1,0,0:0:0:0:
360,296,44467,2,0,B|312:336|256:304|256:304|320:176|320:176|240:88|168:200,1,400
112,232,45022,1,0,0:0:0:0:
192,304,45133,1,0,0:0:0:0:
272,232,45244,1,0,0:0:0:0:
336,144,45355,1,0,0:0:0:0:
240,40,45467,6,0,P|119:140|85:281,2,300
272,344,46356,2,0,P|394:243|428:102,2,300
136,80,47244,1,0,0:0:0:0:
412,144,47577,1,0,0:0:0:0:
219,351,47911,5,0,0:0:0:0:
256,192,47966,12,0,49800,0:0:0:0:
360,104,49911,5,0,0:0:0:0:
168,144,50133,2,0,P|186:159|215:162,1,50
117,203,50355,2,0,P|121:179|109:152,1,50
200,200,50577,2,0,P|177:208|160:231,1,50
152,240,50800,1,0,0:0:0:0:
144,256,50911,1,0,0:0:0:0:
136,272,51022,1,0,0:0:0:0:
128,288,51133,2,0,L|104:336,2,50
328,296,51688,5,0,0:0:0:0:
400,104,51911,1,0,0:0:0:0:
384,96,52022,1,0,0:0:0:0:
368,88,52133,2,0,L|320:64,1,50
232,96,52355,2,0,L|276:118,1,50
184,144,52577,2,0,L|139:121,1,50
48,152,52800,2,0,L|92:174,2,50
48,152,53133,1,0,0:0:0:0:
304,312,53466,5,0,0:0:0:0:
376,128,53689,1,0,0:0:0:0:
408,64,53800,1,0,0:0:0:0:
344,32,53911,1,0,0:0:0:0:
312,96,54022,1,0,0:0:0:0:
272,160,54133,2,0,P|290:175|319:178,1,50
221,219,54355,2,0,P|225:195|213:168,1,50
304,216,54577,2,0,P|281:224|264:247,1,50
256,256,54800,1,0,0:0:0:0:
248,272,54911,1,0,0:0:0:0:
120,88,55244,5,0,0:0:0:0:
128,128,55355,1,0,0:0:0:0:
160,168,55466,1,0,0:0:0:0:
216,176,55577,1,0,0:0:0:0:
280,136,55689,1,0,0:0:0:0:
360,112,55800,1,0,0:0:0:0:
440,144,55911,1,0,0:0:0:0:
472,240,56022,1,0,0:0:0:0:
408,320,56133,1,0,0:0:0:0:
