osu file format v13

[General]
AudioFilename: Blinded in Chains.mp3
AudioLeadIn: 0
PreviewTime: 120030
Countdown: 1
SampleSet: Soft
StackLeniency: 0.7
Mode: 0
LetterboxInBreaks: 1
WidescreenStoryboard: 1

[Editor]
Bookmarks: 10038,60030,122373
DistanceSpacing: 1.2
BeatDivisor: 4
GridSize: 8
TimelineZoom: 1

[Metadata]
Title:Blinded in Chains
TitleUnicode:Blinded in Chains
Artist:Avenged Sevenfold
ArtistUnicode:Avenged Sevenfold
Creator:Kyshiro
Version:Kshro
Source:
Tags:a7x metal hardrock foREVer until the end city of evil jimmy the rev sullivan
BeatmapID:441472
BeatmapSetID:184412

[Difficulty]
HPDrainRate:6.5
CircleSize:4.2
OverallDifficulty:8
ApproachRate:9.2
SliderMultiplier:1.8
SliderTickRate:1

[Events]
//Background and Video events
0,0,"180050.jpg",0,0
//Break Periods
2,293980,301010
//Storyboard Layer 0 (Background)
//Storyboard Layer 1 (Fail)
//Storyboard Layer 2 (Pass)
//Storyboard Layer 3 (Foreground)
//Storyboard Sound Samples
//Background Colour Transformations
3,100,163,162,255

[TimingPoints]
30,312.5,4,2,1,75,1,0
24326,-100,4,2,1,5,0,0
24405,-100,4,2,1,75,0,0
24639,-100,4,2,1,5,0,0
24717,-100,4,2,1,75,0,0
24951,-100,4,2,1,5,0,0
25030,-100,4,2,1,75,0,0
34873,-100,4,2,1,5,0,0
35030,-100,4,2,1,75,0,0
50030,-133.333333333333,4,2,1,65,0,0
60030,-111.111111111111,4,2,1,75,0,0
70030,-100,4,2,1,65,0,1
70967,-100,4,2,1,65,0,0
71123,-100,4,2,1,65,0,1
72217,-100,4,2,1,65,0,0
72373,-86.9565217391304,4,2,1,75,0,1
80030,-100,4,2,1,75,0,0
87530,-100,4,2,1,50,0,0
87998,-86.9565217391304,4,2,1,50,0,0
88467,-76.9230769230769,4,2,1,50,0,0
88936,-76.9230769230769,4,2,1,65,0,0
90030,-100,4,2,1,75,0,0
120030,-100,4,2,1,65,0,1
120967,-100,4,2,1,65,0,0
121123,-100,4,2,1,65,0,1
122217,-100,4,2,1,65,0,0
122373,-86.9565217391304,4,2,1,75,0,1
132373,-86.9565217391304,4,2,1,50,0,0
132530,-86.9565217391304,4,2,1,50,0,1
137373,-86.9565217391304,4,2,1,50,0,0
137530,-86.9565217391304,4,2,1,50,0,1
139873,-86.9565217391304,4,2,1,50,0,0
140030,-86.9565217391304,4,2,1,50,0,1
150030,-100,4,2,1,50,0,0
195030,-133.333333333333,4,2,1,50,0,0
205030,-100,4,2,1,50,0,0
219326,-100,4,2,1,5,0,0
219405,-100,4,2,1,50,0,0
219639,-100,4,2,1,5,0,0
219717,-100,4,2,1,50,0,0
219951,-100,4,2,1,5,0,0
220030,-100,4,2,1,50,0,0
262530,-100,4,2,1,50,0,1
263467,-100,4,2,1,50,0,0
263623,-100,4,2,1,50,0,1
264717,-100,4,2,1,50,0,0
264873,-86.9565217391304,4,2,1,50,0,1
274873,-86.9565217391304,4,2,1,50,0,0
275030,-86.9565217391304,4,2,1,50,0,1
279873,-86.9565217391304,4,2,1,50,0,0
280030,-86.9565217391304,4,2,1,50,0,1
282373,-86.9565217391304,4,2,1,50,0,0
282530,-86.9565217391304,4,2,1,50,0,1
288780,400,4,2,1,50,1,0
293780,-100,4,2,1,5,0,0
301580,-100,4,2,1,50,0,0
323980,-133.333333333333,4,2,1,50,0,0
343180,-133.333333333333,4,2,1,50,0,0
343580,-117.647058823529,4,2,1,50,0,0
343980,-105.263157894737,4,2,1,50,0,0
344380,-95.2380952380952,4,2,1,50,0,0
344780,-86.9565217391304,4,2,1,50,0,0
345180,-80,4,2,1,50,0,0
345580,-74.0740740740741,4,2,1,50,0,0
345980,-68.9655172413793,4,2,1,50,0,0

[Colours]
Combo1 : 31,137,146
Combo2 : 129,145,15
Combo3 : 155,46,40

[HitObjects]
55,311,10030,6,0,P|130:330|220:276,1,180,4|8,0:0|0:0,0:0:0:0:
385,324,10498,1,0,0:0:0:0:
318,238,10655,2,0,P|309:177|318:137,1,90,8|0,0:0|0:0,0:0:0:0:
489,28,10967,1,8,0:0:0:0:
392,76,11123,1,0,3:0:0:0:
392,76,11201,1,0,3:0:0:0:
392,76,11280,6,0,L|286:64,1,90,8|0,0:0|0:0,0:0:0:0:
136,198,11592,2,0,L|242:186,1,90,8|0,0:0|0:0,0:0:0:0:
171,78,11905,1,8,0:0:0:0:
47,244,12061,1,0,0:0:0:0:
254,268,12217,1,8,0:0:0:0:
342,162,12373,1,0,3:0:0:0:
342,162,12451,1,0,3:0:0:0:
342,162,12530,6,0,P|399:149|441:156,1,90,8|0,0:0|0:0,0:0:0:0:
399,267,12842,1,8,0:0:0:0:
212,341,12998,1,0,3:0:0:0:
212,341,13076,1,0,3:0:0:0:
212,341,13155,2,0,P|167:343|124:331,1,90,8|0,0:0|0:0,0:0:0:0:
26,65,13467,1,8,0:0:0:0:
111,131,13623,1,0,3:0:0:0:
111,131,13701,1,0,3:0:0:0:
111,131,13780,6,0,L|96:231,1,90,8|0,0:0|0:0,0:0:0:0:
372,121,14092,2,0,L|358:31,1,90,8|0,0:0|0:0,0:0:0:0:
248,212,14405,2,0,L|233:312,1,90,8|0,0:0|0:0,0:0:0:0:
509,202,14717,2,0,L|495:112,1,90,8|0,0:0|0:0,0:0:0:0:
287,148,15030,6,0,P|279:226|329:270,1,135,8|0,0:0|0:0,0:0:0:0:
384,288,15342,2,0,P|431:276|482:280,1,90,8|0,0:0|0:0,0:0:0:0:
255,312,15655,2,0,P|210:313|166:301,1,90,8|0,0:0|0:0,0:0:0:0:
2,340,15967,1,8,0:0:0:0:
68,255,16123,1,0,3:0:0:0:
68,255,16201,1,0,3:0:0:0:
68,255,16280,6,0,P|83:204|61:124,1,135,8|0,0:0|0:0,0:0:0:0:
139,35,16592,2,0,P|132:86|145:125,1,90,8|0,0:0|0:0,0:0:0:0:
182,148,16826,1,0,0:0:0:0:
182,148,16905,2,0,L|276:137,1,90,8|0,0:0|0:0,0:0:0:0:
479,36,17217,1,8,0:0:0:0:
402,137,17373,1,0,3:0:0:0:
402,137,17451,1,0,3:0:0:0:
402,137,17530,6,0,B|398:174|412:201|412:201|390:248|390:248|405:275|401:309,1,180,8|8,0:0|0:0,0:0:0:0:
495,157,17998,1,0,0:0:0:0:
310,294,18155,2,0,L|193:278,1,90,8|0,0:0|0:0,0:0:0:0:
71,96,18467,1,8,0:0:0:0:
163,40,18623,1,0,3:0:0:0:
163,40,18701,1,0,3:0:0:0:
163,40,18780,6,0,L|280:56,1,90,8|0,0:0|0:0,0:0:0:0:
100,192,19092,1,8,0:0:0:0:
197,147,19248,1,0,3:0:0:0:
222,122,19326,1,0,3:0:0:0:
252,102,19405,1,8,0:0:0:0:
286,92,19483,1,8,0:0:0:0:
321,92,19561,1,8,0:0:0:0:
355,101,19639,1,8,0:0:0:0:
380,125,19717,1,8,3:0:0:0:
389,144,19795,1,0,3:0:0:0:
399,164,19873,1,0,3:0:0:0:
408,183,19951,1,0,3:0:0:0:
418,204,20030,6,0,P|453:244|496:259,1,90,6|0,0:0|0:0,0:0:0:0:
290,260,20342,2,0,P|223:238|129:304,1,180,2|0,0:0|0:0,0:0:0:0:
34,251,20811,1,8,0:0:0:0:
227,342,20967,6,0,P|268:361|321:357,1,90,2|8,0:0|0:0,0:0:0:0:
121,128,21280,2,0,P|76:126|35:145,1,90,2|8,0:0|0:0,0:0:0:0:
250,187,21592,2,0,L|435:129,1,180,2|0,0:0|0:0,0:0:0:0:
305,66,22061,1,8,0:0:0:0:
324,275,22217,6,0,L|416:246,1,90,2|8,0:0|0:0,0:0:0:0:
346,53,22530,2,0,L|253:82,1,90,2|8,0:0|0:0,0:0:0:0:
45,221,22842,2,0,P|92:266|204:247,1,180,2|0,0:0|0:0,0:0:0:0:
134,176,23311,1,8,0:0:0:0:
228,337,23467,6,0,P|288:331|325:336,1,90,2|8,0:0|0:0,0:0:0:0:
461,182,23780,2,0,P|401:188|364:183,1,90,2|8,0:0|0:0,0:0:0:0:
241,91,24092,2,0,P|174:64|104:90,1,135,2|0,0:0|0:0,0:0:0:0:
47,150,24405,2,0,P|114:177|184:151,1,135,2|0,0:0|0:0,0:0:0:0:
277,267,24717,2,0,P|210:240|140:266,1,135,2|0,0:0|0:0,0:0:0:0:
98,317,25030,6,0,L|40:238,1,90,6|8,0:0|0:0,0:0:0:0:
152,192,25342,2,0,L|120:96,1,90,2|8,0:0|0:0,0:0:0:0:
256,120,25655,2,0,L|256:24,1,90,2|8,0:0|0:0,0:0:0:0:
256,264,25967,2,0,L|256:354,1,90,2|8,0:0|0:0,0:0:0:0:
360,192,26280,2,0,L|388:277,1,90,6|8,0:0|0:0,0:0:0:0:
414,67,26592,2,0,L|467:139,1,90,2|8,0:0|0:0,0:0:0:0:
276,18,26905,2,0,P|206:8|98:45,1,180,2|2,0:0|0:0,0:0:0:0:
59,139,27373,1,8,0:0:0:0:
186,247,27530,5,6,0:0:0:0:
284,203,27686,1,8,0:0:0:0:
372,263,27842,2,0,L|390:310,2,45,2|0|8,0:0|0:0|0:0,0:0:0:0:
474,123,28155,1,2,0:0:0:0:
376,167,28311,1,8,0:0:0:0:
288,107,28467,2,0,L|270:60,2,45,2|0|8,0:0|0:0|0:0,0:0:0:0:
151,27,28780,5,0,3:0:0:0:
117,13,28858,1,0,3:0:0:0:
81,16,28936,1,8,0:0:0:0:
49,32,29014,1,8,0:0:0:0:
26,59,29092,1,0,3:0:0:0:
17,93,29170,1,0,3:0:0:0:
21,128,29248,1,0,3:0:0:0:
41,157,29326,1,0,3:0:0:0:
71,176,29405,2,0,P|91:202|99:226,3,45,8|0|0|0,0:0|0:0|0:0|0:0,0:0:0:0:
171,289,29717,2,0,P|180:268|195:251,3,45,8|0|0|0,0:0|0:0|0:0|0:0,0:0:0:0:
329,209,30030,1,4,0:0:0:0:
256,192,30108,12,0,34873,0:0:0:0:
369,192,35030,5,8,0:0:0:0:
415,289,35186,1,8,0:0:0:0:
262,206,35342,5,2,0:0:0:0:
262,206,35420,1,0,3:0:0:0:
262,206,35498,1,0,3:0:0:0:
308,109,35655,1,8,0:0:0:0:
248,18,35811,1,8,0:0:0:0:
203,116,35967,5,2,0:0:0:0:
203,116,36045,1,0,3:0:0:0:
203,116,36123,1,0,3:0:0:0:
345,20,36280,1,8,0:0:0:0:
369,192,36436,1,8,0:0:0:0:
228,290,36592,5,2,0:0:0:0:
228,290,36670,1,0,3:0:0:0:
228,290,36748,1,0,3:0:0:0:
262,206,36905,1,8,0:0:0:0:
158,231,37061,1,8,0:0:0:0:
150,339,37218,1,8,0:0:0:0:
250,379,37374,1,8,0:0:0:0:
320,297,37530,5,8,0:0:0:0:
402,351,37686,1,8,0:0:0:0:
491,223,37842,1,2,0:0:0:0:
491,223,37920,1,0,3:0:0:0:
491,223,37998,1,0,3:0:0:0:
393,243,38155,1,8,0:0:0:0:
299,210,38311,1,8,0:0:0:0:
145,144,38467,5,2,0:0:0:0:
145,144,38545,1,0,3:0:0:0:
145,144,38623,1,0,3:0:0:0:
239,111,38780,1,8,0:0:0:0:
274,105,38858,1,8,0:0:0:0:
309,108,38936,1,8,0:0:0:0:
342,120,39014,1,0,0:0:0:0:
368,144,39092,2,0,L|426:137,2,45,0|8|0,0:0|0:0|0:0,0:0:0:0:
297,210,39326,2,0,L|239:203,2,45
371,279,39561,1,0,0:0:0:0:
371,279,39639,1,4,0:0:0:0:
46,326,40030,6,0,P|34:272|45:233,1,90,6|8,0:0|0:0,0:0:0:0:
131,152,40342,1,0,0:0:0:0:
131,280,40498,2,0,P|198:248|318:269,1,180,10|10,0:0|0:0,0:0:0:0:
505,154,40967,1,2,0:0:0:0:
465,175,41045,1,2,0:0:0:0:
420,177,41123,1,8,0:0:0:0:
377,162,41201,1,0,0:0:0:0:
345,129,41280,6,0,P|326:81|331:36,1,90,2|8,0:0|0:0,0:0:0:0:
436,66,41592,1,0,0:0:0:0:
273,176,41748,2,0,P|218:140|103:171,1,180,10|8,0:0|0:0,0:0:0:0:
12,118,42217,2,0,P|1:64|6:27,1,90,0|8,0:0|0:0,0:0:0:0:
185,243,42530,6,0,P|188:287|178:331,1,90,2|8,0:0|0:0,0:0:0:0:
79,280,42842,1,0,0:0:0:0:
275,365,42998,2,0,L|373:345,1,90,10|0,0:0|0:0,0:0:0:0:
483,189,43311,1,2,0:0:0:0:
450,157,43389,1,2,0:0:0:0:
407,143,43467,1,0,0:0:0:0:
362,144,43545,1,0,0:0:0:0:
320,160,43623,1,0,0:0:0:0:
285,188,43701,1,0,0:0:0:0:
264,228,43780,6,0,B|255:273|255:273|225:315,1,90,8|10,0:0|0:0,0:0:0:0:
24,191,44092,1,0,0:0:0:0:
114,131,44248,2,0,P|165:121|210:134,1,90,10|0,0:0|0:0,0:0:0:0:
385,254,44561,1,2,0:0:0:0:
369,296,44639,1,2,0:0:0:0:
354,338,44717,1,8,0:0:0:0:
311,322,44795,1,8,0:0:0:0:
268,308,44873,1,8,0:0:0:0:
223,313,44951,1,8,0:0:0:0:
180,328,45030,6,0,P|101:339|24:279,1,180,10|2,0:0|0:0,0:0:0:0:
23,78,45498,1,8,0:0:0:0:
114,131,45655,1,2,0:0:0:0:
129,173,45733,1,2,0:0:0:0:
132,217,45811,1,8,0:0:0:0:
122,261,45889,1,8,0:0:0:0:
163,244,45967,1,2,0:0:0:0:
206,232,46045,1,2,0:0:0:0:
250,232,46123,1,8,0:0:0:0:
294,241,46201,1,8,0:0:0:0:
334,262,46280,6,0,P|381:272|433:258,1,90,2|8,0:0|0:0,0:0:0:0:
505,80,46592,2,0,P|461:71|417:81,1,90,2|8,0:0|0:0,0:0:0:0:
248,22,46905,1,2,0:0:0:0:
216,53,46983,1,2,0:0:0:0:
197,93,47061,1,8,0:0:0:0:
189,137,47139,1,8,0:0:0:0:
146,151,47217,1,2,0:0:0:0:
148,195,47295,1,2,0:0:0:0:
164,236,47373,1,8,0:0:0:0:
193,269,47451,1,8,0:0:0:0:
233,288,47530,2,0,B|280:275|280:275|316:298|316:298|356:284|405:299,1,180,2|2,0:0|0:0,0:0:0:0:
264,367,47998,5,8,0:0:0:0:
106,315,48155,1,2,0:0:0:0:
98,270,48233,1,2,0:0:0:0:
76,230,48311,1,8,0:0:0:0:
43,198,48389,1,8,0:0:0:0:
24,157,48467,1,2,0:0:0:0:
31,112,48545,1,2,0:0:0:0:
60,78,48623,1,8,0:0:0:0:
104,72,48701,1,8,0:0:0:0:
145,91,48780,2,0,L|198:80,3,45,2|8|8|8,0:0|0:0|0:0|0:0,0:0:0:0:
254,136,49092,2,0,L|307:125,3,45,0|0|0|0,3:0|3:0|3:0|3:0,0:0:0:0:
359,186,49405,1,2,0:0:0:0:
381,182,49483,1,2,0:0:0:0:
403,178,49561,1,8,0:0:0:0:
425,174,49639,1,8,0:0:0:0:
448,172,49717,2,0,P|471:153|501:142,2,60,2|2|0,0:0|0:0|0:0,0:0:0:0:
420,253,50030,6,0,L|267:223,1,135.000005149842,4|10,0:0|0:0,0:0:0:0:
224,147,50498,1,0,0:0:0:0:
179,238,50655,2,0,L|164:314,1,67.5000025749208,2|0,0:0|0:0,0:0:0:0:
224,147,50967,1,8,0:0:0:0:
147,81,51123,6,0,P|76:51|4:74,1,135.000005149842,2|0,0:0|0:0,0:0:0:0:
71,155,51592,1,8,0:0:0:0:
179,238,51748,1,0,0:0:0:0:
308,197,51905,2,0,P|323:158|317:126,1,67.5000025749208,2|0,0:0|0:0,0:0:0:0:
448,18,52217,2,0,P|445:51|459:81,1,67.5000025749208,10|0,0:0|0:0,0:0:0:0:
496,263,52530,5,2,0:0:0:0:
496,263,52686,1,0,0:0:0:0:
412,319,52842,2,0,L|341:308,1,67.5000025749208,8|0,0:0|0:0,0:0:0:0:
110,347,53155,1,2,0:0:0:0:
110,347,53311,1,0,0:0:0:0:
38,276,53467,2,0,P|33:234|43:203,1,67.5000025749208,8|0,0:0|0:0,0:0:0:0:
209,68,53780,6,0,P|216:100|210:133,1,67.5000025749208,2|0,0:0|0:0,0:0:0:0:
118,103,54092,1,8,0:0:0:0:
298,33,54248,1,0,0:0:0:0:
298,33,54405,2,0,L|364:7,1,67.5000025749208,2|0,0:0|0:0,0:0:0:0:
369,188,54718,2,0,L|299:166,1,67.5000025749208,10|0,0:0|0:0,0:0:0:0:
127,302,55030,5,2,0:0:0:0:
202,369,55186,1,0,0:0:0:0:
300,347,55342,2,0,P|310:306|301:270,1,67.5000025749208,8|0,0:0|0:0,0:0:0:0:
474,179,55655,2,0,P|464:220|473:256,1,67.5000025749208,2|0,0:0|0:0,0:0:0:0:
438,341,55967,1,8,0:0:0:0:
374,232,56123,2,0,L|240:214,1,135.000005149842,2|2,0:0|0:0,0:0:0:0:
78,194,56592,5,8,0:0:0:0:
20,111,56748,1,0,0:0:0:0:
96,44,56905,2,0,L|168:34,1,67.5000025749208,2|0,0:0|0:0,0:0:0:0:
294,171,57217,2,0,L|221:161,1,67.5000025749208,10|0,0:0|0:0,0:0:0:0:
344,48,57530,6,0,B|412:28|412:68|480:48,1,135.000005149842,2|8,0:0|0:0,0:0:0:0:
379,128,57998,1,0,0:0:0:0:
257,70,58155,2,0,P|255:29|267:0,1,67.5000025749208,2|0,0:0|0:0,0:0:0:0:
379,128,58467,1,8,0:0:0:0:
277,177,58623,6,0,L|143:159,1,135.000005149842,2|2,0:0|0:0,0:0:0:0:
32,263,59092,6,0,P|24:302|32:332,1,67.5000025749208,8|0,0:0|0:0,0:0:0:0:
215,132,59405,2,0,P|223:101|216:69,2,45.0000017166138,10|0|0,0:0|0:0|0:0,0:0:0:0:
278,176,59717,2,0,P|278:198|285:219,2,45.0000017166138,10|0|0,0:0|0:0|0:0,0:0:0:0:
316,104,60030,6,0,P|381:72|466:101,1,161.999995056153,4|8,0:0|0:0,0:0:0:0:
493,317,60498,1,0,0:0:0:0:
408,253,60655,2,0,B|392:216|392:216|392:174,1,80.9999975280763,0|0,0:0|3:0,0:0:0:0:
411,147,60889,1,0,3:0:0:0:
411,147,60967,1,8,0:0:0:0:
499,223,61123,1,0,0:0:0:0:
388,354,61280,6,0,L|302:344,1,80.9999975280763
140,224,61592,2,0,L|226:214,1,80.9999975280763,8|0,0:0|0:0,0:0:0:0:
201,319,61905,1,0,0:0:0:0:
335,240,62061,1,0,3:0:0:0:
335,240,62139,1,0,3:0:0:0:
335,240,62217,2,0,P|343:191|331:152,1,80.9999975280763,8|0,0:0|0:0,0:0:0:0:
234,52,62530,5,0,0:0:0:0:
133,82,62686,1,0,0:0:0:0:
32,112,62842,1,8,0:0:0:0:
108,184,62998,1,0,0:0:0:0:
209,154,63154,1,0,0:0:0:0:
310,124,63310,1,0,0:0:0:0:
388,195,63467,1,8,0:0:0:0:
287,225,63623,1,0,0:0:0:0:
186,255,63780,6,0,P|174:301|187:338,1,80.9999975280763
421,295,64092,1,8,0:0:0:0:
495,221,64248,2,0,P|507:175|494:138,1,80.9999975280763
290,37,64561,1,0,0:0:0:0:
216,111,64717,2,0,P|204:157|217:194,1,80.9999975280763,8|0,0:0|0:0,0:0:0:0:
385,209,65030,6,0,L|473:218,1,80.9999975280763
127,175,65342,2,0,L|39:166,1,80.9999975280763,8|0,0:0|0:0,0:0:0:0:
365,122,65655,2,0,L|438:72,1,80.9999975280763
146,261,65967,2,0,L|73:311,1,80.9999975280763,8|0,0:0|0:0,0:0:0:0:
444,287,66280,6,0,L|371:252,1,80.9999975280763
67,96,66592,2,0,L|140:131,1,80.9999975280763,8|0,0:0|0:0,0:0:0:0:
305,312,66905,2,0,L|338:386,1,80.9999975280763
206,71,67217,2,0,L|173:-2,1,80.9999975280763,8|0,0:0|0:0,0:0:0:0:
256,192,67530,1,0,0:0:0:0:
256,192,67608,12,0,69717,0:0:0:0:
33,111,70030,6,0,P|91:96|131:103,1,90,2|0,0:0|0:0,0:0:0:0:
391,224,70342,2,0,P|333:239|293:232,1,90,2|0,0:0|0:0,0:0:0:0:
75,248,70655,1,2,0:0:0:0:
169,196,70811,1,2,0:0:0:0:
263,144,70967,1,2,0:0:0:0:
358,93,71123,6,0,B|399:118|448:101|448:101|451:147|492:173,1,180,4|0,0:0|0:0,0:0:0:0:
410,16,71592,1,2,0:0:0:0:
220,74,71748,1,0,0:0:0:0:
368,209,71905,2,0,P|377:253|355:308,1,90,2|2,0:0|0:0,0:0:0:0:
249,323,72217,1,2,0:0:0:0:
286,180,72373,6,0,P|229:222|98:185,1,207.000003948212,4|0,0:0|0:0,0:0:0:0:
162,19,72842,2,0,B|191:62|191:62|191:116,1,103.500001974106,8|0,0:0|0:0,0:0:0:0:
37,273,73155,2,0,B|8:230|8:230|8:176,1,103.500001974106
157,304,73467,1,8,0:0:0:0:
210,192,73623,6,0,P|282:162|404:226,1,207.000003948212
294,288,74092,1,8,0:0:0:0:
224,99,74248,1,0,0:0:0:0:
224,99,74326,1,0,0:0:0:0:
224,99,74405,2,0,L|190:-2,1,103.500001974106
445,22,74717,2,0,L|395:113,1,103.500001974106,8|0,0:0|0:0,0:0:0:0:
212,285,75030,5,2,0:0:0:0:
112,127,75186,1,2,0:0:0:0:
283,196,75342,1,10,0:0:0:0:
104,240,75498,1,0,0:0:0:0:
224,99,75655,2,0,P|281:83|332:93,1,103.500001974106,10|0,0:0|0:0,0:0:0:0:
212,285,75967,1,8,0:0:0:0:
112,127,76123,6,0,P|93:68|103:22,1,103.500001974106,2|0,0:0|0:0,0:0:0:0:
283,196,76436,1,0,0:0:0:0:
104,240,76592,2,0,P|41:236|0:213,1,103.500001974106,10|0,0:0|0:0,0:0:0:0:
212,285,76905,2,0,P|186:344|145:368,1,103.500001974106,10|2,0:0|0:0,0:0:0:0:
187,190,77217,1,8,0:0:0:0:
322,294,77373,6,0,P|387:315|471:213,1,207.000003948212,4|0,0:0|0:0,0:0:0:0:
412,16,77842,1,8,0:0:0:0:
355,126,77998,1,0,0:0:0:0:
355,126,78076,1,0,0:0:0:0:
355,126,78155,2,0,L|383:232,1,103.500001974106
475,122,78467,1,8,0:0:0:0:
283,25,78623,1,0,0:0:0:0:
158,135,78780,6,0,P|144:191|160:248,1,103.500001974106
265,190,79092,1,8,0:0:0:0:
248,315,79248,1,0,0:0:0:0:
233,329,79326,1,0,0:0:0:0:
218,344,79405,1,8,0:0:0:0:
182,322,79483,1,8,0:0:0:0:
142,310,79561,1,8,0:0:0:0:
100,310,79639,1,8,0:0:0:0:
61,321,79717,1,8,0:0:0:0:
47,280,79795,1,8,0:0:0:0:
35,241,79873,1,8,0:0:0:0:
23,201,79951,1,8,0:0:0:0:
11,166,80030,6,0,P|16:114|35:77,1,90,6|0,0:0|0:0,0:0:0:0:
156,156,80342,2,0,P|199:127|239:117,1,90,10|0,0:0|0:0,0:0:0:0:
255,260,80655,2,0,P|304:274|337:299,1,90,2|0,0:0|0:0,0:0:0:0:
499,76,80967,1,10,0:0:0:0:
402,141,81123,1,0,0:0:0:0:
402,141,81201,1,0,0:0:0:0:
402,141,81280,6,0,L|311:170,1,90,2|0,0:0|0:0,0:0:0:0:
110,243,81592,2,0,L|201:214,1,90,10|0,0:0|0:0,0:0:0:0:
279,252,81905,2,0,L|307:338,1,90,2|0,0:0|0:0,0:0:0:0:
232,131,82217,2,0,L|205:46,1,90,10|0,0:0|0:0,0:0:0:0:
402,141,82530,6,0,P|424:202|377:313,1,180,4|8,0:0|0:0,0:0:0:0:
120,280,82998,2,0,P|98:219|145:108,1,180,2|0,0:0|0:0,0:0:0:0:
264,216,83467,2,0,B|279:307|202:285|216:381,1,180,12|2,0:0|0:0,0:0:0:0:
304,360,83936,5,0,0:0:0:0:
179,235,84092,2,0,L|79:245,1,90,10|0,0:0|0:0,0:0:0:0:
304,360,84405,2,0,L|404:350,1,90,2|0,0:0|0:0,0:0:0:0:
492,130,84717,1,10,0:0:0:0:
380,163,84873,1,0,3:0:0:0:
380,163,84951,1,0,3:0:0:0:
380,163,85030,6,0,P|362:212|369:256,1,90,6|0,0:0|0:0,0:0:0:0:
241,127,85342,2,0,P|244:82|227:41,1,90,8|0,0:0|0:0,0:0:0:0:
60,120,85655,2,0,L|149:100,1,90,2|0,0:0|0:0,0:0:0:0:
288,228,85967,2,0,L|199:248,1,90,10|0,0:0|0:0,0:0:0:0:
54,327,86280,5,2,0:0:0:0:
166,359,86436,1,0,0:0:0:0:
200,247,86592,1,10,0:0:0:0:
88,215,86748,1,0,0:0:0:0:
166,359,86905,2,0,P|221:364|268:353,1,90,2|0,0:0|0:0,0:0:0:0:
426,154,87217,2,0,P|371:149|324:160,1,90,10|0,0:0|3:0,0:0:0:0:
305,134,87451,5,0,3:0:0:0:
305,134,87530,2,0,P|291:90|316:40,1,90,14|0,0:0|0:0,0:0:0:0:
305,134,87998,6,0,P|291:90|319:38,1,103.500001974106,14|0,0:0|0:0,0:0:0:0:
305,134,88467,6,0,P|373:23|359:163,1,350.999983932496,14|0,0:0|3:0,0:0:0:0:
358,190,89014,1,0,3:0:0:0:
358,190,89092,2,0,P|353:213|355:253,1,58.4999973220826,8|8,0:0|0:0,0:0:0:0:
274,324,89248,2,0,P|275:294|269:266,1,58.4999973220826
211,200,89405,1,8,0:0:0:0:
176,177,89483,1,8,0:0:0:0:
135,173,89561,1,0,0:0:0:0:
95,184,89639,1,0,0:0:0:0:
66,213,89717,2,0,L|55:273,1,58.4999973220826,8|8,0:0|0:0,0:0:0:0:
16,144,89873,2,0,L|27:84,1,58.4999973220826
93,43,90030,5,4,0:0:0:0:
93,43,90186,1,0,0:0:0:0:
193,101,90342,2,0,P|239:105|281:89,1,90,8|0,0:0|0:0,0:0:0:0:
481,30,90655,1,0,0:0:0:0:
481,30,90811,1,0,0:0:0:0:
407,120,90967,2,0,L|399:218,1,90,8|0,0:0|0:0,0:0:0:0:
487,358,91280,5,0,0:0:0:0:
487,358,91436,1,0,0:0:0:0:
377,316,91592,2,0,P|324:307|283:317,1,90,8|0,0:0|0:0,0:0:0:0:
185,258,91905,1,0,0:0:0:0:
219,146,92061,1,0,0:0:0:0:
100,329,92217,1,8,0:0:0:0:
66,217,92373,1,0,0:0:0:0:
108,107,92530,5,0,0:0:0:0:
185,258,92686,2,0,P|246:279|361:239,1,180
411,46,93155,1,0,0:0:0:0:
485,135,93311,2,0,P|494:183|481:230,1,90,0|8,0:0|0:0,0:0:0:0:
290,359,93623,1,0,0:0:0:0:
216,270,93779,6,0,P|207:221|220:175,1,90
411,46,94092,1,8,0:0:0:0:
330,130,94248,1,0,0:0:0:0:
224,78,94405,2,0,L|127:87,1,90
293,286,94717,2,0,L|390:277,1,90,8|0,0:0|0:0,0:0:0:0:
201,195,95030,5,0,0:0:0:0:
201,195,95186,1,0,0:0:0:0:
105,261,95342,2,0,P|87:315|101:357,1,90,8|0,0:0|0:0,0:0:0:0:
307,182,95655,1,0,0:0:0:0:
242,84,95811,2,0,L|147:70,1,90,0|8,0:0|0:0,0:0:0:0:
270,292,96123,6,0,L|365:278,1,90
494,118,96436,1,0,0:0:0:0:
393,58,96592,1,8,0:0:0:0:
299,128,96748,2,0,P|277:195|340:289,1,180
118,289,97217,1,8,0:0:0:0:
196,355,97373,6,0,P|218:288|155:194,1,180
16,87,97842,1,8,0:0:0:0:
123,40,97998,1,0,0:0:0:0:
219,107,98155,2,0,P|271:119|318:109,1,90
485,48,98467,2,0,P|433:36|386:46,1,90,8|0,0:0|0:0,0:0:0:0:
430,169,98780,5,2,0:0:0:0:
326,223,98936,1,0,3:0:0:0:
326,223,99014,1,0,3:0:0:0:
326,223,99092,2,0,L|226:203,1,90,2|0,0:0|0:0,0:0:0:0:
4,179,99405,6,0,P|31:186|66:184,1,60,2|2,0:0|0:0,0:0:0:0:
118,139,99613,1,8,0:0:0:0:
179,101,99717,2,0,P|208:99|237:106,1,60,2|2,0:0|0:0,0:0:0:0:
248,177,99925,1,8,0:0:0:0:
315,150,100030,6,0,L|413:141,1,90,4|0,0:0|0:0,0:0:0:0:
486,58,100342,1,8,0:0:0:0:
486,58,100498,1,0,0:0:0:0:
333,29,100655,2,0,L|235:38,1,90
162,121,100967,1,8,0:0:0:0:
162,121,101123,1,0,0:0:0:0:
46,97,101280,6,0,P|20:52|20:13,1,90
163,121,101592,2,0,P|172:69|197:39,1,90,8|0,0:0|0:0,0:0:0:0:
258,207,101905,2,0,P|297:173|336:166,1,90
489,310,102217,1,8,0:0:0:0:
383,360,102373,1,0,0:0:0:0:
330,255,102530,5,0,0:0:0:0:
436,205,102686,1,0,0:0:0:0:
383,360,102842,2,0,L|287:349,1,90,8|0,0:0|0:0,0:0:0:0:
96,249,103155,1,0,0:0:0:0:
96,249,103311,1,0,0:0:0:0:
186,175,103467,2,0,L|282:164,1,90,8|0,0:0|0:0,0:0:0:0:
481,72,103780,5,0,0:0:0:0:
481,72,103936,1,0,0:0:0:0:
375,21,104092,2,0,P|313:17|276:30,1,90,8|0,0:0|0:0,0:0:0:0:
326,210,104405,2,0,L|427:228,1,90
186,175,104717,2,0,L|85:157,1,90,8|0,0:0|0:0,0:0:0:0:
222,350,105030,6,0,L|238:262,1,90
288,33,105342,2,0,L|273:122,1,90,8|0,0:0|0:0,0:0:0:0:
345,320,105655,1,0,0:0:0:0:
345,320,105811,1,0,0:0:0:0:
445,260,105967,2,0,P|461:196|452:159,1,90,8|0,0:0|0:0,0:0:0:0:
345,320,106280,5,0,0:0:0:0:
345,320,106436,1,0,0:0:0:0:
302,210,106592,2,0,P|241:183|203:185,1,90,8|0,0:0|0:0,0:0:0:0:
72,233,106905,2,0,B|61:278|61:278|71:322,1,90
219,183,107217,2,0,B|230:138|230:138|220:94,1,90,8|0,0:0|0:0,0:0:0:0:
115,41,107530,5,0,0:0:0:0:
115,41,107686,1,0,0:0:0:0:
303,108,107842,2,0,L|400:93,1,90,8|0,0:0|0:0,0:0:0:0:
451,259,108155,1,0,0:0:0:0:
451,259,108311,1,0,0:0:0:0:
253,227,108467,2,0,L|163:245,1,90,8|0,0:0|0:0,0:0:0:0:
31,145,108780,6,0,P|20:86|30:54,1,90
335,184,109092,2,0,P|346:243|336:275,1,90,8|0,0:0|0:0,0:0:0:0:
181,214,109405,2,0,P|170:155|180:123,1,90
485,253,109717,2,0,P|496:312|486:344,1,90,8|0,0:0|0:0,0:0:0:0:
315,361,110030,5,2,0:0:0:0:
198,347,110186,1,2,0:0:0:0:
81,334,110342,1,10,0:0:0:0:
33,227,110498,1,0,0:0:0:0:
150,241,110654,1,10,0:0:0:0:
267,254,110811,2,0,P|306:222|322:184,1,90,0|10,0:0|0:0,0:0:0:0:
148,71,111123,6,0,P|136:134|238:159,1,180,2|2,0:0|0:0,0:0:0:0:
318,90,111592,1,8,0:0:0:0:
411,159,111748,2,0,P|420:210|407:253,1,90,2|8,0:0|0:0,0:0:0:0:
318,90,112061,2,0,P|309:39|322:-4,1,90,2|8,0:0|0:0,0:0:0:0:
499,93,112373,1,2,0:0:0:0:
328,203,112530,6,0,L|221:196,1,90,10|2,0:0|0:0,0:0:0:0:
48,305,112842,2,0,L|137:299,1,90,10|0,0:0|0:0,0:0:0:0:
358,347,113155,1,10,0:0:0:0:
241,360,113311,1,0,0:0:0:0:
286,259,113467,1,10,0:0:0:0:
403,272,113623,6,0,P|449:244|466:209,1,90,2|8,0:0|0:0,0:0:0:0:
355,170,113936,1,2,0:0:0:0:
286,259,114092,2,0,P|297:318|328:344,1,90,8|2,0:0|0:0,0:0:0:0:
355,170,114405,2,0,P|302:143|262:144,1,90,10|2,0:0|0:0,0:0:0:0:
176,209,114717,1,8,0:0:0:0:
105,116,114873,1,0,0:0:0:0:
203,51,115030,6,0,P|308:37|400:61,1,180,10|10,0:0|0:0,0:0:0:0:
375,259,115498,1,0,0:0:0:0:
264,298,115655,2,0,P|218:301|165:289,1,90,10|2,0:0|0:0,0:0:0:0:
31,210,115967,1,8,0:0:0:0:
142,171,116124,2,0,P|187:167|241:180,1,90,2|8,0:0|0:0,0:0:0:0:
375,259,116436,5,2,0:0:0:0:
453,172,116592,2,0,P|465:119|461:79,1,90,8|2,0:0|0:0,0:0:0:0:
256,260,116905,2,0,P|253:304|265:348,1,90,8|2,0:0|0:0,0:0:0:0:
375,259,117217,1,8,0:0:0:0:
316,157,117373,5,2,0:0:0:0:
316,157,117451,1,0,0:0:0:0:
316,157,117530,1,10,0:0:0:0:
199,161,117686,1,2,0:0:0:0:
254,58,117842,1,8,0:0:0:0:
316,157,117998,1,2,0:0:0:0:
199,161,118155,2,0,P|143:154|104:168,1,90,8|2,0:0|0:0,0:0:0:0:
218,276,118467,1,8,0:0:0:0:
316,157,118623,2,0,P|329:108|324:63,1,90,2|8,0:0|0:0,0:0:0:0:
154,68,118936,5,2,0:0:0:0:
305,247,119092,2,0,L|409:237,1,90,8|2,0:0|0:0,0:0:0:0:
207,353,119405,2,0,L|103:343,1,90,8|2,0:0|0:0,0:0:0:0:
15,172,119717,1,8,0:0:0:0:
52,157,119795,1,8,0:0:0:0:
92,154,119873,1,8,0:0:0:0:
131,162,119951,1,8,0:0:0:0:
166,182,120030,6,0,B|202:208|202:208|251:208,1,90,4|0,0:0|0:0,0:0:0:0:
408,146,120342,2,0,B|372:120|372:120|323:120,1,90,2|0,0:0|0:0,0:0:0:0:
137,292,120655,1,2,0:0:0:0:
230,346,120811,1,2,0:0:0:0:
337,351,120967,1,2,0:0:0:0:
433,303,121123,6,0,P|466:255|470:217,1,90,6|0,0:0|0:0,0:0:0:0:
221,110,121436,2,0,P|226:161|246:195,1,90,0|2,0:0|0:0,0:0:0:0:
370,118,121748,1,0,0:0:0:0:
197,22,121905,1,2,0:0:0:0:
305,30,122061,1,2,0:0:0:0:
117,94,122217,1,2,0:0:0:0:
245,193,122373,6,0,B|288:197|319:176|319:176|374:190|374:190|411:173|454:181,1,207.000003948212,4|0,0:0|0:0,0:0:0:0:
426,277,122842,1,0,0:0:0:0:
263,99,122998,1,0,0:0:0:0:
263,99,123076,1,0,0:0:0:0:
263,99,123155,2,0,P|248:43|264:-5,1,103.500001974106
385,140,123467,1,0,0:0:0:0:
285,236,123623,6,0,L|179:226,1,103.500001974106
10,322,123936,1,0,0:0:0:0:
130,350,124092,2,0,L|233:340,1,103.500001974106
385,140,124405,1,0,0:0:0:0:
263,99,124561,1,0,0:0:0:0:
263,99,124639,1,0,0:0:0:0:
263,99,124717,2,0,L|153:107,1,103.500001974106
276,289,125030,5,0,0:0:0:0:
451,232,125186,1,0,0:0:0:0:
276,175,125342,1,0,0:0:0:0:
385,325,125498,1,0,0:0:0:0:
385,140,125655,2,0,P|368:92|324:55,1,103.500001974106
385,325,125967,1,0,0:0:0:0:
276,175,126123,6,0,P|224:159|168:178,1,103.500001974106
451,232,126436,1,0,0:0:0:0:
276,289,126592,2,0,P|232:316|207:372,1,103.500001974106
362,235,126905,1,0,0:0:0:0:
285,76,127061,1,0,0:0:0:0:
186,221,127217,1,0,0:0:0:0:
277,175,127373,6,0,B|332:149|332:149|406:139|406:139|471:108,1,207.000003948212
376,40,127842,1,0,0:0:0:0:
362,235,127998,1,0,0:0:0:0:
362,235,128076,1,0,0:0:0:0:
362,235,128155,2,0,P|370:295|397:331,1,103.500001974106
486,222,128467,5,0,0:0:0:0:
409,124,128623,2,0,L|302:114,1,103.500001974106
77,152,128936,1,0,0:0:0:0:
166,238,129092,2,0,L|273:248,1,103.500001974106
186,131,129405,5,0,0:0:0:0:
211,133,129483,1,0,0:0:0:0:
236,135,129561,1,0,0:0:0:0:
261,138,129639,1,0,0:0:0:0:
286,140,129717,1,0,0:0:0:0:
257,111,129795,1,0,0:0:0:0:
256,69,129873,1,0,0:0:0:0:
283,38,129951,1,0,0:0:0:0:
324,29,130030,6,0,P|372:49|425:49,1,103.500001974106
500,196,130342,1,0,0:0:0:0:
388,142,130498,2,0,P|311:129|205:204,1,207.000003948212
100,347,130967,1,0,0:0:0:0:
23,249,131123,2,0,B|4:200|4:200|4:143,1,103.500001974106
132,32,131436,2,0,B|151:81|151:81|151:138,1,103.500001974106
222,287,131748,2,0,P|265:316|398:253,1,207.000003948212
395,48,132217,1,0,0:0:0:0:
297,124,132373,1,0,0:0:0:0:
297,124,132451,1,0,0:0:0:0:
297,124,132530,6,0,P|285:184|309:232,1,103.500001974106
471,303,132842,2,0,P|483:243|459:195,1,103.500001974106
276,39,133155,1,0,0:0:0:0:
153,55,133311,1,0,0:0:0:0:
229,152,133467,1,0,0:0:0:0:
106,168,133623,1,0,0:0:0:0:
183,265,133780,6,0,L|294:253,1,103.500001974106
229,363,134092,1,0,0:0:0:0:
105,351,134248,2,0,L|-6:339,1,103.500001974106
106,168,134561,2,0,P|198:140|317:206,1,207.000003948212
372,280,135030,6,0,B|372:331|372:331|402:374,1,103.500001974106
497,162,135342,1,0,0:0:0:0:
352,69,135498,2,0,B|320:37|256:37|256:101|192:101|160:69,1,207.000003948212
116,245,135967,1,0,0:0:0:0:
22,163,136123,6,0,P|8:103|25:64,1,103.500001974106
191,200,136436,2,0,P|205:260|188:299,1,103.500001974106
121,117,136748,2,0,P|204:94|296:173,1,207.000003948212
373,346,137217,1,0,0:0:0:0:
455,253,137373,1,0,0:0:0:0:
455,253,137451,1,0,0:0:0:0:
455,253,137530,6,0,L|466:144,1,103.500001974106
189,33,137842,2,0,L|199:135,1,103.500001974106
317,328,138155,2,0,L|328:219,1,103.500001974106
51,108,138467,2,0,L|61:210,1,103.500001974106
198,361,138780,5,0,0:0:0:0:
317,328,138936,1,0,0:0:0:0:
436,296,139092,1,0,0:0:0:0:
348,207,139248,1,0,0:0:0:0:
229,240,139404,1,0,0:0:0:0:
187,243,139483,1,0,0:0:0:0:
147,230,139561,1,0,0:0:0:0:
122,196,139639,1,0,0:0:0:0:
115,155,139717,1,0,0:0:0:0:
128,115,139795,1,0,0:0:0:0:
157,85,139873,1,0,0:0:0:0:
196,74,139951,1,0,0:0:0:0:
237,82,140030,2,0,P|296:102|345:91,1,103.500001974106
121,27,140342,2,0,L|16:44,1,103.500001974106
198,160,140655,1,0,0:0:0:0:
336,95,140811,5,0,0:0:0:0:
336,95,140889,1,0,0:0:0:0:
336,95,140967,2,0,L|445:76,1,103.500001974106
198,160,141280,2,0,L|96:142,1,103.500001974106
65,302,141592,2,0,P|120:343|253:313,1,207.000003948212
336,95,142061,1,0,0:0:0:0:
322,219,142217,2,0,P|330:266|366:312,1,103.500001974106
446,217,142530,5,0,0:0:0:0:
252,144,142686,1,0,0:0:0:0:
252,144,142764,1,0,0:0:0:0:
252,144,142842,2,0,P|186:142|142:160,1,103.500001974106
173,297,143155,1,0,0:0:0:0:
277,229,143311,1,0,0:0:0:0:
351,124,143467,2,0,P|366:67|361:19,1,103.500001974106
181,39,143780,6,0,L|70:28,1,103.500001974106
38,263,144092,1,0,0:0:0:0:
38,263,144248,1,0,0:0:0:0:
173,297,144405,2,0,L|284:286,1,103.500001974106
471,123,144717,1,0,0:0:0:0:
471,123,144873,1,0,0:0:0:0:
355,74,145030,5,0,0:0:0:0:
471,123,145186,1,0,0:0:0:0:
371,196,145342,2,0,P|282:224|204:136,1,207.000003948212
278,30,145811,1,0,0:0:0:0:
278,30,145889,1,0,0:0:0:0:
278,30,145967,2,0,B|301:79|301:79|301:132,1,103.500001974106
136,226,146280,6,0,B|113:177|113:177|113:124,1,103.500001974106
263,218,146592,1,0,0:0:0:0:
202,326,146748,1,0,0:0:0:0:
202,326,146826,1,0,0:0:0:0:
202,326,146905,2,0,L|93:320,1,103.500001974106
17,131,147217,5,0,0:0:0:0:
139,115,147373,1,0,0:0:0:0:
262,99,147530,2,0,L|368:85,1,103.500001974106
89,218,147842,1,0,0:0:0:0:
211,202,147998,1,0,0:0:0:0:
334,186,148155,2,0,L|440:172,1,103.500001974106
191,41,148467,2,0,L|84:27,1,103.500001974106
9,261,148780,5,0,0:0:0:0:
32,295,148858,1,0,0:0:0:0:
68,314,148936,1,0,0:0:0:0:
109,316,149014,1,0,0:0:0:0:
149,309,149092,1,0,0:0:0:0:
184,287,149170,1,0,0:0:0:0:
212,257,149248,1,0,0:0:0:0:
247,235,149326,1,0,0:0:0:0:
287,225,149405,2,0,P|313:225|344:234,1,51.7500009870529
407,275,149561,1,0,0:0:0:0:
407,275,149639,1,0,0:0:0:0:
407,275,149717,2,0,L|429:337,1,51.7500009870529
485,258,149873,2,0,L|502:209,1,51.7500009870529
472,121,150030,6,0,P|424:98|376:102,1,90
256,160,150342,2,0,L|256:256,1,90
40,120,150655,2,0,P|79:99|123:98,1,90
110,214,150967,1,0,0:0:0:0:
215,70,151123,1,0,0:0:0:0:
215,70,151201,1,0,0:0:0:0:
215,70,151280,6,0,L|319:48,1,90
489,228,151592,1,0,0:0:0:0:
394,297,151748,1,0,0:0:0:0:
290,242,151904,2,0,P|262:193|262:144,1,90
432,31,152217,2,0,P|460:80|460:129,1,90
344,178,152530,6,0,B|295:159|295:159|224:160|224:160|168:135,1,180
30,269,152998,2,0,P|83:301|182:243,1,180
107,49,153467,2,0,B|71:135|71:135|100:217,1,180
260,334,153936,5,0,0:0:0:0:
350,260,154092,2,0,L|455:242,1,90
302,61,154405,1,0,0:0:0:0:
201,120,154561,1,0,0:0:0:0:
107,49,154717,2,0,L|2:67,1,90
101,263,155030,6,0,P|153:266|192:252,1,90
323,129,155342,2,0,P|366:116|411:121,1,90
410,263,155655,2,0,P|366:267|323:254,1,90
188,129,155967,2,0,P|145:116|101:121,1,90
324,130,156280,6,0,L|398:78,1,90
188,254,156592,2,0,L|114:306,1,90
253,100,156905,2,0,L|263:10,1,90
258,283,157217,2,0,L|248:373,1,90
429,287,157530,6,0,P|453:231|392:133,1,180
273,202,157998,2,0,B|314:222|314:222|362:222,2,90
58,122,158467,2,0,B|146:90|146:154|234:122,1,180
103,202,158936,5,0,0:0:0:0:
190,41,159092,2,0,P|243:30|294:53,1,90
103,202,159405,2,0,P|50:213|-1:190,1,90
216,157,159717,1,0,0:0:0:0:
192,271,159873,1,0,0:0:0:0:
301,229,160030,6,0,L|402:206,1,90
512,73,160342,1,0,0:0:0:0:
413,10,160498,1,0,0:0:0:0:
311,68,160655,2,0,P|293:128|302:176,1,90
401,351,160967,1,0,0:0:0:0:
485,270,161123,1,0,0:0:0:0:
485,270,161201,1,0,0:0:0:0:
485,270,161280,6,0,P|485:225|469:183,1,90
313,250,161592,1,0,0:0:0:0:
261,354,161748,1,0,0:0:0:0:
294,253,161905,1,0,0:0:0:0:
196,317,162061,1,0,0:0:0:0:
276,247,162217,1,0,0:0:0:0:
159,253,162373,1,0,0:0:0:0:
216,150,162530,6,0,P|271:134|305:142,1,90
486,42,162842,1,0,0:0:0:0:
420,138,162998,2,0,L|441:233,1,90
299,367,163311,1,0,0:0:0:0:
221,279,163467,2,0,L|263:89,1,180
86,23,163936,5,0,0:0:0:0:
25,122,164092,2,0,P|21:189|42:224,1,90
149,371,164405,1,0,0:0:0:0:
149,371,164561,1,0,0:0:0:0:
221,279,164717,2,0,P|229:235|216:192,1,90
306,53,165030,6,0,P|364:26|466:86,1,180
454,279,165498,1,0,0:0:0:0:
358,210,165655,2,0,L|379:103,1,90
454,279,165967,1,0,0:0:0:0:
347,327,166123,1,0,0:0:0:0:
250,259,166280,6,0,P|196:252|153:264,1,90
37,85,166592,2,0,P|91:92|134:80,1,90
281,128,166905,1,0,0:0:0:0:
179,186,167061,1,0,0:0:0:0:
179,186,167139,1,0,0:0:0:0:
179,186,167217,2,0,L|72:174,1,90
26,325,167530,6,0,P|83:345|194:303,1,180
466,345,167998,2,0,P|379:325|300:364,1,180
292,251,168467,2,0,B|283:212|305:178|305:178|301:151|301:151|323:118|314:77,1,180
205,94,168936,1,0,0:0:0:0:
387,232,169092,2,0,L|483:215,1,90
205,94,169405,2,0,L|109:111,1,90
24,38,169717,1,0,0:0:0:0:
24,38,169873,1,0,0:0:0:0:
57,179,170030,6,0,P|54:218|45:238,2,60
156,195,170342,2,0,P|159:156|168:136,2,60
226,266,170655,1,0,0:0:0:0:
454,141,170967,6,0,P|458:109|449:78,1,60
391,42,171175,1,0,0:0:0:0:
338,91,171280,2,0,P|334:123|343:154,1,60
399,191,171488,1,0,0:0:0:0:
333,220,171592,1,0,0:0:0:0:
131,157,171905,5,0,0:0:0:0:
122,109,172009,1,0,0:0:0:0:
114,62,172113,1,0,0:0:0:0:
106,14,172217,1,0,0:0:0:0:
261,138,172530,5,0,0:0:0:0:
253,186,172634,1,0,0:0:0:0:
244,233,172738,1,0,0:0:0:0:
235,281,172842,2,0,P|215:305|188:317,2,60
171,248,173155,1,0,0:0:0:0:
100,117,175030,6,0,P|96:84|81:61,2,60
86,189,175342,2,0,P|90:222|106:246,2,60
182,253,175655,1,0,0:0:0:0:
344,112,175967,6,0,L|353:51,2,60
284,168,176280,1,0,0:0:0:0:
291,215,176384,1,0,0:0:0:0:
299,262,176488,1,0,0:0:0:0:
307,309,176592,2,0,P|370:335|427:311,1,120
465,260,176905,2,0,P|466:238|478:201,2,60
398,203,177217,2,0,P|384:135|350:90,1,120
261,57,177530,5,0,0:0:0:0:
219,80,177634,1,0,0:0:0:0:
172,90,177738,1,0,0:0:0:0:
124,85,177842,2,0,P|99:78|68:57,2,60
137,165,178155,2,0,L|120:287,1,120
55,236,178467,2,0,L|31:178,2,60
195,260,178780,6,0,L|219:318,2,60
239,192,179092,2,0,P|301:163|360:178,1,120
413,219,179405,2,0,P|422:250|417:285,2,60
346,257,179717,1,0,0:0:0:0:
228,353,180030,5,0,0:0:0:0:
179,347,180135,1,0,0:0:0:0:
131,341,180239,1,0,0:0:0:0:
83,335,180342,2,0,P|51:334|21:341,2,60
117,263,180655,2,0,P|58:243|2:248,1,120
172,210,180967,2,0,P|146:179|122:164,2,60
251,180,181280,6,0,P|238:143|215:118,2,60
337,180,181592,2,0,P|330:112|307:51,1,120
419,210,181905,2,0,L|421:273,1,60
365,322,182113,1,0,0:0:0:0:
365,322,182217,2,0,P|299:300|246:308,1,120
176,264,182530,6,0,P|164:313|171:338,1,60
106,362,182738,1,0,0:0:0:0:
53,313,182842,2,0,L|42:235,1,60
29,182,183050,1,0,0:0:0:0:
97,205,183155,2,0,L|221:187,1,120
274,142,183467,2,0,P|279:118|273:83,2,60
284,214,183780,6,0,P|279:238|285:273,2,60
337,323,184092,2,0,P|412:327|455:297,1,120
483,241,184405,2,0,L|488:179,1,60
462,114,184613,1,0,0:0:0:0:
394,138,184717,2,0,P|327:148|278:116,1,120
221,170,185030,6,0,P|206:207|186:223,1,60
118,234,185238,1,0,0:0:0:0:
69,180,185342,2,0,L|55:109,1,60
91,57,185550,1,0,0:0:0:0:
152,95,185655,2,0,B|206:94|206:94|225:65|261:61,1,120
272,137,185967,2,0,P|303:143|333:143,1,60
400,125,186175,1,0,0:0:0:0:
452,174,186280,6,0,P|463:197|465:234,2,60
386,221,186592,2,0,P|363:256|292:283,1,120
287,210,186905,2,0,P|247:209|224:194,2,60
272,137,187217,2,0,P|210:105|157:113,1,120
94,84,187530,6,0,L|72:25,2,60
60,147,187842,2,0,L|82:206,2,60
131,255,188155,2,0,P|195:286|255:271,1,120
324,317,188467,1,0,0:0:0:0:
368,298,188571,1,0,0:0:0:0:
415,299,188675,1,0,0:0:0:0:
459,318,188780,6,0,P|478:342|487:379,2,60
468,240,189092,2,0,L|504:116,1,120
390,65,189405,2,0,L|406:122,2,60
321,121,189717,2,0,L|287:236,1,120
235,300,190030,5,0,0:0:0:0:
188,312,190134,1,0,0:0:0:0:
140,305,190238,1,0,0:0:0:0:
102,275,190342,2,0,P|90:249|89:214,1,60
120,153,190550,1,0,0:0:0:0:
181,191,190655,2,0,P|236:169|311:181,1,120
353,216,190967,2,0,P|381:222|413:213,2,60
381,149,191280,6,0,P|387:121|378:89,2,60
313,123,191592,2,0,L|180:101,1,120
138,56,191905,2,0,P|128:30|131:-3,1,60
124,127,192113,1,0,0:0:0:0:
124,127,192217,2,0,P|125:198|101:251,1,120
58,296,192530,6,0,L|-1:289,2,60
109,345,192842,2,0,L|168:338,2,60
204,268,193155,2,0,P|272:262|330:280,1,120
413,209,193467,1,0,0:0:0:0:
365,207,193571,1,0,0:0:0:0:
319,192,193675,1,0,0:0:0:0:
286,155,193780,1,0,0:0:0:0:
276,108,193884,1,0,0:0:0:0:
287,61,193988,1,0,0:0:0:0:
329,38,194092,1,0,0:0:0:0:
372,56,194196,1,0,0:0:0:0:
385,102,194300,1,0,0:0:0:0:
358,142,194405,5,0,0:0:0:0:
310,142,194509,1,0,0:0:0:0:
276,108,194613,1,0,0:0:0:0:
232,88,194717,1,0,0:0:0:0:
184,81,194821,1,0,0:0:0:0:
137,90,194925,1,0,0:0:0:0:
94,112,195030,6,0,P|67:199|143:283,1,202.500007724762
224,236,195655,2,0,P|303:221|365:251,1,135.000005149842
499,61,196280,1,0,0:0:0:0:
404,156,196592,1,0,0:0:0:0:
269,173,196905,1,0,0:0:0:0:
156,98,197217,1,0,0:0:0:0:
146,80,197295,1,0,0:0:0:0:
136,62,197373,1,0,0:0:0:0:
126,44,197451,1,0,0:0:0:0:
117,24,197530,6,0,P|70:95|121:194,1,202.500007724762
222,208,198155,2,0,L|357:189,1,135.000005149842
505,347,198780,2,0,L|423:335,1,67.5000025749208
271,363,199092,1,0,0:0:0:0:
271,363,199248,1,0,0:0:0:0:
187,305,199405,2,0,L|105:293,1,67.5000025749208
30,203,199717,1,0,0:0:0:0:
91,122,199873,1,0,0:0:0:0:
186,88,200030,6,0,P|223:84|268:94,1,67.5000025749208
360,122,200342,2,0,P|364:159|354:204,1,67.5000025749208
326,296,200655,2,0,P|289:300|244:290,1,67.5000025749208
152,262,200967,2,0,P|148:225|158:180,1,67.5000025749208
232,68,201280,6,0,P|267:79|305:106,1,67.5000025749208
279,315,201592,2,0,P|247:305|218:288,1,67.5000025749208
379,168,201905,2,0,P|369:200|352:229,1,67.5000025749208
132,215,202217,2,0,P|143:180|170:142,1,67.5000025749208
256,192,202530,6,0,P|317:243|436:233,1,202.500007724762
500,156,203155,2,0,L|504:73,1,67.5000025749208
376,285,203467,1,0,0:0:0:0:
380,183,203623,1,0,0:0:0:0:
385,82,203780,2,0,L|389:-1,1,67.5000025749208
272,206,204092,2,0,L|276:123,1,67.5000025749208
250,108,204326,1,0,0:0:0:0:
250,108,204405,1,0,0:0:0:0:
161,60,204561,1,0,0:0:0:0:
87,130,204718,1,0,0:0:0:0:
131,221,204874,1,0,0:0:0:0:
232,207,205030,6,0,B|292:225|340:190|340:190|366:213|401:213,1,180
272,108,205498,1,0,0:0:0:0:
340,279,205655,2,0,P|389:291|433:288,1,90
232,201,205967,1,0,0:0:0:0:
131,266,206123,1,0,0:0:0:0:
131,266,206201,1,0,0:0:0:0:
131,266,206280,6,0,P|116:326|129:363,1,90
318,238,206592,2,0,P|325:194|310:152,1,90
107,84,206905,2,0,L|6:94,1,90
142,210,207217,2,0,L|243:200,1,90
385,64,207530,6,0,P|451:50|448:141,1,180
343,178,207998,1,0,0:0:0:0:
238,125,208155,2,0,P|186:116|133:131,1,90
52,59,208467,1,0,0:0:0:0:
9,234,208623,1,0,0:0:0:0:
101,305,208780,6,0,L|213:289,1,90
385,341,209092,1,0,0:0:0:0:
474,266,209248,1,0,0:0:0:0:
474,266,209326,1,0,0:0:0:0:
474,266,209405,2,0,P|486:207|471:163,1,90
330,123,209717,1,0,0:0:0:0:
216,150,209873,1,0,0:0:0:0:
102,178,210030,6,0,P|48:181|-3:166,1,90
216,150,210342,2,0,P|259:141|304:144,1,90
146,109,210655,2,0,P|143:55|158:4,1,90
174,223,210967,2,0,P|182:266|179:311,1,90
74,274,211280,5,0,0:0:0:0:
264,227,211436,1,0,0:0:0:0:
366,282,211592,2,0,L|395:367,1,90
398,190,211905,2,0,L|474:236,1,90
363,99,212217,2,0,L|452:85,1,90
278,51,212530,6,0,P|205:71|99:41,1,180
13,219,212998,1,0,0:0:0:0:
123,179,213155,2,0,P|181:171|226:177,1,90
313,232,213467,1,0,0:0:0:0:
416,177,213623,1,0,0:0:0:0:
313,232,213780,6,0,B|294:273|294:273|294:323,1,90
416,177,214092,2,0,B|416:132|416:132|397:91,1,90
161,52,214405,1,0,0:0:0:0:
175,63,214483,1,0,0:0:0:0:
191,69,214561,1,0,0:0:0:0:
208,71,214639,1,0,0:0:0:0:
225,68,214717,1,0,0:0:0:0:
249,94,214795,1,0,0:0:0:0:
273,120,214873,1,0,0:0:0:0:
297,146,214951,1,0,0:0:0:0:
321,173,215030,6,0,P|363:194|404:188,1,90
231,246,215342,2,0,B|195:255|161:233|161:233|115:248|115:248|86:238|57:245,1,180
79,328,215811,1,0,0:0:0:0:
214,166,215967,6,0,P|217:110|198:65,1,90
58,245,216280,2,0,P|61:303|86:333,1,90
192,355,216592,2,0,P|270:326|375:347,1,180
503,193,217061,1,0,0:0:0:0:
393,234,217217,6,0,L|296:221,1,90
176,69,217530,1,0,0:0:0:0:
283,23,217686,1,0,0:0:0:0:
395,52,217842,2,0,B|422:84|423:125|405:160|405:160|442:170|461:201,1,180
506,113,218311,1,0,0:0:0:0:
325,113,218467,6,0,L|221:136,1,90
0,27,218780,2,0,L|87:46,1,90
133,153,219092,2,0,P|143:227|113:294,1,135
70,343,219405,2,0,B|125:318|125:318|152:348|199:347,1,135
259,315,219717,2,0,B|296:321|324:302|324:302|347:328|382:331,1,135
385,252,220030,6,0,P|383:209|400:163,1,90
188,21,220342,2,0,P|203:63|201:107,1,90
259,315,220655,2,0,P|257:272|274:226,1,90
62,84,220967,2,0,P|77:126|75:170,1,90
166,258,221280,5,0,0:0:0:0:
136,370,221436,1,0,0:0:0:0:
260,315,221592,1,0,0:0:0:0:
230,203,221748,1,0,0:0:0:0:
349,141,221905,1,0,0:0:0:0:
319,253,222061,1,0,0:0:0:0:
443,198,222217,1,0,0:0:0:0:
413,86,222373,1,0,0:0:0:0:
464,191,222530,5,0,0:0:0:0:
425,301,222686,1,0,0:0:0:0:
319,253,222842,2,0,P|303:233|298:213,2,45
243,342,223155,1,0,0:0:0:0:
149,272,223311,1,0,0:0:0:0:
34,296,223467,2,0,P|20:312|6:355,2,60
78,231,223780,5,0,0:0:0:0:
92,197,223858,1,0,0:0:0:0:
90,161,223936,1,0,0:0:0:0:
70,130,224014,1,0,0:0:0:0:
39,111,224092,1,0,0:0:0:0:
74,112,224170,1,0,0:0:0:0:
109,113,224248,1,0,0:0:0:0:
144,114,224326,1,0,0:0:0:0:
180,116,224405,2,0,P|207:112|235:99,3,45
264,171,224717,2,0,P|291:175|319:188,3,45
372,140,225030,5,0,0:0:0:0:
474,195,225186,1,0,0:0:0:0:
471,78,225342,1,0,0:0:0:0:
372,140,225498,1,0,0:0:0:0:
372,140,225576,1,0,0:0:0:0:
372,140,225655,2,0,P|360:194|371:244,1,90
438,318,225967,1,0,0:0:0:0:
251,355,226123,1,0,0:0:0:0:
251,355,226201,1,0,0:0:0:0:
251,355,226280,6,0,L|148:338,1,90
9,211,226592,1,0,0:0:0:0:
112,157,226748,1,0,0:0:0:0:
112,157,226826,1,0,0:0:0:0:
112,157,226905,2,0,P|158:151|203:164,1,90
445,16,227217,1,0,0:0:0:0:
352,84,227373,1,0,0:0:0:0:
352,84,227451,1,0,0:0:0:0:
352,84,227530,6,0,P|273:101|184:58,1,180
36,142,227998,1,0,0:0:0:0:
36,142,228076,1,0,0:0:0:0:
36,142,228155,1,0,0:0:0:0:
109,232,228311,1,0,0:0:0:0:
225,241,228467,2,0,L|333:221,1,90
351,239,228701,5,0,0:0:0:0:
351,239,228780,2,0,P|376:290|372:331,1,90
162,334,229092,1,0,0:0:0:0:
109,232,229248,2,0,P|110:187|132:148,1,90
338,30,229561,1,0,0:0:0:0:
241,96,229717,2,0,L|151:74,1,90
125,46,229951,5,0,0:0:0:0:
125,46,230030,1,0,0:0:0:0:
30,114,230186,1,0,0:0:0:0:
137,158,230342,1,0,0:0:0:0:
45,230,230498,1,0,0:0:0:0:
45,230,230576,1,0,0:0:0:0:
45,230,230655,1,0,0:0:0:0:
123,316,230811,1,0,0:0:0:0:
237,338,230967,1,0,0:0:0:0:
348,302,231123,1,0,0:0:0:0:
348,302,231201,1,0,0:0:0:0:
348,302,231280,6,0,P|372:261|376:219,1,90
182,51,231592,2,0,P|186:95|210:133,1,90
240,146,231826,1,0,0:0:0:0:
240,146,231905,1,0,0:0:0:0:
353,118,232061,1,0,0:0:0:0:
466,90,232217,1,0,0:0:0:0:
324,233,232373,1,0,0:0:0:0:
324,233,232451,1,0,0:0:0:0:
324,233,232530,6,0,L|221:220,1,90
30,307,232842,1,0,0:0:0:0:
134,359,232998,2,0,L|237:346,1,90
437,203,233311,1,0,0:0:0:0:
353,118,233467,2,0,P|293:104|259:113,1,90
324,233,233780,6,0,L|408:283,1,90
188,151,234092,2,0,L|104:101,1,90
168,337,234405,2,0,L|215:260,1,90
343,46,234717,2,0,L|297:124,1,90
281,160,234951,5,0,0:0:0:0:
281,160,235030,2,0,P|283:217|301:255,1,90
483,327,235342,1,0,0:0:0:0:
367,340,235498,2,0,L|271:350,1,90
122,199,235811,1,0,0:0:0:0:
77,306,235967,1,0,0:0:0:0:
193,292,236123,1,0,0:0:0:0:
193,292,236201,1,0,0:0:0:0:
193,292,236280,1,0,0:0:0:0:
238,184,236436,5,0,0:0:0:0:
166,91,236592,1,0,0:0:0:0:
50,107,236748,1,0,0:0:0:0:
50,107,236826,1,0,0:0:0:0:
50,107,236905,1,0,0:0:0:0:
6,215,237061,1,0,0:0:0:0:
122,199,237217,1,0,0:0:0:0:
166,91,237373,1,0,0:0:0:0:
166,91,237451,1,0,0:0:0:0:
166,91,237530,6,0,P|169:61|166:39,3,45
240,140,237842,2,0,P|237:170|240:192,3,45
295,78,238155,1,0,0:0:0:0:
328,55,238233,1,0,0:0:0:0:
367,46,238311,1,0,0:0:0:0:
407,47,238389,1,0,0:0:0:0:
445,57,238467,2,0,P|471:62|499:58,3,45
400,130,238780,5,0,0:0:0:0:
388,168,238858,1,0,0:0:0:0:
388,208,238936,1,0,0:0:0:0:
401,246,239014,1,0,0:0:0:0:
425,277,239092,2,0,P|442:289|472:297,3,45
348,327,239405,1,0,0:0:0:0:
307,332,239483,1,0,0:0:0:0:
267,324,239561,1,0,0:0:0:0:
233,301,239639,1,0,0:0:0:0:
212,266,239717,2,0,P|202:242|200:220,3,45
145,143,240030,6,0,P|99:133|47:146,1,90
294,224,240342,1,0,0:0:0:0:
259,112,240498,1,0,0:0:0:0:
182,252,240655,2,0,P|175:310|191:356,1,90
294,224,240967,1,0,0:0:0:0:
259,112,241123,1,0,0:0:0:0:
259,112,241201,1,0,0:0:0:0:
259,112,241280,6,0,P|241:68|206:31,1,90
145,143,241592,1,0,0:0:0:0:
294,224,241748,2,0,P|341:232|389:214,1,90
505,333,242061,1,0,0:0:0:0:
393,297,242217,1,0,0:0:0:0:
286,344,242373,1,0,0:0:0:0:
286,344,242451,1,0,0:0:0:0:
286,344,242530,6,0,P|201:318|106:338,1,180
16,152,242998,1,0,0:0:0:0:
122,201,243155,2,0,L|213:189,1,90
315,136,243467,1,0,0:0:0:0:
237,48,243623,1,0,0:0:0:0:
315,136,243780,6,0,L|406:124,1,90
310,249,244092,1,0,0:0:0:0:
212,188,244248,2,0,P|189:133|201:86,1,90
310,249,244561,2,0,P|311:293|290:332,1,90
131,180,244873,5,0,0:0:0:0:
131,180,244951,1,0,0:0:0:0:
131,180,245030,2,0,L|112:90,1,90
251,113,245342,2,0,L|294:31,1,90
387,139,245655,2,0,L|472:104,1,90
256,192,245967,1,0,0:0:0:0:
256,192,246123,1,0,0:0:0:0:
125,245,246280,6,0,L|41:278,1,90
261,271,246593,2,0,L|218:350,1,90
381,204,246905,2,0,L|399:292,1,90
493,163,247217,1,0,0:0:0:0:
402,89,247373,1,0,0:0:0:0:
402,89,247451,1,0,0:0:0:0:
402,89,247530,6,0,P|345:79|295:91,1,90
82,27,247842,1,0,0:0:0:0:
21,126,247998,2,0,P|14:187|29:232,1,90
177,346,248311,2,0,P|184:301|176:257,1,90
269,150,248623,1,0,0:0:0:0:
269,150,248701,1,0,0:0:0:0:
269,150,248780,6,0,P|346:127|442:177,1,180
417,340,249248,2,0,P|340:363|244:313,1,180
344,245,249717,1,0,0:0:0:0:
227,234,249873,1,0,0:0:0:0:
227,234,249951,1,0,0:0:0:0:
227,234,250030,6,0,L|123:248,1,90
14,100,250342,1,0,0:0:0:0:
121,53,250498,2,0,P|173:48|221:66,1,90
500,141,250811,1,0,0:0:0:0:
393,189,250967,1,0,0:0:0:0:
302,114,251123,1,0,0:0:0:0:
302,114,251201,1,0,0:0:0:0:
302,114,251280,6,0,P|284:68|294:29,1,90
393,189,251592,2,0,P|411:235|401:274,1,90
281,342,251905,1,0,0:0:0:0:
164,329,252061,1,0,0:0:0:0:
47,316,252217,1,0,0:0:0:0:
113,219,252373,5,0,0:0:0:0:
113,219,252451,1,0,0:0:0:0:
113,219,252530,1,0,0:0:0:0:
230,232,252686,1,0,0:0:0:0:
347,245,252842,2,0,P|376:195|376:155,1,90
362,132,253076,1,0,0:0:0:0:
362,132,253155,1,0,0:0:0:0:
279,49,253311,1,0,0:0:0:0:
254,185,253467,1,0,0:0:0:0:
174,101,253623,1,0,0:0:0:0:
174,101,253701,1,0,0:0:0:0:
174,101,253780,6,0,P|118:93|71:106,1,90
10,285,254092,1,0,0:0:0:0:
114,337,254248,1,0,0:0:0:0:
133,325,254326,1,0,0:0:0:0:
152,313,254405,1,0,0:0:0:0:
184,328,254483,1,0,0:0:0:0:
218,336,254561,1,0,0:0:0:0:
253,333,254639,1,0,0:0:0:0:
285,317,254717,1,0,0:0:0:0:
317,301,254795,1,0,0:0:0:0:
352,297,254873,1,0,0:0:0:0:
387,303,254951,1,0,0:0:0:0:
418,321,255030,1,0,0:0:0:0:
489,81,257373,6,0,P|416:51|325:91,1,180
211,66,257842,2,0,P|171:20|135:2,1,90
250,167,258155,2,0,P|230:224|232:264,1,90
345,231,258467,1,0,0:0:0:0:
143,142,258623,6,0,L|46:148,1,90
6,300,258936,1,0,0:0:0:0:
117,335,259092,2,0,L|214:329,1,90
345,231,259405,1,0,0:0:0:0:
457,263,259561,1,0,0:0:0:0:
423,374,259717,1,0,0:0:0:0:
311,342,259873,1,0,0:0:0:0:
311,342,259951,1,0,0:0:0:0:
311,342,260030,6,0,P|292:311|288:296,3,45
237,237,260342,2,0,P|228:257|215:276,3,45
152,216,260655,1,0,0:0:0:0:
112,225,260733,1,0,0:0:0:0:
71,220,260811,1,0,0:0:0:0:
40,193,260889,1,0,0:0:0:0:
26,154,260967,1,0,0:0:0:0:
35,114,261045,1,0,0:0:0:0:
63,85,261123,1,0,0:0:0:0:
102,75,261201,1,0,0:0:0:0:
142,81,261280,6,0,L|191:75,1,45
246,122,261436,2,0,L|290:116,1,45
352,164,261592,2,0,L|401:158,1,45
456,205,261748,2,0,L|500:199,1,45
512,101,261905,1,0,0:0:0:0:
488,74,261983,1,0,0:0:0:0:
459,54,262061,1,0,0:0:0:0:
425,43,262139,1,0,0:0:0:0:
390,42,262217,1,0,0:0:0:0:
355,50,262295,1,0,0:0:0:0:
324,68,262373,1,0,0:0:0:0:
299,93,262451,1,0,0:0:0:0:
283,126,262530,6,0,P|280:173|303:218,1,90
164,353,262842,2,0,P|181:312|178:267,1,90
24,102,263155,1,0,0:0:0:0:
129,122,263311,1,0,0:0:0:0:
234,143,263467,1,0,0:0:0:0:
339,164,263623,6,0,L|448:137,1,90
450,344,263936,1,0,0:0:0:0:
345,315,264092,2,0,P|312:277|304:231,1,90
248,36,264405,1,0,0:0:0:0:
149,76,264561,1,0,0:0:0:0:
234,143,264717,1,0,0:0:0:0:
334,103,264873,6,0,P|430:90|494:175,1,207.000003948212
421,277,265342,2,0,B|392:234|392:234|392:181,1,103.500001974106
205,48,265655,2,0,B|234:91|234:91|234:144,1,103.500001974106
116,332,265967,1,0,0:0:0:0:
28,243,266123,6,0,P|15:177|135:157,1,207.000003948212
212,237,266592,2,0,P|266:251|323:243,1,103.500001974106
408,165,266905,1,0,0:0:0:0:
498,249,267061,1,0,0:0:0:0:
498,249,267139,1,0,0:0:0:0:
498,249,267217,2,0,P|496:310|468:351,1,103.500001974106
283,128,267530,6,0,P|285:67|313:26,1,103.500001974106
311,241,267842,2,0,P|257:269|207:266,1,103.500001974106
408,165,268155,1,0,0:0:0:0:
498,249,268311,2,0,P|496:316|474:361,1,103.500001974106
227,197,268623,6,0,B|192:193|164:214|164:214|96:188|96:188|72:210|32:212,1,207.000003948212
222,294,269092,2,0,P|278:304|321:286,1,103.500001974106
138,99,269405,2,0,P|82:89|39:107,1,103.500001974106
146,207,269717,1,0,0:0:0:0:
249,151,269873,6,0,P|266:93|251:49,1,103.500001974106
146,207,270186,1,0,0:0:0:0:
222,294,270342,2,0,L|446:280,1,207.000003948212
498,88,270811,1,0,0:0:0:0:
381,45,270967,1,0,0:0:0:0:
273,107,271123,1,0,0:0:0:0:
273,107,271201,1,0,0:0:0:0:
273,107,271280,6,0,P|261:163|281:213,1,103.500001974106
387,258,271592,1,0,0:0:0:0:
224,315,271748,1,0,0:0:0:0:
200,304,271826,1,0,0:0:0:0:
176,292,271905,1,0,0:0:0:0:
136,303,271983,1,0,0:0:0:0:
94,300,272061,1,0,0:0:0:0:
59,277,272139,1,0,0:0:0:0:
40,240,272217,1,0,0:0:0:0:
43,198,272295,1,0,0:0:0:0:
67,163,272373,1,0,0:0:0:0:
105,146,272451,1,0,0:0:0:0:
146,149,272530,6,0,P|205:156|252:137,1,103.500001974106
472,204,272842,1,0,0:0:0:0:
374,127,272998,2,0,P|370:61|392:24,1,103.500001974106
472,204,273311,2,0,P|476:270|454:307,1,103.500001974106
289,192,273623,6,0,P|207:207|241:303,1,207.000003948212
382,245,274092,1,0,0:0:0:0:
374,127,274248,2,0,P|327:90|265:84,1,103.500001974106
81,27,274561,1,0,0:0:0:0:
12,130,274717,1,0,0:0:0:0:
68,240,274873,1,0,0:0:0:0:
68,240,274951,1,0,0:0:0:0:
68,240,275030,6,0,L|171:214,1,103.500001974106
444,144,275342,2,0,L|341:170,1,103.500001974106
89,93,275655,2,0,L|180:147,1,103.500001974106
422,290,275967,2,0,L|331:236,1,103.500001974106
233,104,276280,6,0,L|208:4,1,103.500001974106
278,279,276592,2,0,L|304:380,1,103.500001974106
301,113,276905,2,0,L|354:25,1,103.500001974106
210,270,277217,2,0,L|157:358,1,103.500001974106
30,144,277530,6,0,P|102:120|205:201,1,207.000003948212
99,231,277998,1,0,0:0:0:0:
216,65,278155,1,0,0:0:0:0:
312,142,278311,2,0,L|419:130,1,103.500001974106
512,265,278623,2,0,L|405:253,1,103.500001974106
89,327,278936,5,0,0:0:0:0:
209,357,279092,1,0,0:0:0:0:
311,286,279248,2,0,P|341:213|246:124,1,207.000003948212
66,132,279717,1,0,0:0:0:0:
144,227,279873,1,0,0:0:0:0:
144,227,279951,1,0,0:0:0:0:
144,227,280030,6,0,L|259:217,1,103.500001974106
421,128,280342,2,0,P|421:67|394:25,1,103.500001974106
349,196,280655,2,0,P|349:257|376:299,1,103.500001974106
456,224,280967,1,0,0:0:0:0:
304,343,281123,1,0,0:0:0:0:
190,291,281280,6,0,P|134:286|81:303,1,103.500001974106
6,118,281592,1,0,0:0:0:0:
116,174,281748,2,0,P|172:179|225:162,1,103.500001974106,0|0,0:0|0:0,0:0:0:0:
303,75,282061,1,0,0:0:0:0:
187,30,282217,1,0,0:0:0:0:
303,75,282373,5,0,0:0:0:0:
303,75,282451,1,0,0:0:0:0:
303,75,282530,2,0,L|407:58,1,103.500001974106
502,250,282842,2,0,L|398:233,1,103.500001974106
185,208,283155,1,0,0:0:0:0:
66,243,283311,1,0,0:0:0:0:
100,362,283467,1,0,0:0:0:0:
219,327,283623,1,0,0:0:0:0:
66,243,283780,6,0,P|29:296|21:348,1,103.500001974106
185,208,284092,2,0,P|171:158|140:117,1,103.500001974106,0|0,0:0|0:0,0:0:0:0:
16,23,284405,1,0,0:0:0:0:
138,42,284561,1,0,0:0:0:0:
260,61,284717,1,0,0:0:0:0:
382,81,284873,1,0,0:0:0:0:
296,171,285030,6,0,P|275:150|263:123,3,51.7500009870529,0|0|0|0,0:0|0:0|0:0|0:0,0:0:0:0:
383,185,285342,1,0,0:0:0:0:
409,216,285420,1,0,0:0:0:0:
422,255,285498,1,0,0:0:0:0:
421,296,285576,1,0,0:0:0:0:
402,333,285655,2,0,P|391:352|367:370,3,51.7500009870529,0|0|0|0,0:0|0:0|0:0|0:0,0:0:0:0:
328,290,285967,1,0,0:0:0:0:
289,275,286045,1,0,0:0:0:0:
247,272,286123,1,0,0:0:0:0:
206,279,286201,1,0,0:0:0:0:
173,305,286280,5,0,0:0:0:0:
151,269,286358,1,0,0:0:0:0:
129,233,286436,1,0,0:0:0:0:
107,197,286514,1,0,0:0:0:0:
85,161,286592,2,0,P|81:131|86:105,1,51.7500009870529
168,139,286748,2,0,P|179:111|196:91,1,51.7500009870529,0|0,0:0|0:0,3:0:0:0:
253,159,286905,2,0,P|276:140|301:131,1,51.7500009870529
313,219,287061,2,0,P|343:215|369:220,1,51.7500009870529,0|0,0:0|0:0,3:3:0:0:
486,151,287217,1,0,0:0:0:0:
445,158,287295,1,0,0:0:0:0:
404,151,287373,1,0,0:0:0:0:
366,132,287451,1,0,0:0:0:0:
341,97,287530,1,0,0:0:0:0:
35,268,287998,6,0,L|11:322,2,51.7500009870529,0|0|0,0:0|0:0|0:0,0:0:0:0:
256,192,288780,5,0,0:0:0:0:
256,192,288880,12,0,293780,0:0:0:0:
59,75,301580,6,0,L|43:43,5,30,0|0|0|0|0|0,0:0|0:0|0:0|0:0|0:0|0:0,0:0:0:0:
131,93,301980,2,0,L|133:57,5,30,0|0|0|0|0|0,0:0|0:0|0:0|0:0|0:0|0:0,0:0:0:0:
184,146,302380,2,0,L|203:116,5,30,0|0|0|0|0|0,0:0|0:0|0:0|0:0|0:0|0:0,0:0:0:0:
204,217,302780,2,0,L|236:201,5,30,0|0|0|0|0|0,0:0|0:0|0:0|0:0|0:0|0:0,0:0:0:0:
145,263,303180,6,0,P|112:250|76:255,2,60,0|0|0,0:0|0:0|0:0,0:0:0:0:
189,325,303580,2,0,P|176:358|181:394,2,60,0|0|0,0:0|0:0|0:0,0:0:0:0:
250,280,303980,2,0,P|283:293|319:288,2,60,0|0|0,0:0|0:0|0:0,0:0:0:0:
296,213,304380,1,0,0:0:0:0:
370,191,304513,1,0,0:0:0:0:
438,227,304646,1,0,0:0:0:0:
465,300,304780,6,0,P|461:213|507:127,1,180
246,22,305380,1,0,0:0:0:0:
337,94,305580,2,0,P|351:143|340:190,1,90
134,213,305980,1,0,0:0:0:0:
247,242,306180,1,0,0:0:0:0:
134,213,306380,6,0,P|81:207|34:218,1,90
169,295,306780,1,0,0:0:0:0:
213,153,306980,1,0,0:0:0:0:
141,60,307180,2,0,L|44:52,1,90
12,75,307480,2,0,P|3:132|25:167,1,90
56,181,307780,1,0,0:0:0:0:
245,223,307980,6,0,P|307:195|408:246,1,180
317,302,308580,1,0,0:0:0:0:
245,130,308780,2,0,L|208:44,1,90
476,78,309180,2,0,L|418:160,1,90
317,302,309580,5,0,0:0:0:0:
330,185,309780,1,0,0:0:0:0:
330,185,309880,2,0,L|337:91,1,90
314,53,310180,1,0,0:0:0:0:
59,164,310380,1,0,0:0:0:0:
95,275,310580,1,0,0:0:0:0:
196,333,310780,1,0,0:0:0:0:
230,342,310880,1,0,0:0:0:0:
265,342,310980,1,0,0:0:0:0:
299,333,311080,1,0,0:0:0:0:
331,316,311180,6,0,P|360:272|366:226,1,90
363,196,311480,1,0,0:0:0:0:
363,196,311580,1,0,0:0:0:0:
220,61,311780,1,0,0:0:0:0:
220,61,311880,1,0,0:0:0:0:
220,61,311980,2,0,P|191:105|185:151,1,90
187,178,312280,1,0,0:0:0:0:
187,178,312380,2,0,L|189:227,1,45
166,258,312580,1,0,0:0:0:0:
61,142,312780,5,0,0:0:0:0:
61,142,312880,1,0,0:0:0:0:
61,142,312980,2,0,L|46:45,1,90
166,258,313380,1,0,0:0:0:0:
166,258,313480,1,0,0:0:0:0:
166,258,313580,2,0,L|151:355,1,90
121,367,313880,1,0,0:0:0:0:
90,348,313980,1,0,0:0:0:0:
67,319,314080,1,0,0:0:0:0:
56,284,314180,1,0,0:0:0:0:
57,248,314280,1,0,0:0:0:0:
67,213,314380,6,0,P|104:173|150:159,1,90
174,159,314680,1,0,0:0:0:0:
174,159,314780,1,0,0:0:0:0:
336,228,314980,1,0,0:0:0:0:
336,228,315080,2,0,L|384:221,1,45
207,50,315380,2,0,L|159:43,1,45
97,69,315580,1,0,0:0:0:0:
262,176,315780,1,0,0:0:0:0:
428,75,315980,5,0,0:0:0:0:
428,75,316080,1,0,0:0:0:0:
311,72,316280,1,0,0:0:0:0:
311,72,316380,1,0,0:0:0:0:
381,184,316580,1,0,0:0:0:0:
381,184,316680,1,0,0:0:0:0:
381,184,316780,2,0,P|385:248|373:277,1,90
115,364,317180,1,0,0:0:0:0:
84,337,317280,1,0,0:0:0:0:
74,297,317380,1,0,0:0:0:0:
81,257,317480,1,0,0:0:0:0:
104,223,317580,6,0,P|177:213|159:293,1,180
312,233,318180,1,0,0:0:0:0:
312,233,318280,1,0,0:0:0:0:
312,233,318380,2,0,P|368:223|414:236,1,90
502,59,318780,1,0,0:0:0:0:
502,59,318880,1,0,0:0:0:0:
502,59,318980,1,0,0:0:0:0:
398,113,319180,5,0,0:0:0:0:
398,113,319280,2,0,L|305:99,1,90
280,66,319580,1,0,0:0:0:0:
124,143,319780,1,0,0:0:0:0:
124,143,319880,1,0,0:0:0:0:
124,143,319980,2,0,P|106:197|118:246,1,90
131,263,320280,1,0,0:0:0:0:
161,282,320380,2,0,P|186:291|214:289,1,45
269,245,320580,2,0,P|291:245|312:254,1,45
276,317,320780,5,0,0:0:0:0:
227,143,320980,1,0,0:0:0:0:
227,143,321080,1,0,0:0:0:0:
227,143,321180,1,0,0:0:0:0:
401,188,321380,1,0,0:0:0:0:
401,188,321480,1,0,0:0:0:0:
401,188,321580,1,0,0:0:0:0:
227,234,321780,1,0,0:0:0:0:
186,229,321880,1,0,0:0:0:0:
145,224,321980,1,0,0:0:0:0:
104,219,322080,1,0,0:0:0:0:
63,214,322180,1,0,0:0:0:0:
196,63,322380,5,0,0:0:0:0:
196,63,322480,2,0,P|224:105|227:145,1,90
297,182,322780,2,0,P|302:137|328:101,1,90
399,78,323080,1,0,0:0:0:0:
437,90,323180,1,0,0:0:0:0:
462,120,323280,1,0,0:0:0:0:
467,160,323380,1,0,0:0:0:0:
453,197,323480,1,0,0:0:0:0:
420,221,323580,2,0,L|316:212,1,90
298,244,323880,5,0,0:0:0:0:
298,244,323980,2,0,P|216:217|159:237,1,135.000005149842
86,174,324580,1,0,0:0:0:0:
226,324,324780,2,0,L|303:337,1,67.5000025749208
449,263,325180,2,0,P|469:212|430:115,1,135.000005149842
276,39,325780,5,0,0:0:0:0:
367,81,325980,2,0,L|435:64,1,67.5000025749208
276,39,326380,2,0,L|208:56,1,67.5000025749208
18,207,326780,1,0,0:0:0:0:
108,252,326980,1,0,0:0:0:0:
197,204,327180,6,0,B|236:205|260:229|260:229|283:205|318:204,1,135.000005149842
200,291,327780,1,0,0:0:0:0:
260,143,327980,2,0,P|252:100|238:78,1,67.5000025749208,0|0,0:0|0:0,0:0:0:0:
325,288,328380,2,0,P|366:302|392:301,1,67.5000025749208,0|0,0:0|0:0,0:0:0:0:
505,177,328780,5,0,0:0:0:0:
421,119,328980,2,0,L|349:106,1,67.5000025749208
108,187,329380,1,0,0:0:0:0:
192,245,329580,2,0,L|264:258,1,67.5000025749208
205,153,329980,1,0,0:0:0:0:
96,286,330180,1,0,0:0:0:0:
27,126,330380,6,0,P|71:98|151:100,1,135.000005149842
303,52,330980,1,0,0:0:0:0:
246,136,331180,2,0,L|276:205,1,67.5000025749208
504,253,331580,1,0,0:0:0:0:
417,305,331780,1,0,0:0:0:0:
318,280,331980,6,0,P|248:263|190:296,1,135.000005149842
76,162,332580,1,0,0:0:0:0:
20,244,332780,2,0,P|90:261|148:228,1,135.000005149842
220,51,333380,1,0,0:0:0:0:
201,150,333580,6,0,P|206:190|224:219,1,67.5000025749208
409,216,333980,2,0,P|371:200|337:201,1,67.5000025749208,0|0,0:0|0:0,3:0:0:0:
248,362,334380,2,0,P|280:337|296:307,1,67.5000025749208,0|0,0:0|0:0,3:0:0:0:
162,304,334780,2,0,L|92:313,1,67.5000025749208
16,247,335180,6,0,L|-2:107,1,135.000005149842
164,16,335780,1,0,0:0:0:0:
207,107,335980,2,0,L|198:173,1,67.5000025749208,0|0,0:0|0:0,0:0:0:0:
354,287,336380,2,0,L|345:220,1,67.5000025749208,0|0,0:0|0:0,0:0:0:0:
437,42,336780,6,0,P|511:50|416:121,1,270.000010299683
327,107,337780,1,0,0:0:0:0:
228,83,337980,2,0,P|176:83|146:95,1,67.5000025749208
18,176,338380,2,0,P|50:183|84:180,1,67.5000025749208
181,250,338780,2,0,P|265:230|319:244,1,135.000005149842
371,321,339380,1,0,0:0:0:0:
449,257,339580,2,0,L|458:188,1,67.5000025749208
369,34,339980,6,0,P|351:75|390:157,1,135.000005149842
234,236,340580,1,0,0:0:0:0:
288,304,340780,2,0,P|321:247|303:184,1,135.000005149842
205,156,341380,1,0,0:0:0:0:
402,218,341580,6,0,L|470:208,1,67.5000025749208
205,156,341980,2,0,L|137:166,1,67.5000025749208
23,311,342380,1,0,0:0:0:0:
112,357,342580,1,0,0:0:0:0:
213,354,342780,1,0,0:0:0:0:
302,306,342980,1,0,0:0:0:0:
341,212,343180,6,0,P|340:165|325:132,1,67.5000025749208
171,172,343580,2,0,P|172:219|187:252,1,76.5000014591217
348,178,343980,6,0,P|330:130|303:103,1,85.4999977169037
150,201,344380,2,0,P|171:254|201:286,1,94.499997116089
358,135,344780,6,0,P|317:87|274:66,1,103.500001974106
142,245,345180,2,0,P|187:296|234:318,1,112.5
344,93,345580,6,0,P|282:58|227:53,1,121.500000463486
160,288,345980,2,0,P|225:323|281:329,1,130.500003982544
142,155,346380,5,0,0:0:0:0:
