osu file format v7

[General]
AudioFilename: Avenged_Sevenfold_-_Avenged_Se.mp3
AudioLeadIn: 0
PreviewTime: 134143
Countdown: 1
SampleSet: Normal
StackLeniency: 0.7
Mode: 0
LetterboxInBreaks: 1

[Editor]
DistanceSpacing: 0.899999976158142
BeatDivisor: 4
GridSize: 16

[Metadata]
Title:A Little Piece of Heaven
Artist:Avenged Sevenfold
Creator:Larto
Version:Marathon
Source:
Tags:nsfw metal

[Difficulty]
HPDrainRate:6
CircleSize:5
OverallDifficulty:8
SliderMultiplier:1.8
SliderTickRate:2

[Events]
//Background and Video events
Video,-10475,"Avenged_Sevenfold_-_A_Little_POS.avi"
0,0,"Avenged Sevenfold (9).JPG"
//Break Periods
//Storyboard Layer 0 (Background)
//Storyboard Layer 1 (Fail)
//Storyboard Layer 2 (Pass)
//Storyboard Layer 3 (Foreground)
//Storyboard Sound Samples
//Background Colour Transformations
3,100,163,162,255

[TimingPoints]
12674,413.793103448276,4,1,0,70,1,0
75570,413.793103448276,3,1,0,70,1,0
78052,413.793103448276,4,1,0,70,1,0
80534,413.793103448276,3,1,0,70,1,0
83016,413.793103448276,4,1,0,70,1,0
127876,-200,4,1,0,69,0,0
132669,414.085839944809,4,1,0,69,1,0
133911,-100,4,2,0,69,0,0
134324,-200,4,2,0,69,0,0
167452,413.933013944498,4,1,0,69,1,0
197255,413.933013944498,3,1,0,69,1,0
199738,413.933013944497,4,1,0,69,1,0
202221,413.933013944498,3,1,0,69,1,0
204704,413.933013944498,4,1,0,69,1,0
249513,-200,4,1,0,69,0,0
254375,413.650465356773,4,1,0,69,1,0
255615,-200,4,2,0,69,0,0
289121,413.793103448276,3,1,0,69,1,0
348707,413.793103448276,5,1,0,69,1,1
356982,413.793103448276,4,1,0,69,1,1
373534,-200,4,1,0,69,0,0
385948,413.793103448276,4,1,0,69,1,0
419879,-200,4,1,0,69,0,0
425258,-200,4,2,0,69,0,0

[Colours]
Combo1 : 255,213,149
Combo2 : 140,253,140
Combo3 : 109,109,252
Combo4 : 253,132,132

[HitObjects]
80,88,25915,5,4
80,88,26122,1,0
152,88,26329,5,0
224,88,26536,1,0
224,160,26742,1,4
296,160,26949,1,0
296,232,27156,1,0
296,232,27570,2,4,B|416:232|464:128|432:16,1,270,4|0
376,48,28398,5,4
376,48,28605,1,0
306,48,28811,5,0
240,48,29018,1,0
248,120,29225,1,4
248,120,29639,1,0
248,120,30053,2,4,B|248:232|200:296|64:288,1,270,4|0
16,288,30880,5,4
16,288,31087,1,0
16,224,31294,5,0
16,160,31501,1,0
24,104,31708,1,4
24,104,32122,1,0
24,104,32536,2,4,B|112:48|248:64|272:200|224:272,1,360,4|4
192,312,33570,5,0
256,344,33777,1,0
320,312,33984,1,0
376,272,34191,1,6
136,272,34605,1,0
120,96,35018,2,6,B|128:216|400:224|392:80,1,360,6|4
392,24,36053,5,0
456,56,36260,1,8
488,120,36467,1,0
488,192,36674,1,4
368,248,37087,1,2
320,112,37501,2,6,B|256:24|144:184|32:64,1,270,6|0
32,152,38329,6,0,B|6:186|0:264,1,90,4|0
48,296,38742,1,8
120,320,38949,1,0
192,328,39156,2,2,B|264:256|232:144,1,180,6|2
192,24,39984,2,2,B|264:104|384:16|464:112,1,270
488,152,40811,6,0,B|472:208|416:224,1,90,4|0
360,240,41225,1,8
296,272,41432,1,0
224,288,41639,1,6
152,152,42053,1,2
216,32,42467,2,2,B|320:64|336:168|288:256|192:256|152:240|128:232,1,360,2|6
144,168,43501,5,0
97,126,43708,1,8
110,65,43915,1,0
169,45,44122,1,4
216,87,44329,1,0
203,148,44536,1,2
352,248,44949,2,2,B|344:96|504:264|456:56|448:16|352:0|296:48,1,360,2|4
248,72,45984,5,0
184,104,46191,2,0,B|184:168|224:208,1,90,8|0
264,240,46605,2,4,B|224:320|112:312|80:272,2,180,4|2|6
168,152,47846,1,0
168,152,48053,1,0
168,152,48260,2,2,B|280:120|376:168,1,180,2|0
344,232,48880,6,2,B|232:264|136:216,1,180,2|0
104,192,49501,1,0
408,192,49915,1,4
456,136,50122,1,0
400,88,50329,1,8
440,24,50536,1,0
368,24,50742,6,2,B|328:64|272:72,1,90,6|2
216,64,51156,1,0
184,128,51363,1,0
160,200,51570,2,2,B|160:280|240:320|296:288,2,180
160,200,52811,1,8
304,200,53225,2,0,B|512:200,1,180,6|0
456,136,53846,2,2,B|264:136,1,180,2|0
304,72,54467,5,6
24,232,54880,1,6
232,24,55294,1,2
56,304,55708,5,4
112,344,55915,1,0
184,360,56122,2,0,B|224:328|224:264,1,90,8|0
232,208,56536,2,2,B|320:176|384:240|384:320,2,180,2|2|6
232,208,57777,1,0
96,264,58191,2,2,B|16:192|64:64,1,180,2|0
72,16,58811,2,2,B|160:80|112:184,2,180
168,16,59846,2,0,B|208:104,1,90,4|0
264,64,60260,2,0,B|304:152,1,90,8|0
328,208,60674,5,6
280,256,60880,1,0
216,288,61087,1,8
72,288,61501,2,4,B|32:184|72:80,1,180,6|0
168,160,62329,2,2,B|280:192|376:144,2,180,6|2|6
256,40,63570,1,0
256,40,63777,2,2,B|270:148|208:224,1,180,2|0
128,248,64398,5,6
384,168,64811,1,6
32,96,65225,1,2
480,32,65639,5,4
504,96,65846,1,0
496,168,66053,1,8
464,232,66260,1,0
400,264,66467,2,0,B|352:288|288:280,1,90,2|0
248,232,66880,2,0,B|296:208|360:216,1,90,8|0
312,280,67294,2,0,B|264:304|200:296,1,90,6|0
152,312,67708,1,6
152,312,68122,2,2,B|16:280|-96:-8|328:-32|464:120|120:208|104:328|456:368|536:248|480:56|352:40,1,900,2|2
200,48,70605,5,4
152,112,70811,1,0
136,192,71018,1,8
168,264,71225,1,0
224,320,71432,2,0,B|272:344|336:312,1,90,6|0
360,256,71846,2,0,B|312:232|248:264,1,90,8|0
312,320,72260,2,0,B|360:344|424:312,1,90,6|0
440,264,72674,1,2
440,264,73087,2,2,B|496:112|416:-80|96:-16|0:48|64:184|-8:264|136:360|232:352,1,900
160,120,75570,5,6
352,200,75880,1,0
160,280,76190,1,6
352,360,76501,1,0
160,360,76811,1,6
352,280,77121,1,0
160,200,77432,1,6
352,120,77742,1,0
256,8,78052,2,2,B|256:392,1,360,2|0
152,336,79086,5,0
64,272,79293,1,8
40,168,79500,1,0
64,64,79707,1,6
64,64,80120,1,2
352,120,80534,5,6
160,200,80844,1,0
352,280,81154,1,6
160,360,81465,1,0
352,360,81775,1,6
160,280,82085,1,0
352,200,82396,1,6
160,120,82706,1,0
256,8,83016,2,2,B|256:392,1,360,2|0
360,336,84050,5,0
448,272,84257,1,8
472,168,84464,1,0
448,64,84671,1,6
448,64,85084,1,2
176,40,85498,6,0,B|176:160,2,90,0|0|8
80,224,86119,2,0,B|80:104,2,90,0|8|8
168,208,86740,2,0,B|288:208,2,90,8|0|2
352,304,87360,2,0,B|232:304,2,90,0|2|8
416,224,87981,5,6
416,160,88188,1,0
352,192,88395,1,8
352,128,88602,1,2
416,96,88809,1,2
352,64,89016,1,0
288,32,89222,1,8
224,64,89429,1,0
224,128,89636,1,6
288,96,89843,5,0
288,160,90050,1,6
224,192,90257,1,0
288,224,90464,1,6
224,256,90671,1,0
288,288,90878,1,6
224,320,91084,1,2
160,288,91291,5,6
96,320,91498,1,0
32,288,91705,1,8
96,256,91912,1,0
32,224,92119,1,2
96,192,92326,1,0
160,224,92533,5,8
160,160,92740,1,0
96,128,92947,1,6
32,160,93153,1,0
32,96,93360,1,6
96,64,93567,1,0
32,32,93774,1,6
96,0,93981,1,0
160,32,94188,1,8
160,96,94395,1,0
160,160,94602,6,0,B|224:288|368:304|480:208,1,360,4|8
480,152,95636,1,0
448,88,95843,1,0
392,32,96050,1,0
320,16,96257,2,2,B|256:96|296:224,1,180,2|0
296,288,96878,2,2,B|216:224|88:264,1,180,2|0
48,288,97498,5,8
24,208,97705,1,0
40,128,97912,2,2,B|128:72|240:88,1,180,6|2
288,96,98533,2,2,B|440:112|504:240,1,270
416,280,99360,2,2,B|224:248|208:80|240:0,1,360,2|0
304,64,100395,5,8
368,120,100602,1,0
368,200,100809,1,2
320,264,101016,1,0
256,312,101222,5,6
32,240,101636,1,8
256,168,102050,1,2
32,96,102464,1,8
112,56,102671,1,0
192,8,102878,2,2,B|216:112|152:224,1,180
136,264,103498,2,2,B|240:240|352:304,1,180
384,320,104119,5,8
432,256,104326,1,0
424,176,104533,1,6
256,88,104947,1,8
88,176,105360,1,6
256,328,105774,5,8
256,232,105981,1,0
320,280,106188,2,2,B|368:200|296:120|240:144,1,180,6|2
200,192,106809,2,2,B|152:112|224:32|280:56,1,180
336,48,107429,5,8
416,64,107636,1,0
480,120,107843,1,6
512,192,108050,1,0
480,264,108257,1,8
416,320,108464,1,0
336,336,108671,2,2,B|232:296|240:160,1,180,2|8
240,120,109291,1,8
240,48,109498,2,0,B|24:48,1,180,6|0
152,120,110119,2,0,B|360:120,1,180,6|0
352,192,110740,5,8
344,264,110947,2,2,B|288:296|160:288|152:240,1,180
160,192,111567,1,8
208,128,111774,1,0
256,64,111981,1,2
304,128,112188,1,0
352,192,112395,1,8
256,176,112602,1,0
256,248,112809,5,4
352,360,113222,1,0
352,360,113429,1,4
160,360,113843,1,0
160,360,114050,1,8
98,311,114257,6,2,B|-26:192|82:71|124:59,1,270,2|8
146,117,115084,2,0,B|90:155|78:236|177:288,1,180
166,192,115705,1,8
166,192,115912,2,2,B|382:192,2,180
136,48,117153,1,0
376,48,117567,1,2
400,112,117774,5,4
112,112,118188,1,8
112,112,118395,1,0
256,40,118809,1,0
256,40,119016,1,2
256,40,119222,1,2
256,112,119429,5,4
256,184,119636,1,0
256,256,119843,1,8
256,328,120050,1,0
376,256,120464,5,0
416,192,120671,1,2
376,128,120878,1,0
309,106,121084,2,0,B|256:200|328:312,1,180,4|8
256,320,121705,1,0
203,278,121912,2,0,B|256:184|184:72,1,180,6|8
152,192,122533,1,0
152,192,122740,1,6
152,192,122947,1,0
256,40,123360,1,2
256,192,123774,5,0
315,252,123981,1,8
341,192,124188,1,0
316,132,124395,1,6
256,106,124602,1,0
196,131,124809,1,8
170,191,125016,1,0
195,251,125222,1,2
255,277,125429,1,2
256,192,125636,1,0
256,192,126050,12,4,126878
256,192,126981,12,4,127705
256,192,127809,12,4,128533
96,240,129360,6,0,B|96:296|160:320,2,90,4|0|8
168,248,130602,2,2,B|208:224|224:168,1,90,2|0
224,112,131222,1,0
192,56,131429,1,8
160,112,131636,1,0
128,168,131843,1,0
96,104,132050,1,0
64,160,132257,1,8
32,216,132464,1,0
0,160,132669,1,4
32,336,134325,6,0,B|80:344|128:328,1,90,4|0
216,256,135153,2,0,B|168:248|120:264,1,90,2|0
176,320,135774,5,0
224,360,135981,1,4
304,288,136395,1,0
336,184,136809,1,8
344,80,137223,2,2,B|256:48|160:80,2,180,2|2|0
256,144,139294,6,2,B|304:160|360:144,1,90,2|0
256,216,140122,2,2,B|208:232|152:216,1,90,2|0
112,192,140743,5,0
72,144,140950,1,4
112,56,141364,1,0
160,96,141571,2,2,B|192:128|256:128,1,90,2|0
304,120,142192,2,2,B|336:168|320:256|248:272,1,180,2|0
200,296,143228,2,0,B|136:320|80:296|48:256,2,157.5,2|0|2
256,32,145919,5,4
256,32,146333,1,0
256,32,146747,1,8
256,96,146954,1,0
256,160,147162,1,2
256,224,147369,1,0
256,288,147576,6,4,B|176:352|56:288|64:168,1,270,4|0
184,120,149232,1,4
256,152,149646,1,0
328,120,150060,1,8
344,200,150474,2,2,B|256:240|168:200,2,180
296,280,152545,6,0,B|288:336|336:368,1,90,4|0
224,376,153373,2,0,B|232:320|184:288,1,90,4|0
144,256,153994,5,0
88,224,154201,2,2,B|64:176|104:128,1,90,2|0
144,88,154822,2,2,B|192:64|240:104,1,90,2|0
288,144,155443,2,2,B|320:248|232:312,1,180,2|0
232,232,156478,2,0,B|312:272|304:368,2,157.5,2|0|2
32,168,158342,6,2,B|56:104|104:96,1,90,2|0
128,48,158963,1,0
200,56,159170,1,4
312,56,159584,1,0
216,120,159998,1,4
296,120,160412,1,0
256,184,160826,1,6
256,256,161240,5,0
296,312,161655,1,8
360,328,162069,1,0
416,304,162483,1,2
440,248,162897,1,0
440,184,163311,1,8
436,120,163725,2,2,B|408:-16|96:-24|72:136,1,450,2|6
368,264,167452,5,4
312,216,167658,1,0
376,192,167865,1,8
400,128,168072,1,0
344,88,168279,2,2,B|261:67|160:88,2,180
256,200,169521,5,8
152,296,169935,2,2,B|64:256|80:136,1,180
8,176,170556,2,6,B|112:160|160:40,1,180
184,8,171177,1,0
232,64,171384,2,2,B|448:64,1,180
456,120,172005,1,8
408,168,172212,1,0
344,192,172419,1,4
256,304,172833,6,2,B|208:272|224:208,1,90,2|0
144,272,173247,2,0,B|192:304|176:368,1,90,4|0
104,336,173660,1,8
104,336,173867,1,0
104,336,174074,2,2,B|32:304|16:216|64:152,2,180,2|2|6
112,248,175109,1,0
168,192,175316,1,0
224,136,175523,2,2,B|264:200|224:280|176:288,1,180,2|0
96,328,176144,5,6
416,192,176558,1,6
96,56,176972,1,2
256,8,177386,6,0,B|274:54|248:112,1,90,4|0
224,160,177800,1,8
288,192,178007,1,0
352,224,178214,2,0,B|424:264|512:192|480:128,2,180,4|2|6
344,152,179249,1,0
336,80,179456,1,8
184,80,179869,6,0,B|72:80,2,90,2|0|8
256,80,180490,1,0
272,144,180697,2,6,B|288:224|200:264|144:240,1,180,6|0
168,176,181318,2,6,B|248:160|288:248|264:304,1,180,6|0
264,360,181939,1,8
336,336,182146,1,0
384,280,182353,1,4
400,208,182560,5,0
416,136,182767,1,8
384,72,182974,1,0
344,136,183181,2,0,B|256:176|168:136,2,180,2|8|6
320,64,184216,1,0
256,32,184423,1,2
184,24,184630,1,0
112,24,184837,2,2,B|112:232,1,180,2|0
40,304,185458,2,2,B|40:96,1,180,2|0
40,40,186078,5,6
472,40,186492,1,6
256,360,186906,1,2
144,80,187320,5,4
368,80,187734,1,2
256,160,188148,1,2
256,320,188562,1,0
160,192,188976,1,6
352,192,189390,1,0
496,72,189804,2,2,B|432:16|352:16|320:56|376:96|256:224|136:96|192:56|160:16|80:16|8:80,1,540
136,280,192287,6,0,B|88:192|144:88,1,180,4|0
376,104,193115,2,0,B|424:192|368:296,1,180,6|0
256,360,193943,1,2
256,360,194357,1,0
256,360,194771,2,2,B|144:360|136:192|256:192|256:192|376:192|368:24|248:24,2,540,2|2|6
392,304,197565,5,0
472,192,197875,1,2
392,80,198186,1,0
256,192,198496,1,6
120,304,198807,1,0
40,192,199117,1,2
120,80,199428,1,0
192,208,199738,2,4,B|216:296|344:264|320:168,4,180,4|0|0|0|2
256,32,201807,1,2
256,192,202221,5,6
120,304,202531,1,0
40,192,202841,1,2
120,80,203152,1,0
256,192,203462,1,6
392,304,203773,1,0
472,192,204083,1,2
392,80,204394,1,0
320,208,204704,2,4,B|296:296|168:264|192:168,4,180,4|0|0|0|2
256,32,206773,1,2
96,104,207187,6,0,B|96:240,1,90,2|0
160,144,207601,2,0,B|160:264,1,90,8|0
104,296,208015,2,0,B|232:296,2,90,2|8|8
224,360,208636,2,0,B|96:360,2,90,0|2|0
256,283,209257,2,0,B|256:59,1,180,2|6
320,64,209878,5,0
320,128,210085,1,2
384,96,210292,1,2
384,160,210499,1,8
448,128,210706,1,0
448,192,210912,1,2
384,224,211119,1,0
320,192,211326,1,6
320,256,211533,1,0
384,288,211740,1,6
448,256,211947,1,0
448,320,212154,1,8
384,352,212361,1,8
320,320,212568,1,8
256,288,212775,5,0
192,256,212982,1,6
192,192,213189,1,0
256,224,213396,1,8
256,160,213603,1,2
192,128,213810,1,2
256,96,214017,1,0
256,32,214224,1,8
192,64,214431,1,0
128,96,214638,1,6
64,64,214845,1,0
0,96,215052,1,8
64,128,215259,1,0
128,160,215466,1,2
64,192,215673,1,2
0,160,215880,1,8
0,224,216087,1,0
64,256,216294,6,4,B|144:344|296:288|280:176,1,270,4|0
208,208,217121,2,0,B|400:208,1,180,8|0
472,144,217742,1,0
400,144,217949,2,0,B|296:144,1,90,6|0
336,80,218363,6,0,B|426:80,2,90,2|0|8
256,80,218984,1,0
176,80,219191,1,2
40,176,219605,6,0,B|8:240|72:328|136:304,1,180,6|0
104,216,220226,2,0,B|216:144|288:320|176:368,1,270,6|0
160,280,221054,2,2,B|176:176|240:144|344:272|408:264|424:112,1,360,2|0
432,64,222089,2,0,B|496:72|504:144,2,90,8|0|2
256,24,222917,5,6
256,104,223124,1,0
328,72,223330,2,0,B|368:136|312:224|232:192,2,180,8|2|8
256,24,224365,1,0
184,64,224572,2,2,B|184:272,1,180,2|0
120,296,225193,2,2,B|120:88,1,180,2|2
120,32,225814,5,8
48,72,226021,1,0
48,152,226228,2,0,B|136:184|256:144,2,180,6|8|2
192,72,227470,1,8
256,40,227677,1,0
328,64,227884,2,2,B|328:244,1,180,2|0
392,296,228505,2,2,B|392:116,1,180,2|2
392,32,229126,5,8
472,48,229333,1,0
472,128,229539,1,6
392,152,229746,1,0
320,184,229953,1,8
320,256,230160,1,0
392,288,230367,1,2
256,344,230781,5,8
256,344,230988,1,0
176,352,231195,2,0,B|176:304|192:256|248:230|344:264|336:312|336:360,2,270,2|2|0
121,297,232644,2,2,B|151:205|264:199,1,180
320,168,233265,1,8
344,104,233472,1,0
296,48,233679,1,2
216,48,233886,1,0
168,104,234093,1,8
192,168,234300,1,0
256,112,234507,5,4
256,240,234921,1,0
256,240,235128,1,4
256,368,235542,1,0
256,368,235748,1,8
328,344,235955,6,2,B|424:224|368:72,1,270,2|8
448,56,236783,2,0,B|384:112|264:88,1,180
200,72,237404,1,8
136,24,237611,1,6
32,192,238025,1,0
136,360,238439,1,2
304,256,238853,1,0
384,232,239060,1,8
384,152,239267,1,0
304,128,239474,1,6
256,16,239888,5,8
256,16,240095,1,0
256,192,240509,1,0
256,192,240716,1,2
256,192,240923,1,0
345,271,241130,2,0,B|145:271,1,180,4|8
166,339,241751,2,0,B|366:339,1,180
408,304,242371,5,2
448,248,242578,1,0
480,184,242785,2,2,B|280:184,1,180,6|8
324,119,243406,1,0
346,56,243613,2,2,B|146:56,1,180,6|8
168,128,244234,1,0
208,200,244441,2,2,B|168:264|208:328|312:328|352:248|296:192,2,270,6|6|6
256,144,245890,1,0
320,112,246097,1,4
384,160,246304,1,0
416,232,246511,1,8
400,312,246718,1,0
336,360,246925,1,2
256,368,247132,1,2
256,288,247339,1,0
256,192,247753,12,4,248580
256,192,248684,12,4,249408
256,192,249512,12,4,250236
256,296,250857,5,0
256,296,251064,2,2,B|304:272|304:216,1,90
312,144,251892,1,8
248,88,252306,2,2,B|64:40|8:320|200:368,1,450,2|4
312,144,256029,6,2,B|360:144|400:184,1,90,2|0
408,272,256856,2,2,B|360:272|320:232,1,90,2|0
256,216,257477,5,0
200,176,257684,2,2,B|160:216|184:264,2,90,2|0|8
256,96,258925,2,4,B|208:40|104:56|88:88,2,180,4|4|0
320,168,260993,2,2,B|360:216|312:256,1,90,2|0
192,248,261820,2,2,B|152:200|200:160,1,90,2|0
232,120,262441,5,0
176,88,262648,2,0,B|128:104|104:168,1,90,6|0
48,160,263268,2,2,B|48:232|80:256,1,90,2|0
32,296,263888,2,2,B|88:352|192:344|208:328,1,180,2|0
256,296,264923,2,2,B|320:224|304:152,2,146.25,2|0|2
256,80,267611,5,2
256,80,268025,1,0
256,80,268439,1,8
256,144,268645,1,0
256,208,268852,1,2
256,272,269059,1,0
256,336,269266,6,0,B|160:352|64:288,1,180,4|2
40,208,270507,1,0
88,120,270921,1,6
160,56,271334,1,0
256,32,271748,1,8
312,120,272161,6,2,B|320:176|256:192|192:176|200:112,2,180
338,208,274230,2,0,B|304:248|213:246|200:215,1,135,4|0
160,190,275057,2,0,B|119:151|121:52,1,135,4|0
56,32,275884,6,2,B|56:144,1,90,6|0
0,144,276505,2,2,B|0:256,1,90,2|0
56,262,277125,2,2,B|96:368|208:320,1,180,2|0
256,296,278159,2,2,B|320:248|280:160,2,135,2|0|2
96,176,280021,5,4
192,80,280434,1,0
256,120,280641,1,0
320,80,280848,1,2
416,176,281262,5,0
152,232,281675,1,2
312,264,282089,1,0
200,288,282503,1,4
256,336,282916,5,0
320,360,283330,1,8
392,352,283744,1,0
424,288,284157,1,2
432,216,284571,1,0
400,152,284985,1,8
344,104,285398,2,0,B|256:136|160:104,4,180,2|2|2|2|2
464,64,289121,5,4
464,64,289327,1,0
464,64,289534,2,2,B|384:56|264:64,1,180
48,152,290362,5,4
48,152,290569,1,0
48,152,290776,2,2,B|128:144|248:152,1,180
464,320,291603,5,4
464,320,291810,1,0
464,320,292017,2,2,B|384:328|264:320,1,180
48,232,292845,5,4
48,232,293052,1,0
48,232,293258,2,2,B|128:240|248:232,1,180
304,16,294086,5,4
304,96,294293,1,0
368,144,294500,2,0,B|416:160|488:136,1,90,2|0
368,144,294914,1,2
256,160,295327,5,4
256,240,295534,1,0
192,288,295741,2,0,B|144:304|72:280,1,90,2|0
192,288,296155,1,2
80,112,296569,5,4
128,48,296776,1,0
208,24,296983,1,2
272,80,297189,1,0
280,160,297396,1,2
272,240,297603,1,0
208,192,297810,5,4
256,128,298017,1,0
336,104,298224,1,2
400,160,298431,1,0
408,240,298638,1,2
400,320,298845,1,0
320,320,299052,6,0,B|232:360,1,90,4|0
208,280,299465,2,0,B|112:328,1,90,2|0
112,232,299879,1,2
80,72,300293,5,4
152,40,300500,1,0
232,48,300707,1,2
296,96,300914,1,0
312,176,301121,1,2
384,320,301534,6,0,B|488:320,2,90,4|0|2
416,256,302155,2,0,B|528:256,1,90,0|2
408,144,302776,5,4
384,80,302983,1,0
328,32,303189,1,8
256,8,303396,1,0
184,32,303603,1,2
128,80,303810,1,0
104,144,304017,1,4
104,216,304224,5,0
104,288,304431,2,0,B|208:288,1,90,2|0
104,360,304845,1,2
184,192,305258,6,0,B|184:80,1,90,4|0
328,192,305672,2,0,B|328:304,1,90,6|0
256,192,306086,1,2
256,32,306500,5,4
256,352,307741,1,4
256,192,307948,12,4,308983
112,64,309603,5,0
40,208,310017,1,0
24,288,310224,2,2,B|192:368|240:208|240:176,1,270,2|0
280,48,311258,1,0
360,32,311465,2,2,B|432:192|312:288,1,270,2|0
160,288,312500,5,0
104,224,312707,1,8
88,144,312914,1,0
120,72,313121,1,2
192,32,313327,1,2
272,32,313534,1,0
352,48,313741,1,0
432,72,313948,6,4,B|472:176|424:328|280:384,2,360,4|2|2
256,192,316017,1,0
256,192,316224,1,0
304,256,316431,2,0,B|368:192|312:112|256:112,1,180,4|0
208,128,317052,2,0,B|144:192|200:272|256:272,1,180
256,192,317672,1,6
256,192,318086,1,6
256,192,318500,5,8
184,216,318707,1,0
112,232,318914,2,0,B|32:168|64:48,1,180,6|0
141,93,319534,2,2,B|169:40|257:-4|368:53|368:96,1,270
256,128,320569,5,0
256,200,320776,1,0
256,272,320983,1,8
256,344,321189,1,0
320,312,321396,1,6
192,232,321810,1,8
192,232,322017,1,0
320,128,322431,1,8
320,128,322638,1,6
56,296,323258,5,0
16,232,323465,1,8
16,160,323672,1,8
40,88,323879,2,2,B|160:104|184:232,1,180,2|0
168,264,324500,2,2,B|256:296|352:264,1,180,2|0
338,193,325121,2,2,B|360:104|472:88,2,180
256,192,326155,5,0
256,112,326362,1,4
256,272,326776,1,0
184,152,327189,1,0
328,232,327603,1,4
184,232,328017,1,0
328,152,328431,1,8
400,192,328638,1,0
472,232,328845,6,4,B|480:328|368:384|216:360|184:288,1,360,4|0
136,232,329879,1,0
40,232,330086,2,4,B|32:328|144:384|296:360|328:288,1,360,4|0
368,232,331121,1,0
448,160,331327,2,2,B|352:72|304:176|304:176|256:320|208:176|208:176|160:64|48:168,1,540
112,304,332983,5,2
184,320,333189,1,0
256,336,333396,1,2
328,320,333603,1,0
400,304,333810,1,6
408,160,334224,1,0
408,240,334431,2,2,B|296:200|344:88,1,180,2|0
360,32,335052,1,4
256,192,335465,1,0
256,336,335879,5,0
112,304,336293,1,6
104,160,336707,1,0
104,240,336914,2,2,B|216:200|168:88,1,180,2|0
152,32,337534,1,4
256,192,337948,5,2
256,264,338155,1,0
320,224,338362,1,8
320,152,338569,1,8
344,80,338776,6,2,B|432:96|440:192|400:232,1,180,2|0
384,288,339396,2,2,B|368:376|272:384|232:344,1,180,2|0
168,304,340017,6,2,B|80:288|72:192|112:152,1,180,2|0
128,96,340638,2,2,B|144:8|240:0|280:40,1,180,2|0
216,88,341258,6,2,B|264:200|152:240,1,180,2|0
296,296,341879,2,2,B|248:184|360:144,1,180,2|0
160,240,342500,6,2,B|280:184|296:304,1,180,2|0
352,144,343121,2,2,B|232:200|216:80,1,180,2|0
256,192,343741,12,6,344983
256,192,345086,12,4,346224
352,280,346638,5,0
160,280,347052,1,0
160,96,347465,1,4
352,96,347879,1,0
256,280,348293,1,0
256,192,348500,1,6
256,104,348707,1,0
160,192,348913,5,0
72,192,349120,2,0,B|72:320,1,90,2|0
72,192,349534,2,0,B|72:64,1,90,6|0
160,192,349948,2,0,B|160:320,1,90,2|0
160,192,350362,2,0,B|160:64,1,90,6|0
256,192,350775,5,4
256,192,350982,1,0
440,192,351189,6,0,B|440:320,1,90,2|0
440,192,351603,2,0,B|440:64,1,90,6|0
352,192,352017,2,0,B|352:320,1,90,2|0
352,192,352431,2,0,B|352:64,1,90,6|0
256,192,352844,5,4
256,192,353051,1,0
216,40,353258,5,2
216,112,353465,1,0
216,40,353672,1,2
216,112,353879,1,0
296,40,354086,5,2
296,112,354293,1,0
296,40,354500,1,2
296,112,354707,1,0
256,192,354913,5,4
256,192,355120,1,0
216,344,355327,5,2
216,272,355534,1,0
216,344,355741,1,2
216,272,355948,1,0
296,344,356155,5,2
296,272,356362,1,0
296,344,356569,1,2
296,272,356775,1,0
360,304,356982,6,0,B|360:192,1,90
432,216,357396,2,0,B|432:272,3,45
432,216,357810,2,0,B|432:88,1,90
432,56,358224,2,0,B|496:56,3,45
432,56,358638,2,0,B|320:56,1,90,2|0
304,120,359051,2,0,B|192:120,1,90,2|0
216,192,359465,2,0,B|328:192,1,90,2|0
344,256,359879,2,0,B|456:256,1,90,2|0
504,256,360293,6,0,B|504:128,1,90,4|0
504,96,360707,2,0,B|504:40,3,45
504,96,361120,2,0,B|408:24,1,90,0|0
376,0,361534,2,0,B|296:0,3,45
376,0,361948,2,0,B|280:80,1,90,2|0
304,128,362362,2,0,B|208:208,1,90,2|0
224,256,362775,2,0,B|154:198,1,90,2|0
151,127,363189,2,0,B|81:69,1,90,2|0
144,32,363603,5,4
256,32,363810,1,0
256,144,364017,2,0,B|312:144,3,45
256,144,364431,1,0
256,256,364638,1,0
360,256,364844,2,0,B|360:304,3,45
360,256,365258,1,2
472,256,365465,1,0
472,144,365672,1,2
360,144,365879,1,0
360,256,366086,1,2
472,256,366293,1,0
472,144,366500,1,2
360,144,366707,1,0
256,144,366913,5,0
160,144,367120,1,0
208,48,367327,2,0,B|208:0,3,45
208,48,367741,1,0
104,48,367948,1,0
48,144,368155,2,0,B|0:144,3,45
48,144,368569,1,2
48,248,368775,1,0
136,184,368982,1,2
136,280,369189,1,0
224,216,369396,1,2
224,312,369603,1,0
312,256,369810,1,2
312,352,370017,1,0
256,192,370224,12,4,371051
256,192,371155,12,4,371879
256,192,371982,12,4,372707
256,192,372810,12,4,373534
256,192,373948,5,0
184,264,374362,1,0
328,264,374775,1,0
328,120,375189,1,0
184,120,375603,1,0
144,72,375810,1,0
104,24,376017,1,0
256,48,376431,1,0
408,24,376844,1,4
384,192,377258,1,0
408,360,377672,1,0
256,336,378086,1,0
104,360,378500,1,0
128,192,378913,1,0
194,192,379120,1,0
261,194,379327,1,0
261,194,379741,1,0
261,194,380155,6,2,B|317:218|365:186,1,90,6|0
261,194,380982,2,2,B|205:170|157:202,1,90,2|0
261,194,381810,2,2,B|285:138|253:90,1,90,6|0
261,194,382638,2,2,B|237:250|269:298,1,90,2|0
256,192,383465,12,6,384293
256,192,384396,12,6,385120
256,192,385224,12,4,385948
104,128,386361,5,0
72,200,386568,1,0
40,272,386775,1,8
152,360,387189,1,0
168,280,387396,2,2,B|368:280,1,180,2|0
360,360,388016,1,0
416,304,388223,1,0
424,224,388430,1,4
144,192,388844,1,8
256,64,389258,6,0,B|256:168,2,90,4|0|0
347,64,389879,2,2,B|163:64,1,180
80,64,390499,1,0
88,240,390913,6,2,B|120:152|208:280|256:168,1,180,2|0
272,96,391534,2,2,B|376:160|296:272,1,180,2|0
256,312,392154,5,8
184,336,392361,1,8
112,320,392568,2,0,B|85:272|88:208,1,90,4|0
88,160,392982,2,0,B|144:120|192:216|272:144,2,180,0|2|0
16,152,394016,1,0
24,80,394223,2,2,B|112:32|224:56,1,180,2|0
208,120,394844,2,2,B|296:168|408:144,1,180,2|0
448,120,395465,5,8
456,192,395672,1,8
464,264,395879,2,0,B|264:264,1,180,6|0
346,336,396499,2,0,B|146:336,1,180,6|0
96,328,397120,5,2
416,328,397534,1,2
96,56,397948,1,2
416,56,398361,1,2
256,240,398775,5,8
256,168,398982,1,0
224,104,399189,1,6
152,104,399396,1,0
120,160,399603,1,8
88,216,399810,1,0
48,264,400016,2,2,B|88:360|224:368,1,180,2|8
256,368,400637,1,8
312,320,400844,2,6,B|352:160|144:304|192:104,2,270,6|6|8
240,304,402292,6,2,B|224:200|312:144,1,180
368,104,402913,1,8
432,96,403120,1,0
488,136,403327,1,2
504,200,403534,1,0
472,256,403741,1,8
408,272,403948,1,8
344,280,404154,2,0,B|144:280,1,180,6|0
264,216,404775,2,0,B|64:216,1,180,6|0
64,152,405396,5,8
128,152,405603,2,2,B|328:152,1,180,2|0
368,152,406223,1,8
432,152,406430,2,0,B|456:264|376:344,1,180
328,368,407051,5,8
328,296,407258,1,6
184,296,407672,1,0
184,136,408085,1,6
328,136,408499,1,0
256,264,408913,1,8
256,264,409120,1,4
256,104,409534,1,8
256,104,409741,1,0
344,192,410154,5,0
256,192,410361,1,2
168,192,410568,1,2
133,264,410775,2,0,B|57:215|76:142|162:106,1,180,4|8
168,192,411396,2,0,B|244:143|225:70|139:34,1,180,4|0
88,48,412016,5,2
88,48,412223,1,0
48,104,412430,2,0,B|48:216,1,90,6|0
112,152,412844,2,0,B|112:264,1,90,8|0
72,312,413258,2,0,B|184:312,1,90,2|0
176,240,413672,2,0,B|288:240,1,90,8|0
336,240,414085,2,2,B|412:191|393:118|307:82,1,180,6|0
320,168,414706,2,2,B|369:244|442:225|478:139,1,180,6|0
456,96,415327,5,8
400,48,415534,1,0
328,24,415741,1,6
256,16,415948,1,0
184,24,416154,1,8
112,48,416361,1,0
56,96,416568,1,6
32,168,416775,1,2
32,240,416982,1,0
256,192,417396,12,4,418223
256,192,418327,12,4,419051
256,192,419154,12,4,419879
256,112,420499,5,0
256,112,420706,2,2,B|208:144|160:104,1,90
112,72,421534,1,8
56,128,421948,2,2,B|56:224|216:344|400:256|440:208,1,450,2|4
0,64,425672,6,2,B|56:48|104:56,1,90,6|0
88,136,426499,2,2,B|144:152|192:144,1,90,2|0
240,128,427120,5,0
296,96,427327,2,0,B|344:136|312:184,2,90,2|0|8
392,64,428568,2,2,B|456:144|408:248,2,180
328,184,430637,6,0,B|304:144|312:88,1,90,2|0
192,168,431465,2,0,B|216:208|208:264,1,90,2|0
192,320,432085,5,0
128,320,432292,2,2,B|72:288|80:232,1,90,6|0
80,184,432913,2,2,B|88:128|144:112,1,90,2|0
192,88,433534,2,2,B|288:80|384:128,1,180,2|0
424,152,434568,2,2,B|496:216|448:288,2,146.25,2|0|2
256,48,437258,5,2
256,48,437672,1,0
256,48,438085,1,8
256,112,438292,1,0
256,176,438499,1,2
256,240,438706,1,0
256,304,438913,6,0,B|200:312|160:272,1,90,4|0
104,224,439741,2,0,B|64:184|88:120,1,90,2|0
120,56,440568,1,2
160,112,440982,1,0
216,80,441396,1,8
272,48,441810,2,2,B|336:96|296:200|224:192,2,180
224,112,443879,5,4
224,112,444085,1,0
224,112,444292,1,0
296,192,444706,1,4
296,192,444913,1,0
296,192,445120,1,0
304,288,445534,6,2,B|192:288,1,90,2|0
152,288,446154,2,2,B|120:240|160:192,1,90,2|0
192,152,446775,2,2,B|288:112|368:176,1,180,2|0
296,208,447810,2,2,B|280:120|336:80,2,135,2|0|2
368,296,449672,5,4
312,328,449879,1,0
256,360,450085,1,0
200,328,450292,1,0
144,296,450499,1,2
328,248,450913,1,0
208,216,451327,1,2
288,184,451741,1,0
256,120,452154,1,4
256,192,452258,12,0,453810
256,192,453913,12,4,455465
256,192,455568,12,4,456292
256,192,456396,12,4,457120
