osu file format v5

[General]
AudioFilename: PCVR.mp3
AudioLeadIn: 0
PreviewTime: 0
Countdown: 1
SampleSet: Normal
StackLeniency: 0.7
Mode: 0
LetterboxInBreaks: 1
EditorBookmarks: 25344,58655,65068,70655,88862,130764,135827,150104,156931,172295,192031,198445,205934,209689,210070,217010,230793,239792,293097,295758,302793,303413,303724,303931,304137,304344,304551,304758,304965,305068,305275,305482,305689,305896,306103,306310,306517,306724,306931,307034,307241,307551,307655,307862,308275,308482,308689,356068

[Metadata]
Title:A Little Piece Of Heaven
Artist:Avenged Sevenfold
Creator:protoalex
Version:Lets start the killing
Source:
Tags:

[Difficulty]
HPDrainRate:5
CircleSize:6
OverallDifficulty:6
SliderMultiplier:1.2
SliderTickRate:2

[Events]
//Background and Video events
//Break Periods
2,288923,309144
2,356786,369455
//Storyboard Layer 0 (Background)
//Storyboard Layer 1 (Failing)
//Storyboard Layer 2 (Passing)
//Storyboard Layer 3 (Foreground)
//Storyboard Sound Samples
//Background Colour Transformations
3,100,163,162,255

[TimingPoints]
0,413.793103448276,4,1,0,100,1,0

[Colours]
Combo1 : 144,144,144
Combo2 : 0,0,0
Combo3 : 82,82,82
Combo4 : 103,103,103

[HitObjects]
96,256,26379,5,0
128,256,26586,1,0
256,256,27103,1,0
256,160,27517,1,0
480,352,28862,5,0
448,352,28965,1,0
384,352,29275,1,0
288,352,29689,1,0
288,256,30103,1,0
0,256,31344,5,0
32,256,31448,1,0
160,256,31965,1,0
160,320,32275,1,0
0,32,33724,5,0
0,64,33931,1,0
64,64,34241,1,0
64,160,34655,1,0
128,160,34965,1,0
128,256,35379,1,0
384,160,36517,5,0
384,192,36620,1,0
256,192,37137,1,0
192,192,37448,1,0
512,192,38793,5,0
448,192,39000,1,0
384,192,39206,1,0
288,192,39620,1,0
224,192,39931,1,0
448,384,41172,5,0
416,352,41379,1,0
352,288,41689,1,0
288,288,42000,1,0
224,352,42413,1,0
64,192,43344,5,0
96,160,43551,1,0
160,128,43862,1,0
256,128,44275,1,0
256,192,44586,1,0
256,288,45000,1,0
320,288,45310,1,0
320,96,46137,5,0
224,96,46551,1,0
224,192,46965,1,0
320,192,47379,1,0
320,320,47896,1,0
256,320,48206,1,0
128,320,48724,1,0
128,256,48931,1,0
128,160,49344,1,0
192,160,49655,1,0
320,160,51206,5,0
320,256,51620,1,0
416,256,52034,1,0
416,160,52448,1,0
416,64,52862,1,0
352,64,53172,1,0
256,64,53586,1,0
256,96,53793,1,0
256,224,54310,1,0
160,224,54724,1,0
416,128,55965,5,0
416,256,56482,1,0
320,256,56896,1,0
320,128,57413,1,0
224,128,57827,1,0
224,224,58241,1,0
128,224,58655,1,0
128,160,58862,1,0
128,64,59275,1,0
32,64,59689,1,0
288,288,61137,5,0
384,288,61551,1,0
384,224,61862,1,0
384,96,62379,1,0
320,96,62689,1,0
192,96,63206,1,0
192,192,63620,1,0
192,224,63827,1,0
192,320,64241,1,0
288,320,64655,1,0
288,0,66000,5,0
288,96,66413,1,0
288,192,66827,1,0
160,192,67344,1,0
64,192,67758,1,0
64,288,68172,1,0
480,320,70655,5,0
384,320,71068,1,0
288,320,71482,1,0
192,320,71896,1,0
32,320,72620,1,0
64,256,72931,2,0,B|224:160|224:160|416:256,1,390
64,64,75931,5,0
64,128,76241,1,0
64,224,76655,1,0
128,224,76965,1,0
200,232,77275,2,0,L|360:232,1,150
448,232,78206,1,0
248,88,79241,1,0
224,128,79448,1,0
184,184,79758,1,0
144,272,80172,1,0
240,272,80586,1,0
312,272,80896,1,0
384,272,81206,1,0
360,176,81620,1,0
304,120,81931,1,0
232,120,82241,1,0
152,264,82965,1,0
224,272,83275,2,0,L|384:272,1,150
408,216,84103,5,0
408,264,84310,1,0
456,264,84517,1,0
456,216,84724,1,0
480,96,85241,1,0
384,96,85655,1,0
376,216,86172,1,0
256,216,86689,1,0
256,96,87206,5,0
352,96,87620,1,0
352,192,88034,1,0
304,192,88241,1,0
232,192,88551,1,0
232,216,88655,1,0
280,216,88862,1,0
328,216,89068,1,0
328,264,89275,1,0
280,264,89482,1,0
232,264,89689,1,0
232,312,89896,1,0
280,312,90103,1,0
328,312,90310,1,0
376,312,90517,1,0
416,280,90724,1,0
440,240,90931,1,0
408,200,91137,1,0
368,168,91344,1,0
320,168,91551,1,0
272,168,91758,1,0
240,208,91965,1,0
208,240,92172,1,0
240,272,92379,1,0
192,272,92586,1,0
192,320,92793,1,0
264,320,93103,1,0
312,320,93310,1,0
360,320,93517,1,0
408,320,93724,1,0
456,320,93931,1,0
488,280,94137,1,0
456,240,94344,1,0
424,200,94551,1,0
64,192,97655,5,0
112,192,97862,1,0
232,192,98379,1,0
280,192,98586,1,0
256,312,99103,1,0
208,312,99310,1,0
0,104,100551,1,0
48,104,100758,1,0
40,224,101275,1,0
40,296,101586,1,0
136,296,102000,1,0
256,296,102517,1,0
256,248,102724,1,0
304,248,102931,1,0
424,248,103448,5,0
424,200,103655,1,0
424,104,104068,1,0
304,104,104586,1,0
304,176,104896,1,8
208,176,105310,1,8
208,272,105724,1,8
304,272,106137,1,8
448,272,106758,1,0
448,224,106965,2,0,L|448:16,1,180
376,40,107896,5,0
280,40,108310,1,0
184,40,108724,1,0
184,112,109034,1,0
136,112,109241,1,0
64,112,109551,1,0
64,208,109965,1,0
240,272,110793,1,0
264,272,110896,2,0,L|344:272,1,60
264,224,111413,1,0
144,136,112034,5,0
120,128,112137,1,0
120,200,112448,1,0
120,272,112758,1,0
120,320,112965,1,0
216,336,113379,1,0
216,216,113896,1,0
216,192,114000,1,0
216,144,114206,2,0,L|448:144,1,210
360,352,115862,5,0
264,280,116379,1,0
200,208,116793,1,0
128,136,117206,1,0
224,136,117620,2,0,L|384:136|384:136|384:136,1,150
304,288,118862,1,0
256,288,119068,1,0
208,288,119275,1,0
496,0,121034,5,0
408,48,121448,1,0
368,72,121655,1,0
328,96,121862,1,0
248,152,122275,1,0
208,176,122482,1,0
144,216,122793,1,0
88,256,123103,1,0
48,288,123310,2,0,L|256:288,2,180
80,224,124862,1,0
112,192,125068,1,0
152,168,125275,1,0
208,128,125586,1,0
208,152,125689,2,0,L|376:152,6,150
216,272,129310,1,0
120,272,129724,1,0
120,152,130241,5,0
216,152,130655,1,0
264,152,130862,2,0,L|264:336,2,180
408,152,132724,1,0
408,248,133137,1,0
336,248,133448,1,0
240,176,133965,2,0,L|39:246|43:122|-136:176,1,360
32,320,136034,1,0
128,320,136448,1,0
224,320,136862,1,0
224,224,137275,2,0,L|224:0,2,210
96,296,139344,6,0,L|280:296,1,180
272,248,140172,2,0,L|424:248,1,150
416,200,140896,2,0,L|515:35,2,180
344,192,142448,2,0,L|240:64,2,150
344,312,144000,2,0,L|192:384|-16:312,1,360
104,176,145965,5,0
104,80,146379,1,0
200,80,146793,1,0
208,176,147206,2,0,L|208:368|480:368,1,450
464,248,149275,5,0
368,248,149689,1,0
296,256,150000,2,0,L|144:256,1,150
288,128,151344,2,0,L|434:197|432:296|432:296|296:296,2,390
288,176,154241,1,0
208,328,154965,6,0,L|128:328,1,60
136,256,155482,2,0,L|336:224,1,180
296,128,156517,2,0,L|296:0|224:24|224:24|224:72,1,240
224,176,157862,1,0
232,344,158586,2,0,L|424:344|424:56|344:192,1,630
56,288,162103,5,0
112,208,162517,1,0
152,152,162827,1,0
216,280,163448,1,0
240,160,163965,2,0,L|136:136,1,90
112,112,164482,2,0,L|272:8,1,180
336,8,165413,2,0,L|336:144,1,120
328,248,166344,2,0,L|136:248|136:248|280:360,1,360
384,352,168103,1,0
384,304,168310,2,0,L|384:136|328:136,1,210
224,136,169551,1,0
224,232,169965,1,0
320,232,170379,1,0
320,168,170689,5,0
320,96,171000,1,0
272,144,171310,2,0,L|134:291|32:144,1,360
72,40,173068,1,0
96,32,173172,1,0
88,80,173379,1,0
112,72,173482,1,0
136,112,173689,1,0
152,152,173896,1,0
128,168,174000,1,0
184,272,174517,1,0
256,216,174931,1,0
336,168,175344,1,0
384,224,175655,5,0
440,176,175965,1,0
440,248,176275,2,0,L|296:248|296:344|296:344|168:344,1,360
176,224,178034,1,0
248,224,178344,1,0
248,152,178655,1,0
344,152,179068,1,0
344,248,179482,1,0
440,248,179896,1,0
440,320,180206,1,0
392,336,180413,1,0
344,336,180620,1,0
248,336,181034,5,0
248,240,181448,2,0,L|169:141|56:240,1,270
160,296,182896,1,0
184,296,183000,1,0
232,296,183206,1,0
328,296,183620,1,0
328,200,184034,1,0
232,200,184448,1,0
160,200,184758,5,0
160,104,185172,1,0
232,104,185482,1,0
352,104,186000,1,0
256,176,186517,2,0,L|488:176,1,210
464,224,187448,1,0
392,224,187758,1,0
296,224,188172,1,0
296,320,188586,1,0
224,320,188896,1,0
104,320,189413,1,0
88,224,189827,6,0,L|184:360|411:110|432:224,1,600
432,296,192310,1,0
336,296,192724,1,0
264,296,193034,1,0
264,176,193551,1,0
360,176,193965,1,0
456,176,194379,1,0
392,248,194793,2,0,L|248:392,4,180
368,248,197379,5,0
344,248,197482,1,0
296,248,197689,1,0
176,240,198206,1,0
176,168,198517,1,0
248,168,198827,1,0
296,168,199034,1,0
392,168,199448,1,0
392,96,199758,2,0,L|227:15|144:80,1,270
160,112,200896,1,0
160,160,201103,1,0
160,208,201310,1,0
160,232,201413,1,0
232,232,201724,1,0
328,240,202137,5,0
328,312,202448,1,0
232,312,202862,1,0
232,240,203172,1,0
232,168,203482,1,0
232,96,203793,1,0
304,96,204103,1,0
304,216,204620,1,0
336,248,204827,2,0,L|480:384|480:384|480:384,1,180
472,272,205862,5,0
456,256,205965,1,0
408,200,206275,1,0
392,176,206379,1,0
352,112,206689,1,0
280,176,207103,1,0
192,256,207620,1,0
192,184,207931,1,0
312,184,208448,1,0
408,184,208862,1,0
408,280,209275,1,0
288,280,209793,5,0
240,280,210000,1,0
168,280,210310,1,0
168,160,210827,1,0
192,160,210931,1,0
240,160,211137,1,0
336,160,211551,1,0
336,208,211758,1,0
336,280,212068,1,0
288,280,212275,1,0
240,280,212482,1,0
168,280,212793,5,0
168,328,213000,1,0
216,328,213206,1,0
216,280,213413,1,0
216,232,213620,1,0
168,232,213827,1,0
120,232,214034,1,0
120,280,214241,1,0
120,328,214448,1,0
120,376,214655,1,0
168,376,214862,1,0
216,376,215068,1,0
264,376,215275,1,0
264,328,215482,1,0
264,280,215689,1,0
264,232,215896,1,0
216,232,216103,1,0
208,184,216310,2,0,L|337:103|512:184,1,300
160,296,218793,5,0
280,296,219310,1,0
352,296,219620,1,0
352,200,220034,1,0
304,200,220241,1,0
184,192,220758,1,0
184,144,220965,2,0,L|384:144,2,180
104,296,222931,5,0
200,296,223344,1,0
200,200,223758,1,0
320,200,224275,1,0
320,248,224482,1,0
320,296,224689,1,0
416,296,225103,1,0
416,248,225310,1,0
416,128,225827,5,0
344,128,226137,1,0
248,128,226551,1,0
248,224,226965,1,0
128,224,227482,1,0
128,152,227793,1,0
248,152,228310,1,0
296,152,228517,1,0
296,224,228827,2,0,L|400:224,1,90
384,320,229551,1,0
288,320,229965,1,0
168,320,230482,5,0
224,272,230793,1,0
256,240,231000,1,0
288,200,231206,1,0
168,176,231724,1,0
112,264,232241,1,0
160,264,232448,1,0
160,312,232655,1,0
256,312,233068,1,0
256,264,233275,1,0
352,264,233689,2,8,L|352:304,2,30
352,216,234103,5,8
304,216,234310,1,8
256,216,234517,1,8
112,216,235137,1,0
120,312,235551,1,0
168,312,235758,1,0
216,312,235965,1,0
480,32,237620,1,0
480,128,238034,1,0
480,224,238448,1,0
408,224,238758,1,0
312,224,239172,2,0,L|104:224,1,180
128,32,240620,2,0,L|192:32,2,60,8|0|0
312,312,242482,5,0
264,256,242793,1,0
360,256,243206,1,0
360,304,243413,1,0
432,304,243724,1,0
424,232,244034,1,8
472,232,244241,1,8
448,192,244448,1,8
304,192,245068,1,0
184,192,245586,1,0
184,144,245793,1,0
256,144,246103,1,0
296,232,246517,1,8
344,232,246724,1,8
320,272,246931,1,8
408,240,247344,6,0,L|341:139|112:280|80:232|32:176|81:150|136:49|148:157|203:131|288:48,1,960
368,64,251068,1,0
464,64,251482,1,0
472,160,251896,1,0
352,160,252413,2,0,L|171:254|280:376,1,360
392,280,254275,5,0
392,184,254689,1,0
272,184,255206,1,0
176,184,255620,2,0,L|296:320,2,180
344,184,257586,1,0
344,304,258103,1,0
248,304,258517,1,0
248,208,258931,2,0,L|16:88,1,240
32,120,259862,2,0,L|32:328|136:368|272:304|264:88,1,660
336,112,262448,5,0
408,112,262758,1,0
408,208,263172,1,0
336,208,263482,1,0
336,304,263896,2,0,L|160:304,1,150
184,232,264724,2,0,L|184:48,1,180
232,56,265551,2,0,L|384:56,1,150
384,128,266379,2,0,L|384:296,1,150
192,264,267724,5,0
248,216,268034,1,0
208,128,268448,1,0
88,128,268965,2,0,L|40:176|184:272|184:272|32:272,1,390
160,336,270931,1,0
232,336,271241,1,0
232,240,271655,2,0,L|328:240,1,90
320,192,272172,2,0,L|160:192,1,150
168,120,273000,2,0,L|368:120,3,180
448,312,275793,5,0
328,312,276310,1,0
328,264,276517,1,0
448,264,277034,1,0
448,216,277241,1,0
328,216,277758,1,0
304,256,277965,2,0,L|104:256,1,180
120,208,278793,2,0,L|328:208,1,180
304,160,279620,1,0
184,160,280137,1,0
184,232,280448,1,0
184,304,280758,2,0,L|292:177|496:192,1,360
160,96,283448,5,0
168,240,284068,1,0
48,240,284586,1,0
48,144,285000,1,0
104,216,285413,2,0,L|272:216,1,150
328,224,286241,2,0,L|328:72,1,150
256,80,287068,2,0,L|88:80,1,150
104,152,287896,2,0,L|104:304|104:304,1,150
112,264,288724,1,0
128,208,310344,6,0,L|384:208,1,240
368,128,311482,2,0,L|368:16,1,270
208,208,312724,1,0
208,208,313034,1,0
208,128,313344,2,0,L|368:128,1,150
352,176,314068,2,0,L|416:304|352:384,2,240
160,208,316551,2,0,L,1,300
64,224,318103,5,0
96,224,318206,2,0,L|400:224,1,300
176,192,319448,6,0,L|464:96,1,300
256,272,320896,1,0
256,272,321310,1,0
256,272,321724,1,0
144,160,321931,2,0,L|304:144,1,150
304,192,322551,2,0,L,1,180
96,192,323482,5,0
96,192,323793,1,0
96,192,324000,1,0
96,192,324206,1,0
96,192,324724,1,0
96,192,325137,1,0
96,192,325551,1,0
96,192,326068,1,0
96,192,326275,1,0
96,192,326689,1,0
96,192,327103,1,0
96,192,327517,1,0
96,192,327931,5,0
96,192,328344,1,0
96,192,328758,2,0,L|233:66|400:192,1,390
384,256,330413,2,0,L|160:256,1,210
174,256,331344,2,0,L|400:256,1,210
176,256,332586,2,0,L|432:96,1,300
64,256,333724,1,0
64,256,334137,1,0
64,256,334551,2,0,L|416:256,1,330
336,192,336206,1,0
336,192,336620,5,0
336,192,336931,2,0,L|236:87|80:240,1,360
128,256,338689,6,0,L|288:176,1,150
288,224,339517,2,0,L,1,210
