osu file format v8

[General]
AudioFilename: Aural Planet Costa Del Nymphos.mp3
AudioLeadIn: 0
PreviewTime: 59233
Countdown: 0
SampleSet: Soft
StackLeniency: 0.7
Mode: 0
LetterboxInBreaks: 1

[Editor]
DistanceSpacing: 1.5
BeatDivisor: 4
GridSize: 8

[Metadata]
Title:Costa Del Nymphos
Artist:Aural Planet
Creator:La Cataline
Version:Normal
Source:
Tags:psymbient Natteke

[Difficulty]
HPDrainRate:4
CircleSize:4
OverallDifficulty:4
ApproachRate:6
SliderMultiplier:1
SliderTickRate:1

[Events]
//Background and Video events
0,0,"abstract_wave-75.jpg"
//Break Periods
//Storyboard Layer 0 (Background)
//Storyboard Layer 1 (Fail)
//Storyboard Layer 2 (Pass)
//Storyboard Layer 3 (Foreground)
//Storyboard Sound Samples
//Background Colour Transformations
3,100,0,0,0

[TimingPoints]
167,461.538461538462,4,2,0,40,1,0
27859,-200,4,2,0,30,0,0
57859,-100,4,2,0,0,0,0
58320,-200,4,2,0,30,0,0
58782,-100,4,2,0,0,0,0
59243,-100,4,2,1,30,0,0
88320,-100,4,2,1,0,0,0
88782,-100,4,2,1,50,0,0
145782,-100,4,2,1,0,0,0

[Colours]
Combo1 : 183,225,249
Combo2 : 21,180,255
Combo3 : 128,128,255
SliderBorder : 145,145,145

[HitObjects]
424,96,44474,2,0,C|336:72|256:96|176:72|88:96,1,350,2|0
88,200,48167,2,0,C|176:176|256:200|336:176|424:200,1,350,2|0
416,56,51859,6,0,B|336:152|176:104|96:208,1,350,2|0
128,272,55551,2,0,B|208:176|368:224|448:120,1,350,2|0
256,72,59243,6,0,B|200:64|152:96,1,100,4|2
232,120,59936,2,0,B|176:112|128:144,1,100,4|0
64,160,60628,1,2
64,160,60859,1,0
64,160,61090,2,0,B|40:208|64:264,1,100,4|2
136,240,61782,2,0,B|152:272|184:296,2,75,4|4|2
136,240,62705,1,0
160,176,62936,6,0,B|280:160,1,100,4|2
192,120,63628,2,0,B|312:104,1,100,4|0
368,88,64320,1,2
368,88,64551,1,0
314,34,64782,2,0,B|240:11|160:35,2,150,4|4|4
456,80,66628,6,0,B|464:136|424:192,1,100,4|2
408,104,67320,2,0,B|416:160|376:216,1,100,4|0
360,272,68013,1,2
360,272,68243,1,0
288,264,68474,2,0,B|248:251|214:206,3,75,4|0|4|0
227,221,69859,1,2
168,80,70320,6,0,B|128:112|128:184,1,100,4|2
200,136,71013,2,0,B|160:168|160:240,1,100,4|0
160,225,71705,1,2
40,136,72167,1,4
40,136,72628,1,2
40,136,72859,2,0,B|56:176|104:192,2,75,4|4|2
104,96,73782,1,0
104,96,74013,6,0,B|56:64,2,50,4|0|2
176,112,74705,2,0,B|219:142,2,50,4|0|2
152,40,75397,2,0,B|104:8,1,50,2|0
168,56,75859,2,0,B|88:96|104:200,1,150,4|4
176,184,76782,2,0,B|232:184,1,50,0|2
160,224,77243,2,0,B|208:232,1,50,2|0
280,248,77705,6,0,B|320:280,2,50,4|0|2
248,176,78397,2,0,B|248:56|384:56,1,200,4|2
408,120,79551,2,0,B|368:168,2,50,4|0|2
456,64,80243,2,0,B|504:96|488:152,1,100,4|0
464,224,80936,2,0,B|432:240|400:232,1,50,2|0
488,256,81397,6,0,B|416:288|328:256,1,150,4|4
408,224,82320,2,0,B|352:240|288:216,1,100,0|2
272,288,83013,1,0
232,224,83243,2,0,B|160:184|80:216,1,150,4|4
152,256,84166,2,0,B|88:248|40:264,1,100,0|2
8,320,84859,1,0
80,336,85090,6,0,B|120:392,2,50,4|0|2
152,320,85782,2,0,B|192:376,2,50,4|0|0
216,280,86474,5,2
216,204,86705,1,0
292,204,86936,1,0
292,279,87166,1,0
240,226,87397,5,2
316,226,87628,1,0
316,302,87859,1,0
241,302,88090,1,0
176,264,88320,2,0,B|120:296,1,50
176,224,88782,6,0,B|136:208,4,25,4|0|0|0|2
248,208,89474,2,0,B|296:136|376:144,1,150,4|10
374,143,90397,1,0
352,72,90628,2,0,B|400:56|440:80,2,75,4|0|4
256,280,92013,1,10
256,280,92243,1,0
256,280,92474,6,0,B|336:312|408:248,1,150,4|4
328,240,93397,2,0,B|384:232|432:192,1,100,0|10
419,201,94090,1,0
368,152,94320,2,0,B|344:104|328:40,1,100,4|0
332,58,95013,2,0,B|308:106|292:170,1,100,4|0
296,151,95705,1,10
176,64,96166,6,0,B|136:80,4,25,4|0|0|0|2
184,136,96859,2,0,B|152:176|80:176,1,100,4|0
168,192,97551,2,0,B|136:208|112:208,1,50,10|0
80,272,98013,1,4
176,336,98359,1,0
272,272,98705,1,4
112,112,99397,1,10
112,112,99628,1,0
112,112,99859,6,0,B|168:80|216:136|280:96,2,150,4|4|10
240,192,101705,2,0,B|184:224|136:168|72:208,2,150,4|4|10
344,208,103551,6,0,B|368:216|384:240,2,50,4|4|2
312,136,104243,2,0,B|264:112|208:136,1,100,4|4
144,160,104936,2,0,B|144:200,2,25,8|4|2
72,176,105397,2,0,B|64:264|128:312,1,150,4|2
64,352,106320,2,0,B|72:264|8:216,1,150,4|0
80,184,107243,6,0,B|120:254,1,50,4|4
123,152,107705,2,0,B|178:217,1,50,2|4
159,116,108166,2,0,B|224:160,1,50,0|4
177,72,108628,2,0,B|263:101,1,50,8|2
296,112,109090,2,0,B|304:200|240:248,1,150,4|2
304,296,110013,2,0,B|296:208|360:160,1,150,4|0
288,128,110936,6,0,B|296:88|280:48,1,50,4|2
256,224,111628,1,4
256,224,112090,1,2
256,224,112320,2,0,B|224:272|152:264,1,100,4|4
152,192,113013,2,0,B|184:168|208:176,1,50,0|2
232,104,113474,2,0,B|148:80|92:155,1,150,4|12
216,224,114628,6,0,B|208:264|224:304,1,50,4|2
248,128,115320,1,4
248,128,115782,1,2
248,128,116013,2,0,B|280:80|352:88,1,100,4|4
352,160,116705,2,0,B|320:184|296:176,1,50,0|2
272,248,117166,2,0,B|356:272|412:197,1,150,4|12
296,104,118320,6,0,B|328:136,4,25,4|0|2|0|2
242,50,119013,2,0,B|154:50|154:178|242:178,1,200,4|0
280,240,120166,2,0,B|368:240|368:112|280:112,1,200,4|2
104,96,122013,6,0,B|152:56,2,50,4|2|2
72,168,122705,2,0,B|200:176|224:40,1,200,4|0
144,56,123859,2,0,B|136:184|272:208,1,200,4|0
432,224,125705,6,0,B|472:328,1,100,4|2
392,304,126397,2,0,B|352:200,1,100,4|0
356,210,127090,1,10
216,160,127551,2,0,B|176:56,1,100,4|2
256,80,128243,2,0,B|296:184,1,100,4|0
291,173,128936,1,10
144,160,129397,6,0,B|96:160,4,25,4|0|2|0|2
176,232,130090,2,0,B|224:272,1,50,4|0
144,248,130551,2,0,B|176:304,1,50,0|4
24,240,131243,2,0,B|8:328|96:368,1,150,4|4
232,192,132628,1,10
232,192,132859,1,0
232,192,133090,6,0,B|288:80|416:128,1,200,4|0
398,122,134243,1,4
398,122,134474,1,8
344,264,134936,2,0,B|248:312,1,100,4|2
312,360,135628,2,0,B|408:312,1,100,4|2
401,315,136320,1,8
264,256,136782,6,0,B|216:304|136:232|72:288,1,200,4|0
21,233,137936,1,4
74,180,138166,1,8
184,72,138628,2,0,B|288:104,1,100,4|2
320,160,139320,2,0,B|216:128,1,100,4|2
224,130,140013,1,8
224,130,140243,1,0
224,130,140474,6,0,B|32:176|112:368,1,300,4|8
216,248,142320,2,0,B|408:202|328:10,1,300,4|8
216,112,144166,6,0,B|152:104|104:136,1,100,4|2
119,127,144859,2,0,B|111:191|143:239,1,100,4|2
200,184,145551,1,8
200,184,146013,1,0
