osu file format v8

[General]
AudioFilename: Aural Planet Costa Del Nymphos.mp3
AudioLeadIn: 0
PreviewTime: 59233
Countdown: 0
SampleSet: Soft
StackLeniency: 0.7
Mode: 0
LetterboxInBreaks: 1

[Editor]
Bookmarks: 44456,59225,88772,118310,146003
DistanceSpacing: 1.20000004768372
BeatDivisor: 4
GridSize: 8

[Metadata]
Title:Costa Del Nymphos
Artist:Aural Planet
Creator:La Cataline
Version:Natteke
Source:
Tags:psymbient Natteke

[Difficulty]
HPDrainRate:7
CircleSize:4
OverallDifficulty:7
ApproachRate:7
SliderMultiplier:1.4
SliderTickRate:0.5

[Events]
//Background and Video events
0,0,"abstract_wave-75.jpg"
//Break Periods
//Storyboard Layer 0 (Background)
//Storyboard Layer 1 (Fail)
//Storyboard Layer 2 (Pass)
//Storyboard Layer 3 (Foreground)
//Storyboard Sound Samples
//Background Colour Transformations
3,100,0,0,0

[TimingPoints]
167,461.538461538462,4,2,0,40,1,0
27859,-200,4,2,0,30,0,0
57397,-100,4,2,0,30,0,0
57859,-100,4,2,0,0,0,0
58205,-100,4,2,0,30,0,0
59243,-100,4,2,1,30,0,0
88782,-100,4,2,1,50,0,0
146474,-100,4,2,1,0,0,0

[Colours]
Combo1 : 183,225,249
Combo2 : 21,180,255
Combo3 : 128,128,255
SliderBorder : 145,145,145

[HitObjects]
184,208,44474,1,0
240,120,44936,1,0
328,176,45397,1,0
272,264,45859,1,0
256,192,46320,5,0
344,248,46782,1,0
288,336,47243,1,0
200,280,47705,1,0
272,264,48167,5,0
216,352,48628,1,0
128,296,49090,1,0
184,208,49551,1,0
200,280,50013,5,0
112,224,50474,1,0
168,136,50936,1,0
256,192,51397,1,0
256,192,51628,1,0
344,248,51859,5,0
416,192,52320,1,0
384,80,52782,1,0
256,32,53243,1,0
256,32,53705,5,0
128,80,54167,1,0
96,192,54628,1,0
168,248,55090,1,0
168,248,55320,1,0
256,192,55551,5,0
256,200,56013,1,0
256,208,56474,1,0
256,216,56936,1,0
256,304,57167,1,0
336,352,57397,6,0,B|400:256|336:144,1,210
176,32,58320,2,0,B|112:128|176:240,1,210
232,144,59243,6,0,B|272:208,1,70,4|0
392,96,59705,1,2
392,96,59936,2,0,B|368:168,1,70,4|0
328,232,60397,1,0
256,280,60628,1,2
336,312,60859,1,0
328,232,61090,6,0,B|288:160,1,70,4|0
216,200,61551,1,2
256,280,61782,2,0,B|160:344,2,105,4|4|2
256,280,62705,1,0
344,280,62936,6,0,B|400:232,1,70,4|0
328,192,63397,1,0
328,192,63628,2,0,B|400:136,1,70,4|0
304,112,64090,1,0
304,112,64320,2,0,B|376:64,1,70,2|0
224,176,64782,6,0,B|152:224,1,70,4|0
288,208,65243,2,0,B|360:160,1,70,2|4
280,128,65705,2,0,B|232:72,1,70
232,256,66167,2,0,B|280:312,1,70,4|0
360,328,66628,6,0,B|399:329|432:328,1,70,4|0
152,328,67090,2,0,B|113:329|80:328,1,70,2|4
377,311,67551,2,0,B|416:312|449:311,1,70,0|0
135,311,68013,2,0,B|96:312|63:311,1,70,2|0
32,232,68474,5,4
88,168,68705,1,0
144,232,68936,1,2
256,136,69167,2,0,B|256:24,2,105,4|4|2
368,232,70090,1,0
424,168,70320,5,4
424,168,71013,1,4
424,168,71474,1,0
424,168,71705,1,2
480,104,71936,1,2
400,88,72167,6,0,B|312:88,1,70,4|0
256,192,72628,2,0,B|256:296,1,70,2|4
256,262,73205,1,4
256,262,73782,1,4
176,224,74013,6,0,B|160:152|184:64,1,140,4|2
336,160,74705,2,0,B|352:232|328:320,1,140,4|0
333,298,75397,1,2
256,264,75628,1,0
328,224,75859,6,0,B|416:200,1,70,4|0
368,104,76320,1,2
248,64,76551,2,4,B|224:112|184:184,1,105
256,264,77243,1,2
168,264,77474,1,0
168,176,77705,5,4
256,176,77936,1,0
211,219,78167,1,2
208,304,78397,1,4
296,304,78628,1,0
296,216,78859,1,2
256,256,79090,1,0
160,256,79320,1,2
104,192,79551,6,0,B|112:112|192:72,1,140,4|2
408,192,80243,2,4,B|400:272|320:312,1,140,4|0
360,240,80936,2,0,B|344:272|304:296,1,70,4|0
328,232,81397,6,0,B|288:296|192:320,1,140,4|0
296,304,82090,2,0,B|328:232|408:208,1,140,4|0
376,264,82782,2,0,B|400:232|448:224,1,70,0|0
480,160,83243,6,0,B|408:128|336:184,1,140,4|0
256,184,83936,2,4,B|272:120|232:64,1,105,4|4
240,80,84628,1,0
160,88,84859,1,0
168,168,85090,6,0,B|160:96|176:24,1,140,4|0
128,152,85782,2,0,B|208:136|288:160,1,140,4|0
288,248,86474,1,0
208,240,86705,1,0
200,320,86936,1,4
72,80,88782,6,0,B|144:64,1,70,4|0
208,160,89243,2,0,B|232:72,1,70,0|4
128,136,89705,2,0,B|112:216|112:280,1,140,2|0
192,288,90397,1,0
272,304,90628,5,4
336,224,90859,1,2
408,144,91090,1,2
344,56,91320,1,4
336,56,91436,1,0
328,56,91551,2,4,B|264:56|264:56,1,35,2|4
144,152,92243,1,0
144,152,92474,6,0,B|72:184,1,70,4|0
112,256,92936,2,0,B|160:320,1,70,0|4
216,256,93397,2,0,B|248:176,1,70,2|0
120,104,93859,2,0,B|48:136,1,70
80,280,94320,6,0,B|128:344,1,70,4|0
184,280,94782,1,2
136,216,95013,1,4
136,216,95705,1,4
136,128,95936,1,2
224,128,96166,6,0,B|320:120,1,70,4|0
296,208,96628,2,0,B|400:200,1,70,2|4
216,112,97090,2,0,B|312:104,1,70,0|0
285,106,97551,1,2
285,106,98013,5,4
256,192,98243,1,0
216,272,98474,1,2
128,272,98705,2,0,B|16:272,2,105,4|4|2
104,96,99859,6,0,B|168:152,1,70,4|0
104,288,100320,2,0,B|168:232,1,70,2|4
224,96,100782,2,0,B|288:152,1,70,0|0
224,288,101243,2,0,B|288:232,1,70,2|0
104,192,101705,6,0,B|248:192,1,140,4|2
136,216,102397,2,4,B|136:80,1,105
136,111,103090,1,2
136,111,103320,1,4
248,112,103551,6,0,B|224:136|232:184,1,70,4|0
288,280,104013,2,0,B|312:256|304:208,1,70,2|4
136,111,104474,2,0,B|80:168|112:264,1,140,0|2
176,288,105166,1,0
104,248,105397,6,0,B|176:248|256:240,1,140,4|2
408,136,106090,2,0,B|360:136|288:144,1,105,4|4
304,272,106782,1,2
176,272,107013,1,0
176,272,107243,6,0,B|152:200|160:120,1,140,4|2
336,112,107936,2,0,B|360:184|352:264,1,140,4|0
280,296,108628,1,2
280,208,108859,1,0
256,128,109090,6,0,B|176:152|120:88,1,140,4|2
80,256,109782,2,0,B|64:144,2,105,4|0|2
152,304,110705,1,0
208,240,110936,5,4
256,168,111166,1,0
304,240,111397,1,2
352,304,111628,2,0,B|504:304,1,140,4|0
424,216,112320,2,0,B|504:216,1,70,2|0
424,120,112782,6,0,B|416:72|376:56,1,70,4|0
336,136,113243,2,0,B|336:184|392:208,1,70,2|4
264,232,113705,2,0,B|264:184|224:168,2,70,0|0|2
200,280,114397,1,2
200,280,114513,1,2
200,280,114628,6,0,B|176:216|96:176,1,140,4|2
128,264,115320,2,0,B|176:208|192:120,1,140,4|0
224,72,116013,2,0,B|224:112|184:144,1,70,2|0
256,208,116474,6,0,B|256:320,2,105,4|4|2
176,208,117397,1,0
184,120,117628,1,0
256,72,117859,1,2
328,120,118090,1,4
336,208,118320,5,4
208,320,118782,2,0,B|224:288|224:232,1,70,2|4
304,64,119243,2,0,B|288:96|288:152,1,70,0|0
384,240,119705,2,0,B|352:224|296:224,1,70,2|0
316,224,120166,5,4
240,200,120397,1,0
208,280,120628,1,2
288,312,120859,1,4
296,160,121090,1,0
176,216,121320,1,0
224,344,121551,1,2
352,288,121782,1,0
432,256,122013,6,0,B|440:184|432:96,1,140,4|2
384,48,122705,2,0,B|312:40|240:48,1,140,4|0
288,120,123397,2,0,B|328:120|376:128,1,70,2|0
408,192,123859,5,4
304,320,124090,1,0
304,320,124320,1,2
408,192,124551,1,4
408,192,124782,1,0
304,64,125013,1,0
304,64,125243,2,0,B|264:48,4,35,2|0|2|2|4
104,192,126166,5,2
104,192,126397,2,0,B|136:120|232:112,1,140,4|0
408,192,127090,2,0,B|376:264|280:272,1,140,2|4
256,192,127782,1,0
168,192,128013,1,2
168,112,128243,1,4
88,152,128474,1,0
88,232,128705,1,0
168,272,128936,1,2
168,272,129166,1,0
248,272,129397,6,0,B|232:248|232:240|264:232|264:224|240:184,1,70,4|0
248,56,129859,2,0,B|232:80|232:88|264:96|264:104|240:144,1,70,2|4
384,160,130320,2,0,B|360:144|352:144|344:176|336:176|296:152,1,70,0|0
128,160,130782,2,0,B|152:144|160:144|168:176|176:176|216:152,1,70,2|0
256,216,131243,5,4
256,216,131474,1,0
198,271,131705,2,0,B|162:241|183:183,1,70,2|4
313,158,132166,2,0,B|349:188|328:246,1,70,0|0
163,282,132628,2,0,B|127:252|148:194,1,70,2|4
160,136,133090,5,4
232,88,133320,1,0
320,88,133551,1,2
272,160,133782,1,4
352,176,134013,1,0
416,232,134243,1,0
336,256,134474,1,2
392,320,134705,1,0
312,336,134936,6,0,B|240:360,1,70,4|0
128,280,135397,2,0,B|208:304,1,70,2|4
312,208,135859,2,0,B|240:232,1,70,0|0
128,144,136320,2,0,B|208:168,1,70,2|0
256,104,136782,5,4
344,104,137013,1,0
424,104,137243,1,2
344,192,137474,1,4
424,256,137705,2,0,B|512:256,1,70
256,256,138166,2,0,B|168:256,1,70,2|0
112,216,138628,6,0,B|88:144|120:48,1,140,4|2
184,152,139320,2,0,B|208:224|176:320,1,140,4|0
104,112,140013,2,0,B|104:72|128:32,1,70,4|0
208,48,140474,6,0,B|280:40|360:48,1,140,4|2
272,128,141166,2,0,B|200:136|120:128,1,140,4|0
132,129,141859,1,2
48,136,142090,1,0
96,200,142320,6,0,B|88:272|128:352,1,140,4|2
184,240,143013,2,0,B|192:184|160:120,1,105,4|4
80,72,143705,2,0,B|160:48,1,70,2|0
224,88,144166,5,4
224,88,144397,1,0
296,136,144628,1,2
296,136,144859,1,4
368,184,145090,1,0
368,184,145320,1,0
440,224,145551,1,2
440,224,145782,1,0
440,312,146013,6,0,B|336:256|264:352|152:288,1,280,4|0
